osu file format v14

[General]
AudioFilename: audio.mp3
AudioLeadIn: 0
PreviewTime: 19
Countdown: 1
SampleSet: Soft
StackLeniency: 0.7
Mode: 0
LetterboxInBreaks: 0
WidescreenStoryboard: 1

[Editor]
Bookmarks: 38056,42889,51472,54056
DistanceSpacing: 1.2
BeatDivisor: 4
GridSize: 8
TimelineZoom: 1.9

[Metadata]
Title:color
TitleUnicode:color
Artist:CHiCO with HoneyWorks
ArtistUnicode:CHiCO with HoneyWorks
Creator:DakiniBrave
Version:Insane
Source:
Tags:
BeatmapID:1955913
BeatmapSetID:935719

[Difficulty]
HPDrainRate:6
CircleSize:4
OverallDifficulty:9
ApproachRate:9.2
SliderMultiplier:1.7
SliderTickRate:1

[Events]
//Background and Video events
0,0,"color.jpg",0,0
//Break Periods
2,30256,37486
//Storyboard Layer 0 (Background)
//Storyboard Layer 1 (Fail)
//Storyboard Layer 2 (Pass)
//Storyboard Layer 3 (Foreground)
//Storyboard Sound Samples

[TimingPoints]
723,333.333333333333,4,2,1,50,1,0
723,-142.857142857143,4,2,1,50,0,0
11389,-111.111111111111,4,2,1,70,0,0
14056,-111.111111111111,4,2,1,80,0,0
16722,-111.111111111111,4,2,1,60,0,0
18972,-111.111111111111,4,2,1,5,0,0
19056,-111.111111111111,4,2,1,60,0,0
19389,-111.111111111111,4,2,1,70,0,0
24722,-111.111111111111,4,2,1,80,0,0
27389,-111.111111111111,4,2,1,60,0,0
38056,-111.111111111111,4,2,1,50,0,0
40722,-111.111111111111,4,2,1,60,0,0
51397,-111.111111111111,4,2,1,50,0,0
53389,-142.857142857143,4,2,1,50,0,0
54056,-142.857142857143,4,2,1,60,0,0
64722,-100,4,2,1,80,0,1
70306,-100,4,2,1,5,0,1
70389,-100,4,2,1,80,0,1
86056,-100,4,2,1,80,0,0
88722,-100,4,2,1,80,0,1
92722,-100,4,2,1,60,0,1
93389,-200,4,2,1,60,0,1
94056,-125,4,2,1,40,0,0

[Colours]
Combo1 : 209,90,226
Combo2 : 145,107,241
Combo3 : 230,143,241
Combo4 : 134,69,222

[HitObjects]
117,161,723,5,2,0:0:0:0:
136,82,2056,5,2,0:0:0:0:
117,161,3389,5,2,0:0:0:0:
175,216,4722,5,2,0:0:0:0:
194,139,5389,1,2,0:0:0:0:
117,161,6056,1,2,0:0:0:0:
252,194,7389,5,2,0:0:0:0:
271,117,8056,1,2,0:0:0:0:
233,271,8722,1,2,0:0:0:0:
74,100,9222,5,2,0:0:0:0:
74,100,9306,1,2,0:0:0:0:
74,100,9389,2,0,P|85:140|83:183,1,59.4999981842042,2|2,0:0|0:0,0:0:0:0:
166,166,9722,2,0,P|155:206|157:249,1,59.4999981842042,2|2,0:0|0:0,0:0:0:0:
47,309,10056,6,0,P|109:305|176:352,1,118.999996368408,2|2,0:0|0:0,0:0:0:0:
275,260,10556,2,0,L|144:229,1,118.999996368408,2|2,0:0|0:0,0:0:0:0:
241,145,11056,1,2,0:0:0:0:
318,311,11389,5,8,0:0:0:0:
366,215,11556,1,0,1:0:0:0:
414,359,11722,1,0,1:0:0:0:
271,227,11889,6,0,L|287:141,2,76.4999976654053,8|0|0,0:0|1:0|1:0,0:0:0:0:
471,297,12389,5,8,0:0:0:0:
268,241,12556,1,0,1:0:0:0:
457,165,12722,1,0,1:0:0:0:
368,324,12889,6,0,P|370:286|378:249,1,76.4999976654053,8|0,0:0|1:0,0:0:0:0:
467,160,13222,1,0,1:0:0:0:
424,47,13389,5,8,0:0:0:0:
396,41,13472,1,0,1:0:0:0:
368,48,13555,1,0,1:0:0:0:
346,66,13639,1,0,1:0:0:0:
333,92,13722,2,0,P|332:117|335:142,1,38.2499988327027,0|0,1:0|1:0,0:0:0:0:
222,229,13889,2,0,P|222:209|221:190,1,38.2499988327027,0|0,1:0|1:0,0:0:0:0:
88,152,14056,6,0,P|114:91|146:75,1,76.4999976654053,12|0,0:0|1:0,0:0:0:0:
7,193,14389,2,0,P|0:127|13:90,1,76.4999976654053,8|0,0:0|1:0,0:0:0:0:
177,191,14722,1,8,0:0:0:0:
95,161,14889,1,0,1:0:0:0:
244,247,15056,1,8,0:0:0:0:
162,277,15223,1,0,1:0:0:0:
307,182,15389,6,0,P|327:214|332:270,1,76.4999976654053,8|0,0:0|1:0,0:0:0:0:
214,100,15722,2,0,P|220:62|241:30,1,76.4999976654053,8|0,0:0|1:0,0:0:0:0:
411,143,16056,1,8,0:0:0:0:
299,98,16222,1,0,1:0:0:0:
402,149,16389,1,8,0:0:0:0:
254,174,16556,1,0,1:0:0:0:
351,306,16722,6,0,P|357:264|371:224,1,76.4999976654053,10|0,0:0|0:0,0:0:0:0:
247,298,17056,2,0,P|258:334|263:372,1,76.4999976654053,0|0,1:0|0:0,0:0:0:0:
168,203,17389,2,0,P|205:197|246:186,1,76.4999976654053,0|0,1:0|0:0,0:0:0:0:
78,285,17722,2,0,P|115:290|156:302,1,76.4999976654053,0|0,1:0|0:0,0:0:0:0:
115,124,18056,5,0,1:0:0:0:
115,124,18222,1,0,0:0:0:0:
56,211,18389,1,0,1:0:0:0:
56,211,18556,1,0,0:0:0:0:
203,87,18722,2,0,P|163:47|89:28,1,114.749996498108,0|0,1:0|0:0,0:0:0:0:
98,32,19056,1,8,0:0:0:0:
236,190,19389,6,0,L|325:172,1,76.4999976654053,8|0,0:0|0:0,0:0:0:0:
425,89,19722,2,0,L|336:71,1,76.4999976654053,8|0,0:0|0:0,0:0:0:0:
397,279,20056,1,8,0:0:0:0:
487,238,20222,2,0,P|448:196|403:182,1,76.4999976654053,0|8,1:0|0:0,0:0:0:0:
228,286,20556,2,0,P|282:269|328:279,1,76.4999976654053,0|8,1:0|0:0,0:0:0:0:
153,364,20889,6,0,P|148:279|124:198,1,152.999995330811,2|0,0:0|0:0,0:0:0:0:
23,134,21389,2,0,P|61:133|98:124,1,76.4999976654053,8|0,0:0|1:0,0:0:0:0:
270,162,21722,2,0,P|232:153|194:152,1,76.4999976654053,8|0,0:0|1:0,0:0:0:0:
377,46,22056,6,0,P|364:111|367:139,1,76.4999976654053,8|0,0:0|0:0,0:0:0:0:
442,258,22389,2,0,P|440:219|429:183,1,76.4999976654053,8|0,0:0|0:0,0:0:0:0:
342,221,22722,1,8,0:0:0:0:
342,221,22889,1,0,1:0:0:0:
446,102,23056,2,0,P|408:105|373:120,1,76.4999976654053,8|0,0:0|1:0,0:0:0:0:
250,294,23389,6,0,P|243:235|230:204,1,76.4999976654053,8|0,0:0|0:0,0:0:0:0:
327,384,23722,2,0,P|350:329|354:296,1,76.4999976654053,8|0,0:0|0:0,0:0:0:0:
154,275,24056,1,8,0:0:0:0:
223,377,24222,1,0,1:0:0:0:
247,211,24389,2,0,P|257:247|259:285,1,76.4999976654053,8|0,0:0|1:0,0:0:0:0:
58,164,24722,6,0,L|44:65,1,76.4999976654053,8|0,0:0|1:0,0:0:0:0:
159,197,25056,2,0,L|145:98,1,76.4999976654053,8|0,0:0|1:0,0:0:0:0:
59,250,25389,6,0,L|45:151,1,76.4999976654053,8|0,0:0|1:0,0:0:0:0:
160,283,25723,2,0,L|146:184,1,76.4999976654053,8|0,0:0|1:0,0:0:0:0:
249,99,26056,6,0,P|269:159|262:188,1,76.4999976654053,8|0,0:0|1:0,0:0:0:0:
166,289,26389,2,0,P|208:240|236:232,1,76.4999976654053,8|0,0:0|1:0,0:0:0:0:
373,265,26723,2,0,P|309:252|289:231,1,76.4999976654053,8|0,0:0|1:0,0:0:0:0:
362,164,27056,1,8,0:0:0:0:
462,331,27223,1,0,1:0:0:0:
462,331,27306,1,0,1:0:0:0:
462,331,27389,6,0,L|475:220,1,76.4999976654053,8|0,0:0|0:0,0:0:0:0:
488,151,27722,2,0,B|401:143|417:190|338:177,1,152.999995330811,8|8,0:0|0:0,0:0:0:0:
246,96,28222,1,0,1:0:0:0:
243,216,28389,1,8,0:0:0:0:
353,80,28556,1,0,1:0:0:0:
140,53,28722,6,0,P|151:121|148:142,1,76.4999976654053,0|0,1:0|1:0,0:0:0:0:
84,212,29056,2,0,P|73:280|76:301,1,76.4999976654053,0|0,1:0|1:0,0:0:0:0:
137,365,29389,1,0,1:0:0:0:
246,282,29556,1,0,1:0:0:0:
246,282,29639,1,0,1:0:0:0:
246,282,29722,2,0,L|158:265,1,76.4999976654053,0|0,1:0|0:0,0:0:0:0:
37,368,30056,5,4,0:0:0:0:
338,131,38056,6,0,L|240:114,1,76.4999976654053,0|0,1:0|0:0,0:0:0:0:
400,56,38389,2,0,L|498:39,1,76.4999976654053,8|0,0:0|0:0,0:0:0:0:
435,150,38722,1,0,1:0:0:0:
435,150,38806,1,0,1:0:0:0:
435,150,38889,1,0,1:0:0:0:
309,46,39056,1,8,0:0:0:0:
310,193,39222,1,0,1:0:0:0:
308,207,39305,1,0,1:0:0:0:
304,221,39389,6,0,P|265:216|203:217,1,76.4999976654053,0|0,1:0|0:0,0:0:0:0:
114,147,39722,2,0,P|152:146|190:141,1,76.4999976654053,8|0,0:0|0:0,0:0:0:0:
253,88,39972,1,2,0:0:0:0:
253,88,40056,2,0,P|258:50|259:11,1,76.4999976654053,0|0,1:0|1:0,0:0:0:0:
343,137,40389,2,0,P|344:175|349:213,1,76.4999976654053,8|0,0:0|1:0,0:0:0:0:
394,294,40639,1,0,1:0:0:0:
394,294,40722,6,0,P|356:290|296:299,1,76.4999976654053,4|0,0:0|0:0,0:0:0:0:
185,358,41056,2,0,B|267:338|250:386|342:373,1,152.999995330811,8|0,0:0|1:0,0:0:0:0:
408,283,41556,1,0,1:0:0:0:
293,209,41722,2,0,P|305:247|311:286,1,76.4999976654053,8|0,0:0|0:0,0:0:0:0:
382,133,42056,6,0,L|198:112,1,152.999995330811,0|8,1:0|0:0,0:0:0:0:
156,42,42556,1,0,0:0:0:0:
117,152,42722,2,0,P|115:216|120:263,1,76.4999976654053,0|0,1:0|1:0,0:0:0:0:
217,287,43056,2,0,P|218:248|215:210,1,76.4999976654053,8|0,0:0|0:0,0:0:0:0:
134,314,43389,6,0,P|179:301|233:303,1,76.4999976654053,0|0,1:0|0:0,0:0:0:0:
306,370,43722,2,0,L|317:188,1,152.999995330811,8|0,0:0|1:0,0:0:0:0:
262,93,44222,1,0,1:0:0:0:
413,152,44389,2,0,L|322:139,1,76.4999976654053,8|0,0:0|0:0,0:0:0:0:
250,88,44639,1,0,1:0:0:0:
238,84,44722,6,0,L|162:94,1,76.4999976654053,0|0,1:0|0:0,0:0:0:0:
35,153,45056,2,0,L|111:163,1,76.4999976654053,8|0,0:0|0:0,0:0:0:0:
193,206,45306,1,0,1:0:0:0:
193,206,45389,2,0,P|203:253|201:290,1,76.4999976654053,0|0,1:0|1:0,0:0:0:0:
101,340,45722,2,0,P|101:301|110:264,1,76.4999976654053,8|0,0:0|0:0,0:0:0:0:
266,348,46056,6,0,P|225:351|171:366,1,76.4999976654053,0|0,1:0|0:0,0:0:0:0:
351,381,46389,2,0,P|347:300|323:223,1,152.999995330811,8|0,0:0|1:0,0:0:0:0:
225,190,46889,1,0,1:0:0:0:
318,80,47056,2,0,P|305:122|303:162,1,76.4999976654053,8|0,0:0|0:0,0:0:0:0:
137,95,47389,6,0,P|185:103|223:102,1,76.4999976654053,0|0,1:0|0:0,0:0:0:0:
37,21,47722,2,0,L|22:174,1,152.999995330811,8|0,0:0|1:0,0:0:0:0:
161,284,48222,1,0,1:0:0:0:
167,195,48389,2,0,P|90:227|84:235,1,76.4999976654053,8|0,0:0|0:0,0:0:0:0:
99,351,48639,1,0,1:0:0:0:
98,350,48722,6,0,P|131:370|169:375,1,76.4999976654053,0|0,1:0|0:0,0:0:0:0:
307,274,49056,2,0,P|273:292|249:322,1,76.4999976654053,8|0,0:0|0:0,0:0:0:0:
385,367,49389,2,0,L|397:263,1,76.4999976654053,0|0,1:0|1:0,0:0:0:0:
471,185,49722,2,0,L|479:260,1,76.4999976654053,8|0,0:0|0:0,0:0:0:0:
329,199,50056,5,0,1:0:0:0:
481,175,50222,1,0,0:0:0:0:
312,112,50389,1,8,0:0:0:0:
401,143,50556,1,0,0:0:0:0:
287,275,50722,2,0,P|250:229|243:189,1,76.4999976654053,0|0,1:0|1:0,0:0:0:0:
180,130,51056,2,0,P|158:185|127:211,1,76.4999976654053,8|0,0:0|0:0,0:0:0:0:
14,212,51389,5,2,0:0:0:0:
20,220,52056,6,0,L|10:285,2,50.9999984436036,2|0|0,0:0|0:0|0:0,0:0:0:0:
67,145,52389,2,0,L|59:94,2,50.9999984436036,2|0|0,0:0|0:0|0:0,0:0:0:0:
108,223,52722,2,0,L|98:288,2,50.9999984436036,2|0|0,0:0|0:0|0:0,0:0:0:0:
154,142,53056,2,0,L|146:91,2,50.9999984436036,2|0|0,0:0|0:0|0:0,0:0:0:0:
194,220,53389,2,0,L|318:232,1,118.999996368408,2|2,0:0|0:0,0:0:0:0:
407,98,54000,5,0,0:0:0:0:
415,105,54389,6,0,P|421:123|424:143,2,39.6666654561361,8|0|0,0:0|0:0|0:0,0:0:0:0:
341,56,54722,2,0,L|268:66,1,59.4999981842042,8|0,0:0|0:0,0:0:0:0:
180,41,55056,6,0,P|186:22|189:2,2,39.6666654561361,8|0|0,0:0|0:0|0:0,0:0:0:0:
106,90,55389,2,0,L|33:80,1,59.4999981842042,8|0,0:0|0:0,0:0:0:0:
70,209,55722,6,0,P|71:189|75:169,2,39.6666654561361,8|0|0,0:0|0:0|0:0,0:0:0:0:
152,205,56056,2,0,P|168:216|183:229,2,39.6666654561361,8|0|0,0:0|0:0|0:0,0:0:0:0:
114,278,56389,2,0,P|96:286|77:293,2,39.6666654561361,8|0|0,0:0|0:0|0:0,0:0:0:0:
199,318,56722,5,12,0:0:0:0:
206,327,57056,2,0,L|197:372,2,39.6666654561361,8|0|0,0:0|0:0|0:0,0:0:0:0:
265,273,57389,2,0,L|249:200,1,59.4999981842042,8|0,0:0|0:0,0:0:0:0:
296,109,57722,6,0,L|287:64,2,39.6666654561361,8|0|0,0:0|0:0|0:0,0:0:0:0:
355,163,58055,2,0,L|339:236,1,59.4999981842042,8|0,0:0|0:0,0:0:0:0:
193,272,58389,2,0,P|196:308|205:323,2,39.6666654561361,8|0|0,0:0|0:0|0:0,0:0:0:0:
240,201,58722,2,0,P|269:180|278:165,2,39.6666654561361,8|0|0,0:0|0:0|0:0,0:0:0:0:
155,196,59056,2,0,P|122:180|104:180,2,39.6666654561361,8|0|0,0:0|0:0|0:0,0:0:0:0:
83,317,59389,5,12,0:0:0:0:
91,323,59722,6,0,L|99:375,2,39.6666654561361,8|0|0,0:0|0:0|0:0,0:0:0:0:
45,242,60056,2,0,P|75:232|116:230,1,59.4999981842042,8|0,0:0|0:0,0:0:0:0:
193,191,60389,6,0,L|185:139,2,39.6666654561361,8|0|0,0:0|0:0|0:0,0:0:0:0:
239,272,60723,2,0,P|209:282|168:284,1,59.4999981842042,8|0,0:0|0:0,0:0:0:0:
315,222,61056,6,0,P|326:240|332:258,2,39.6666654561361,8|0|0,0:0|0:0|0:0,0:0:0:0:
413,256,61389,2,0,P|413:275|409:295,2,39.6666654561361,8|0|0,0:0|0:0|0:0,0:0:0:0:
480,333,61722,2,0,P|470:350|457:364,2,39.6666654561361,8|0|0,0:0|0:0|0:0,0:0:0:0:
500,240,62056,5,12,0:0:0:0:
416,179,62389,6,0,L|365:191,2,39.6666654561361,8|0|0,0:0|1:0|1:0,0:0:0:0:
474,120,62722,2,0,L|525:132,2,39.6666654561361,0|0|0,1:0|1:0|1:0,0:0:0:0:
389,98,63056,2,0,L|338:110,2,39.6666654561361,0|0|0,1:0|1:0|1:0,0:0:0:0:
452,36,63389,5,4,1:0:0:0:
108,43,64722,6,0,P|126:104|128:156,1,85,8|0,0:0|0:0,0:0:0:0:
22,208,65056,2,0,P|28:166|42:125,1,85,8|0,0:0|0:0,0:0:0:0:
202,195,65389,2,0,P|140:209|94:234,1,85,8|0,0:0|1:0,0:0:0:0:
61,315,65722,1,8,0:0:0:0:
204,373,65889,2,0,L|187:268,1,85,0|8,1:0|0:0,0:0:0:0:
315,216,66222,2,0,L|302:300,1,85,0|8,0:0|0:0,0:0:0:0:
212,187,66556,1,0,0:0:0:0:
343,127,66722,5,8,0:0:0:0:
343,127,66889,1,0,1:0:0:0:
202,78,67056,1,8,0:0:0:0:
202,78,67222,1,0,1:0:0:0:
339,29,67389,6,0,P|388:40|432:68,1,85,8|0,0:0|0:0,0:0:0:0:
512,164,67722,2,0,P|463:175|419:203,1,85,8|0,0:0|0:0,0:0:0:0:
384,323,68056,1,8,0:0:0:0:
321,196,68222,1,0,1:0:0:0:
372,330,68389,1,8,0:0:0:0:
420,181,68556,1,0,1:0:0:0:
203,268,68722,6,0,P|246:268|287:279,1,85,8|0,0:0|0:0,0:0:0:0:
133,346,69056,2,0,P|92:356|49:357,1,85,8|0,0:0|0:0,0:0:0:0:
126,179,69389,1,8,0:0:0:0:
197,275,69556,1,0,1:0:0:0:
35,233,69722,2,0,L|23:118,1,85,8|0,0:0|1:0,0:0:0:0:
0,36,70056,6,0,P|55:41|123:64,1,127.5,8|0,0:0|0:0,0:0:0:0:
137,77,70389,2,0,L|223:57,1,85,8|0,0:0|0:0,0:0:0:0:
356,22,70722,2,0,P|335:65|330:106,1,85,8|0,0:0|1:0,0:0:0:0:
272,226,71056,2,0,P|264:184|246:146,1,85,8|0,0:0|1:0,0:0:0:0:
155,213,71389,5,8,0:0:0:0:
155,213,71556,1,0,0:0:0:0:
299,316,71722,2,0,P|258:303|216:304,1,85,8|0,0:0|0:0,0:0:0:0:
394,368,72056,2,0,L|408:270,1,85,8|0,0:0|1:0,0:0:0:0:
483,168,72389,2,0,L|495:252,1,85,8|0,0:0|1:0,0:0:0:0:
351,130,72722,5,8,0:0:0:0:
441,65,72889,1,0,0:0:0:0:
275,70,73056,2,0,P|260:107|260:164,1,85,8|0,0:0|1:0,0:0:0:0:
323,223,73306,1,0,1:0:0:0:
323,223,73389,2,0,P|338:260|338:317,1,85,0|0,1:0|1:0,0:0:0:0:
204,384,73722,1,0,1:0:0:0:
184,209,73889,1,0,1:0:0:0:
184,209,73972,1,0,1:0:0:0:
184,209,74056,6,0,P|220:269|223:292,1,85,0|0,1:0|1:0,0:0:0:0:
72,192,74389,2,0,P|105:130|124:116,1,85,0|0,1:0|1:0,0:0:0:0:
296,32,74722,1,8,0:0:0:0:
267,45,74805,1,0,1:0:0:0:
247,69,74888,1,0,1:0:0:0:
239,100,74971,1,0,1:0:0:0:
245,131,75056,2,0,L|259:188,1,42.5,0|0,1:0|1:0,0:0:0:0:
379,87,75222,2,0,L|389:45,1,42.5,0|0,1:0|1:0,0:0:0:0:
444,239,75389,6,0,P|384:220|356:223,1,85,8|0,0:0|0:0,0:0:0:0:
212,306,75722,2,0,P|254:305|293:288,1,85,8|0,0:0|0:0,0:0:0:0:
288,100,76056,1,8,0:0:0:0:
241,191,76222,1,0,1:0:0:0:
293,91,76389,1,8,0:0:0:0:
352,224,76556,1,0,1:0:0:0:
394,54,76722,6,0,P|394:97|407:145,1,85,8|0,0:0|0:0,0:0:0:0:
459,291,77056,2,0,P|469:249|469:207,1,85,8|0,0:0|0:0,0:0:0:0:
480,85,77389,1,8,0:0:0:0:
480,85,77556,1,0,1:0:0:0:
383,228,77722,1,8,0:0:0:0:
383,228,77889,1,0,1:0:0:0:
309,86,78056,6,0,P|257:108|209:112,1,85,8|0,0:0|0:0,0:0:0:0:
122,206,78389,2,0,P|70:184|22:180,1,85,8|0,0:0|0:0,0:0:0:0:
141,30,78722,2,0,P|121:88|116:210,1,170,8|8,0:0|0:0,0:0:0:0:
169,288,79222,1,0,1:0:0:0:
347,233,79389,6,0,L|236:203,1,85,8|0,0:0|0:0,0:0:0:0:
356,336,79722,1,8,0:0:0:0:
449,258,79889,1,0,1:0:0:0:
449,258,79972,1,0,1:0:0:0:
449,258,80056,2,0,L|437:166,1,85,8|0,0:0|1:0,0:0:0:0:
351,58,80389,2,0,L|340:142,1,85,8|0,0:0|1:0,0:0:0:0:
445,263,80722,6,0,B|349:251|367:303|279:288,1,170,8|8,0:0|0:0,0:0:0:0:
176,199,81222,1,0,0:0:0:0:
94,345,81389,2,0,P|166:330|196:334,1,85,8|0,0:0|1:0,0:0:0:0:
300,374,81722,1,8,0:0:0:0:
275,191,81889,1,0,1:0:0:0:
275,191,81972,1,0,1:0:0:0:
275,191,82056,6,0,P|266:259|267:279,1,85,8|0,0:0|0:0,0:0:0:0:
352,143,82389,2,0,P|273:100|258:100,1,85,8|0,0:0|0:0,0:0:0:0:
194,146,82639,1,0,1:0:0:0:
184,155,82722,2,0,P|94:163|80:157,1,85,8|0,0:0|1:0,0:0:0:0:
126,7,83056,2,0,P|136:50|136:93,1,85,8|0,0:0|1:0,0:0:0:0:
10,265,83389,6,0,P|48:252|96:249,1,85,8|0,0:0|0:0,0:0:0:0:
280,316,83722,2,0,P|237:313|197:299,1,85,8|0,0:0|0:0,0:0:0:0:
86,239,84056,1,8,0:0:0:0:
204,197,84222,1,0,1:0:0:0:
103,333,84389,2,0,L|91:248,1,85,8|0,0:0|1:0,0:0:0:0:
131,50,84722,5,8,0:0:0:0:
73,165,84889,1,0,0:0:0:0:
123,60,85056,1,8,0:0:0:0:
160,209,85222,1,0,0:0:0:0:
329,42,85389,5,8,0:0:0:0:
298,32,85472,1,0,1:0:0:0:
267,35,85555,1,0,1:0:0:0:
239,50,85638,1,0,1:0:0:0:
219,75,85722,2,0,P|213:99|219:136,1,42.5,8|0,0:0|1:0,0:0:0:0:
285,231,85889,2,0,P|285:209|280:189,1,42.5,0|0,1:0|1:0,0:0:0:0:
227,326,86056,5,10,0:0:0:0:
177,219,86223,1,0,1:0:0:0:
132,362,86389,1,0,1:0:0:0:
81,206,86556,6,0,P|36:210|-14:234,2,85,10|0|0,0:0|1:0|1:0,0:0:0:0:
234,309,87056,5,10,0:0:0:0:
59,283,87223,1,0,1:0:0:0:
189,209,87389,1,0,1:0:0:0:
59,116,87556,5,10,0:0:0:0:
122,283,87722,1,0,1:0:0:0:
159,134,87889,1,0,1:0:0:0:
118,275,88056,1,10,0:0:0:0:
198,215,88222,5,10,0:0:0:0:
239,205,88305,1,10,0:0:0:0:
280,213,88388,1,10,0:0:0:0:
315,237,88471,1,10,0:0:0:0:
348,261,88556,1,10,0:0:0:0:
388,268,88639,1,10,0:0:0:0:
429,259,88722,6,0,P|435:203|429:173,1,85,8|0,0:0|0:0,0:0:0:0:
512,301,89056,2,0,P|506:342|512:384,1,85,8|0,0:0|0:0,0:0:0:0:
310,316,89389,1,8,0:0:0:0:
400,280,89556,1,0,1:0:0:0:
247,248,89722,1,8,0:0:0:0:
387,364,89889,1,0,1:0:0:0:
185,379,90056,6,0,L|174:279,1,85,8|0,0:0|0:0,0:0:0:0:
269,150,90389,2,0,L|259:234,1,85,8|0,0:0|0:0,0:0:0:0:
83,350,90722,2,0,L|72:250,1,85,8|0,0:0|1:0,0:0:0:0:
167,121,91055,2,0,L|157:205,1,85,8|0,0:0|1:0,0:0:0:0:
129,35,91389,5,0,1:0:0:0:
159,25,91472,1,0,1:0:0:0:
190,25,91555,1,0,1:0:0:0:
220,36,91638,1,0,1:0:0:0:
245,56,91722,2,0,L|263:110,3,42.5,0|0|0|0,1:0|1:0|1:0|1:0,0:0:0:0:
353,154,92056,2,0,L|366:113,3,42.5,0|0|0|0,1:0|1:0|1:0|1:0,0:0:0:0:
451,234,92389,6,0,P|383:276|444:311,1,170,4|8,1:0|0:0,0:0:0:0:
270,312,93389,2,0,L|442:321,1,170,0|0,0:0|0:0,0:0:0:0:
