osu file format v14

[General]
AudioFilename: audio.mp3
AudioLeadIn: 0
PreviewTime: 726
Countdown: 0
SampleSet: None
StackLeniency: 0.7
Mode: 3
LetterboxInBreaks: 0
SpecialStyle: 0
WidescreenStoryboard: 1

[Editor]
DistanceSpacing: 1.4
BeatDivisor: 4
GridSize: 32
TimelineZoom: 2.799999

[Metadata]
Title:color
TitleUnicode:color
Artist:CHiCO with HoneyWorks
ArtistUnicode:CHiCO with HoneyWorks
Creator:ATing
Version:Sekai ni LN wo Tsukeyou
Source:青春之旅
Tags:世界はiに満ちている
BeatmapID:2057544
BeatmapSetID:983156

[Difficulty]
HPDrainRate:7
CircleSize:4
OverallDifficulty:7
ApproachRate:5
SliderMultiplier:1.4
SliderTickRate:1

[Events]
//Background and Video events
0,0,"yea.png",0,0
//Break Periods
//Storyboard Layer 0 (Background)
//Storyboard Layer 1 (Fail)
//Storyboard Layer 2 (Pass)
//Storyboard Layer 3 (Foreground)
//Storyboard Sound Samples

[TimingPoints]
726,333.333333333333,4,1,0,5,1,0

[HitObjects]
192,192,642,128,0,684:0:0:0:0:
320,192,684,128,0,726:0:0:0:0:
64,192,726,128,0,1059:0:0:0:0:
448,192,726,128,0,2059:0:0:0:0:
320,192,1059,128,0,1392:0:0:0:0:
192,192,1392,128,0,1725:0:0:0:0:
64,192,1725,128,0,1892:0:0:0:0:
320,192,1892,128,0,2225:0:0:0:0:
64,192,2059,128,0,3392:0:0:0:0:
192,192,2059,1,0,0:0:0:0:
448,192,2225,128,0,2392:0:0:0:0:
192,192,2725,128,0,3059:0:0:0:0:
320,192,3059,128,0,3392:0:0:0:0:
448,192,3392,128,0,4725:0:0:0:0:
192,192,3392,128,0,3725:0:0:0:0:
64,192,3725,128,0,4059:0:0:0:0:
192,192,4059,128,0,4392:0:0:0:0:
320,192,4392,128,0,4725:0:0:0:0:
64,192,4725,128,0,5392:0:0:0:0:
192,192,4725,128,0,5059:0:0:0:0:
448,192,5059,128,0,5392:0:0:0:0:
320,192,5392,128,0,5975:0:0:0:0:
192,192,5559,128,0,5975:0:0:0:0:
64,192,5725,128,0,5975:0:0:0:0:
64,192,6059,1,0,0:0:0:0:
448,192,6059,128,0,7392:0:0:0:0:
192,192,6392,128,0,6725:0:0:0:0:
64,192,6725,128,0,7059:0:0:0:0:
320,192,7059,128,0,7392:0:0:0:0:
64,192,7392,128,0,8059:0:0:0:0:
192,192,7392,1,0,0:0:0:0:
448,192,7725,128,0,8059:0:0:0:0:
192,192,8059,128,0,8392:0:0:0:0:
320,192,8059,128,0,8725:0:0:0:0:
448,192,8392,128,0,8725:0:0:0:0:
64,192,8725,128,0,9225:0:0:0:0:
192,192,8725,1,0,0:0:0:0:
320,192,9225,128,0,9281:0:0:0:0:
192,192,9281,128,0,9337:0:0:0:0:
448,192,9337,128,0,9392:0:0:0:0:
64,192,9392,128,0,9725:0:0:0:0:
320,192,9559,128,0,9725:0:0:0:0:
192,192,9725,128,0,10059:0:0:0:0:
448,192,9892,128,0,10059:0:0:0:0:
64,192,10059,128,0,10392:0:0:0:0:
320,192,10059,128,0,10225:0:0:0:0:
320,192,10392,1,0,0:0:0:0:
448,192,10559,128,0,10892:0:0:0:0:
192,192,10559,128,0,10725:0:0:0:0:
192,192,10892,1,0,0:0:0:0:
320,192,11059,128,0,11170:0:0:0:0:
192,192,11114,128,0,11225:0:0:0:0:
64,192,11170,128,0,11281:0:0:0:0:
448,192,11225,1,0,0:0:0:0:
320,192,11281,1,0,0:0:0:0:
192,192,11337,1,0,0:0:0:0:
64,192,11392,128,0,11809:0:0:0:0:
448,192,11392,128,0,11809:0:0:0:0:
320,192,11392,128,0,11475:0:0:0:0:
320,192,11559,128,0,11642:0:0:0:0:
320,192,11725,128,0,11809:0:0:0:0:
192,192,11725,128,0,11809:0:0:0:0:
64,192,11892,128,0,12309:0:0:0:0:
192,192,11892,128,0,12309:0:0:0:0:
448,192,11892,128,0,11975:0:0:0:0:
448,192,12059,128,0,12142:0:0:0:0:
320,192,12225,128,0,12309:0:0:0:0:
448,192,12225,128,0,12309:0:0:0:0:
448,192,12392,128,0,12642:0:0:0:0:
64,192,12392,128,0,12475:0:0:0:0:
320,192,12392,128,0,12642:0:0:0:0:
64,192,12559,128,0,12642:0:0:0:0:
192,192,12559,128,0,12642:0:0:0:0:
448,192,12725,128,0,12809:0:0:0:0:
64,192,12725,128,0,12975:0:0:0:0:
192,192,12725,128,0,12809:0:0:0:0:
320,192,12892,128,0,12975:0:0:0:0:
448,192,12892,128,0,12975:0:0:0:0:
192,192,12892,128,0,12975:0:0:0:0:
64,192,13059,128,0,13142:0:0:0:0:
192,192,13059,128,0,13142:0:0:0:0:
192,192,13225,128,0,13309:0:0:0:0:
320,192,13225,128,0,13309:0:0:0:0:
448,192,13392,128,0,13475:0:0:0:0:
320,192,13392,128,0,13559:0:0:0:0:
192,192,13475,128,0,13559:0:0:0:0:
64,192,13559,128,0,13725:0:0:0:0:
448,192,13559,128,0,13642:0:0:0:0:
320,192,13642,128,0,13725:0:0:0:0:
448,192,13725,128,0,13809:0:0:0:0:
192,192,13725,128,0,13892:0:0:0:0:
64,192,13809,128,0,13892:0:0:0:0:
320,192,13892,128,0,14059:0:0:0:0:
448,192,13892,128,0,13975:0:0:0:0:
192,192,13975,128,0,14059:0:0:0:0:
64,192,14059,128,0,14225:0:0:0:0:
448,192,14059,1,0,0:0:0:0:
320,192,14225,128,0,14392:0:0:0:0:
448,192,14392,128,0,14559:0:0:0:0:
192,192,14392,1,0,0:0:0:0:
64,192,14392,1,0,0:0:0:0:
320,192,14559,128,0,14725:0:0:0:0:
448,192,14725,128,0,14892:0:0:0:0:
192,192,14725,1,0,0:0:0:0:
64,192,14725,1,0,0:0:0:0:
192,192,14892,128,0,15059:0:0:0:0:
448,192,15059,128,0,15225:0:0:0:0:
64,192,15059,1,0,0:0:0:0:
320,192,15059,1,0,0:0:0:0:
192,192,15225,128,0,15392:0:0:0:0:
64,192,15392,128,0,15559:0:0:0:0:
448,192,15392,128,0,15559:0:0:0:0:
320,192,15392,1,0,0:0:0:0:
320,192,15559,128,0,15725:0:0:0:0:
192,192,15725,128,0,15892:0:0:0:0:
448,192,15725,128,0,15809:0:0:0:0:
64,192,15725,128,0,15892:0:0:0:0:
320,192,15892,128,0,16059:0:0:0:0:
448,192,16059,128,0,16225:0:0:0:0:
64,192,16059,128,0,16142:0:0:0:0:
192,192,16059,128,0,16225:0:0:0:0:
320,192,16225,128,0,16392:0:0:0:0:
448,192,16392,128,0,16475:0:0:0:0:
64,192,16392,128,0,16559:0:0:0:0:
192,192,16392,128,0,16559:0:0:0:0:
448,192,16559,128,0,16642:0:0:0:0:
320,192,16559,128,0,16642:0:0:0:0:
320,192,16725,128,0,16892:0:0:0:0:
448,192,16725,128,0,16892:0:0:0:0:
64,192,16725,128,0,17142:0:0:0:0:
320,192,17059,128,0,17142:0:0:0:0:
448,192,17059,128,0,17142:0:0:0:0:
320,192,17225,128,0,17309:0:0:0:0:
192,192,17225,128,0,17309:0:0:0:0:
64,192,17392,128,0,17475:0:0:0:0:
192,192,17392,128,0,17475:0:0:0:0:
448,192,17392,128,0,17809:0:0:0:0:
192,192,17559,128,0,17642:0:0:0:0:
320,192,17559,128,0,17642:0:0:0:0:
64,192,17725,128,0,17809:0:0:0:0:
320,192,17725,128,0,17809:0:0:0:0:
64,192,17892,128,0,17975:0:0:0:0:
192,192,17892,128,0,17975:0:0:0:0:
320,192,18059,128,0,18475:0:0:0:0:
448,192,18059,128,0,18142:0:0:0:0:
192,192,18059,128,0,18142:0:0:0:0:
448,192,18225,128,0,18309:0:0:0:0:
64,192,18225,128,0,18309:0:0:0:0:
64,192,18392,128,0,18475:0:0:0:0:
192,192,18392,128,0,18475:0:0:0:0:
192,192,18559,128,0,18642:0:0:0:0:
320,192,18559,128,0,18642:0:0:0:0:
64,192,18725,128,0,18892:0:0:0:0:
192,192,18725,128,0,18809:0:0:0:0:
448,192,18809,128,0,18892:0:0:0:0:
192,192,18892,128,0,19059:0:0:0:0:
320,192,18892,128,0,18975:0:0:0:0:
64,192,18975,128,0,19059:0:0:0:0:
320,192,19059,128,0,19225:0:0:0:0:
448,192,19059,128,0,19142:0:0:0:0:
192,192,19142,128,0,19225:0:0:0:0:
448,192,19225,128,0,19392:0:0:0:0:
64,192,19225,128,0,19309:0:0:0:0:
320,192,19309,128,0,19392:0:0:0:0:
64,192,19392,1,0,0:0:0:0:
192,192,19392,128,0,19642:0:0:0:0:
64,192,19559,128,0,19642:0:0:0:0:
448,192,19725,128,0,19975:0:0:0:0:
192,192,19725,1,0,0:0:0:0:
320,192,19725,1,0,0:0:0:0:
192,192,19892,128,0,19975:0:0:0:0:
320,192,20059,128,0,20142:0:0:0:0:
64,192,20059,1,0,0:0:0:0:
448,192,20059,128,0,20142:0:0:0:0:
192,192,20225,128,0,20475:0:0:0:0:
320,192,20225,1,0,0:0:0:0:
320,192,20392,128,0,20475:0:0:0:0:
448,192,20392,128,0,20475:0:0:0:0:
64,192,20392,128,0,20475:0:0:0:0:
192,192,20559,128,0,20809:0:0:0:0:
448,192,20559,1,0,0:0:0:0:
64,192,20725,128,0,20809:0:0:0:0:
448,192,20725,128,0,20809:0:0:0:0:
320,192,20725,128,0,20809:0:0:0:0:
64,192,20892,128,0,21142:0:0:0:0:
320,192,20892,1,0,0:0:0:0:
320,192,21059,128,0,21142:0:0:0:0:
448,192,21059,128,0,21142:0:0:0:0:
192,192,21059,128,0,21142:0:0:0:0:
448,192,21225,128,0,21309:0:0:0:0:
320,192,21392,128,0,21642:0:0:0:0:
64,192,21392,1,0,0:0:0:0:
192,192,21392,1,0,0:0:0:0:
64,192,21559,128,0,21642:0:0:0:0:
192,192,21559,128,0,21642:0:0:0:0:
320,192,21725,128,0,21975:0:0:0:0:
64,192,21725,1,0,0:0:0:0:
192,192,21725,1,0,0:0:0:0:
192,192,21892,128,0,21975:0:0:0:0:
64,192,21892,128,0,21975:0:0:0:0:
448,192,22059,128,0,22309:0:0:0:0:
64,192,22059,1,0,0:0:0:0:
320,192,22059,1,0,0:0:0:0:
64,192,22225,128,0,22309:0:0:0:0:
64,192,22392,128,0,22642:0:0:0:0:
192,192,22392,1,0,0:0:0:0:
448,192,22392,1,0,0:0:0:0:
448,192,22559,128,0,22642:0:0:0:0:
192,192,22725,128,0,22975:0:0:0:0:
320,192,22725,1,0,0:0:0:0:
448,192,22725,1,0,0:0:0:0:
64,192,22892,128,0,22975:0:0:0:0:
320,192,22892,128,0,22975:0:0:0:0:
320,192,23059,128,0,23309:0:0:0:0:
448,192,23059,1,0,0:0:0:0:
192,192,23059,1,0,0:0:0:0:
448,192,23225,128,0,23309:0:0:0:0:
64,192,23225,128,0,23309:0:0:0:0:
64,192,23392,128,0,23642:0:0:0:0:
320,192,23392,1,0,0:0:0:0:
192,192,23392,1,0,0:0:0:0:
320,192,23559,128,0,23642:0:0:0:0:
448,192,23725,128,0,23975:0:0:0:0:
64,192,23725,1,0,0:0:0:0:
192,192,23725,1,0,0:0:0:0:
64,192,23892,128,0,23975:0:0:0:0:
320,192,24059,128,0,24142:0:0:0:0:
192,192,24059,1,0,0:0:0:0:
448,192,24059,1,0,0:0:0:0:
192,192,24225,128,0,24309:0:0:0:0:
320,192,24225,1,0,0:0:0:0:
64,192,24392,128,0,24642:0:0:0:0:
320,192,24392,1,0,0:0:0:0:
448,192,24392,1,0,0:0:0:0:
320,192,24559,128,0,24642:0:0:0:0:
448,192,24559,128,0,24642:0:0:0:0:
192,192,24725,128,0,24809:0:0:0:0:
64,192,24725,128,0,24975:0:0:0:0:
448,192,24809,128,0,24892:0:0:0:0:
192,192,24892,128,0,24975:0:0:0:0:
320,192,24975,128,0,25059:0:0:0:0:
64,192,25059,128,0,25142:0:0:0:0:
448,192,25059,128,0,25309:0:0:0:0:
192,192,25142,128,0,25225:0:0:0:0:
320,192,25225,128,0,25309:0:0:0:0:
64,192,25309,128,0,25392:0:0:0:0:
448,192,25392,128,0,25475:0:0:0:0:
320,192,25392,128,0,25642:0:0:0:0:
192,192,25475,128,0,25559:0:0:0:0:
448,192,25559,128,0,25642:0:0:0:0:
64,192,25642,128,0,25725:0:0:0:0:
320,192,25725,128,0,25809:0:0:0:0:
192,192,25725,128,0,25975:0:0:0:0:
448,192,25809,128,0,25892:0:0:0:0:
64,192,25892,128,0,25975:0:0:0:0:
320,192,25975,128,0,26059:0:0:0:0:
64,192,26059,128,0,26309:0:0:0:0:
192,192,26059,128,0,26142:0:0:0:0:
448,192,26142,128,0,26225:0:0:0:0:
192,192,26225,128,0,26309:0:0:0:0:
320,192,26309,128,0,26392:0:0:0:0:
192,192,26392,128,0,26475:0:0:0:0:
448,192,26392,128,0,26642:0:0:0:0:
64,192,26475,128,0,26559:0:0:0:0:
320,192,26559,128,0,26642:0:0:0:0:
192,192,26642,128,0,26725:0:0:0:0:
448,192,26725,128,0,26809:0:0:0:0:
320,192,26725,128,0,26975:0:0:0:0:
64,192,26809,128,0,26892:0:0:0:0:
448,192,26892,128,0,26975:0:0:0:0:
192,192,26975,128,0,27059:0:0:0:0:
320,192,27059,128,0,27142:0:0:0:0:
64,192,27059,128,0,27309:0:0:0:0:
448,192,27142,128,0,27225:0:0:0:0:
192,192,27225,128,0,27309:0:0:0:0:
320,192,27309,128,0,27392:0:0:0:0:
192,192,27392,128,0,27475:0:0:0:0:
448,192,27392,128,0,27475:0:0:0:0:
64,192,27392,128,0,27642:0:0:0:0:
448,192,27559,128,0,27642:0:0:0:0:
448,192,27725,128,0,27809:0:0:0:0:
64,192,27725,128,0,27809:0:0:0:0:
320,192,27725,128,0,27809:0:0:0:0:
448,192,27892,128,0,27975:0:0:0:0:
64,192,27892,128,0,28142:0:0:0:0:
192,192,28059,128,0,28142:0:0:0:0:
448,192,28059,128,0,28142:0:0:0:0:
320,192,28059,128,0,28142:0:0:0:0:
64,192,28225,128,0,28309:0:0:0:0:
448,192,28225,128,0,28475:0:0:0:0:
192,192,28392,128,0,28475:0:0:0:0:
64,192,28392,128,0,28475:0:0:0:0:
320,192,28392,128,0,28475:0:0:0:0:
192,192,28559,128,0,28642:0:0:0:0:
448,192,28559,128,0,28642:0:0:0:0:
64,192,28559,128,0,28809:0:0:0:0:
448,192,28725,128,0,28809:0:0:0:0:
64,192,28892,128,0,28975:0:0:0:0:
192,192,28892,128,0,28975:0:0:0:0:
320,192,28892,128,0,28975:0:0:0:0:
448,192,28892,128,0,28975:0:0:0:0:
448,192,29059,128,0,29142:0:0:0:0:
64,192,29059,128,0,29225:0:0:0:0:
320,192,29142,128,0,29225:0:0:0:0:
448,192,29225,128,0,29392:0:0:0:0:
192,192,29225,128,0,29309:0:0:0:0:
64,192,29309,128,0,29392:0:0:0:0:
320,192,29392,128,0,29475:0:0:0:0:
192,192,29392,128,0,29559:0:0:0:0:
448,192,29475,128,0,29559:0:0:0:0:
64,192,29559,128,0,29725:0:0:0:0:
320,192,29559,128,0,29642:0:0:0:0:
192,192,29642,128,0,29725:0:0:0:0:
448,192,29725,128,0,29892:0:0:0:0:
320,192,29725,128,0,29809:0:0:0:0:
64,192,29809,128,0,29892:0:0:0:0:
320,192,29892,128,0,29975:0:0:0:0:
192,192,29892,128,0,29975:0:0:0:0:
64,192,29975,128,0,30059:0:0:0:0:
448,192,30059,128,0,30975:0:0:0:0:
192,192,30059,128,0,30642:0:0:0:0:
320,192,30059,128,0,31309:0:0:0:0:
64,192,30392,128,0,32975:0:0:0:0:
192,192,30725,128,0,32642:0:0:0:0:
448,192,31059,128,0,31975:0:0:0:0:
320,192,31392,128,0,32309:0:0:0:0:
448,192,32059,128,0,33309:0:0:0:0:
320,192,32392,128,0,34642:0:0:0:0:
192,192,32725,128,0,33642:0:0:0:0:
64,192,33059,128,0,36975:0:0:0:0:
448,192,33392,128,0,36642:0:0:0:0:
192,192,33725,128,0,33809:0:0:0:0:
192,192,33892,128,0,34975:0:0:0:0:
320,192,34725,128,0,35309:0:0:0:0:
192,192,35059,128,0,36309:0:0:0:0:
320,192,35392,128,0,35975:0:0:0:0:
320,192,36059,128,0,37642:0:0:0:0:
192,192,36392,128,0,37309:0:0:0:0:
448,192,36725,128,0,37975:0:0:0:0:
64,192,37059,128,0,38642:0:0:0:0:
192,192,37392,128,0,38309:0:0:0:0:
320,192,37725,128,0,37975:0:0:0:0:
448,192,38059,128,0,38975:0:0:0:0:
320,192,38059,128,0,38309:0:0:0:0:
192,192,38392,128,0,38642:0:0:0:0:
320,192,38392,128,0,38975:0:0:0:0:
64,192,38725,128,0,39309:0:0:0:0:
192,192,38725,128,0,39309:0:0:0:0:
320,192,39059,128,0,39392:0:0:0:0:
448,192,39059,128,0,39392:0:0:0:0:
192,192,39392,128,0,40559:0:0:0:0:
64,192,39392,128,0,40642:0:0:0:0:
448,192,39559,1,0,0:0:0:0:
320,192,39725,1,0,0:0:0:0:
448,192,39725,1,0,0:0:0:0:
448,192,39892,1,0,0:0:0:0:
320,192,39975,1,0,0:0:0:0:
448,192,40059,128,0,40309:0:0:0:0:
320,192,40225,128,0,40475:0:0:0:0:
448,192,40392,128,0,40559:0:0:0:0:
320,192,40559,1,0,0:0:0:0:
192,192,40642,1,0,0:0:0:0:
64,192,40725,1,0,0:0:0:0:
448,192,40725,1,0,0:0:0:0:
320,192,40725,128,0,40975:0:0:0:0:
64,192,40892,128,0,40975:0:0:0:0:
448,192,40892,128,0,40975:0:0:0:0:
64,192,41059,128,0,41309:0:0:0:0:
192,192,41059,1,0,0:0:0:0:
448,192,41059,1,0,0:0:0:0:
448,192,41225,128,0,41309:0:0:0:0:
192,192,41225,128,0,41309:0:0:0:0:
320,192,41392,128,0,41642:0:0:0:0:
192,192,41392,1,0,0:0:0:0:
64,192,41392,1,0,0:0:0:0:
192,192,41559,128,0,41642:0:0:0:0:
64,192,41559,128,0,41642:0:0:0:0:
448,192,41725,128,0,41975:0:0:0:0:
64,192,41725,1,0,0:0:0:0:
320,192,41725,1,0,0:0:0:0:
320,192,41892,128,0,41975:0:0:0:0:
64,192,41892,128,0,41975:0:0:0:0:
192,192,42059,128,0,42309:0:0:0:0:
64,192,42059,1,0,0:0:0:0:
448,192,42059,1,0,0:0:0:0:
448,192,42225,128,0,42309:0:0:0:0:
64,192,42225,128,0,42309:0:0:0:0:
64,192,42392,128,0,42475:0:0:0:0:
192,192,42392,128,0,42475:0:0:0:0:
448,192,42392,128,0,42475:0:0:0:0:
320,192,42559,1,0,0:0:0:0:
192,192,42642,1,0,0:0:0:0:
64,192,42725,1,0,0:0:0:0:
448,192,42725,128,0,42975:0:0:0:0:
320,192,42725,1,0,0:0:0:0:
64,192,42892,128,0,42975:0:0:0:0:
192,192,42892,128,0,42975:0:0:0:0:
320,192,43059,128,0,43309:0:0:0:0:
64,192,43059,1,0,0:0:0:0:
448,192,43059,1,0,0:0:0:0:
64,192,43225,128,0,43309:0:0:0:0:
192,192,43225,128,0,43309:0:0:0:0:
448,192,43392,128,0,43642:0:0:0:0:
320,192,43392,1,0,0:0:0:0:
192,192,43392,1,0,0:0:0:0:
320,192,43559,128,0,43642:0:0:0:0:
192,192,43559,128,0,43642:0:0:0:0:
192,192,43725,128,0,43975:0:0:0:0:
64,192,43725,1,0,0:0:0:0:
448,192,43725,1,0,0:0:0:0:
448,192,43892,128,0,43975:0:0:0:0:
64,192,43892,128,0,43975:0:0:0:0:
192,192,44059,1,0,0:0:0:0:
448,192,44059,128,0,44309:0:0:0:0:
64,192,44059,1,0,0:0:0:0:
192,192,44225,128,0,44309:0:0:0:0:
64,192,44225,128,0,44309:0:0:0:0:
448,192,44392,1,0,0:0:0:0:
320,192,44392,128,0,44559:0:0:0:0:
64,192,44392,1,0,0:0:0:0:
64,192,44559,128,0,44809:0:0:0:0:
448,192,44559,1,0,0:0:0:0:
192,192,44725,128,0,44809:0:0:0:0:
448,192,44725,128,0,44809:0:0:0:0:
192,192,44892,128,0,44975:0:0:0:0:
64,192,45059,128,0,45142:0:0:0:0:
192,192,45059,128,0,45142:0:0:0:0:
448,192,45059,128,0,45142:0:0:0:0:
320,192,45225,1,0,0:0:0:0:
192,192,45309,1,0,0:0:0:0:
64,192,45392,1,0,0:0:0:0:
448,192,45392,128,0,45642:0:0:0:0:
320,192,45559,128,0,45642:0:0:0:0:
192,192,45559,128,0,45642:0:0:0:0:
192,192,45725,128,0,45975:0:0:0:0:
64,192,45725,1,0,0:0:0:0:
448,192,45725,1,0,0:0:0:0:
64,192,45892,128,0,45975:0:0:0:0:
448,192,45892,128,0,45975:0:0:0:0:
320,192,46059,128,0,46225:0:0:0:0:
64,192,46059,1,0,0:0:0:0:
448,192,46059,1,0,0:0:0:0:
64,192,46225,128,0,46309:0:0:0:0:
448,192,46309,128,0,46392:0:0:0:0:
320,192,46392,1,0,0:0:0:0:
192,192,46392,128,0,46559:0:0:0:0:
64,192,46392,1,0,0:0:0:0:
448,192,46559,128,0,46642:0:0:0:0:
64,192,46642,128,0,46725:0:0:0:0:
448,192,46725,128,0,46975:0:0:0:0:
320,192,46725,1,0,0:0:0:0:
320,192,46892,128,0,46975:0:0:0:0:
192,192,46892,128,0,46975:0:0:0:0:
320,192,47059,128,0,47309:0:0:0:0:
64,192,47059,1,0,0:0:0:0:
448,192,47059,1,0,0:0:0:0:
64,192,47225,128,0,47309:0:0:0:0:
448,192,47225,128,0,47309:0:0:0:0:
448,192,47392,128,0,47642:0:0:0:0:
64,192,47392,1,0,0:0:0:0:
320,192,47392,1,0,0:0:0:0:
320,192,47559,128,0,47642:0:0:0:0:
64,192,47559,128,0,47642:0:0:0:0:
448,192,47725,1,0,0:0:0:0:
64,192,47725,128,0,47975:0:0:0:0:
320,192,47725,1,0,0:0:0:0:
448,192,47892,128,0,47975:0:0:0:0:
320,192,47892,128,0,47975:0:0:0:0:
448,192,48059,1,0,0:0:0:0:
192,192,48059,128,0,48309:0:0:0:0:
64,192,48059,1,0,0:0:0:0:
448,192,48225,128,0,48309:0:0:0:0:
64,192,48225,128,0,48309:0:0:0:0:
320,192,48392,128,0,48642:0:0:0:0:
64,192,48392,1,0,0:0:0:0:
192,192,48392,1,0,0:0:0:0:
64,192,48559,1,0,0:0:0:0:
192,192,48642,1,0,0:0:0:0:
448,192,48725,128,0,48975:0:0:0:0:
64,192,48725,1,0,0:0:0:0:
320,192,48725,1,0,0:0:0:0:
64,192,48892,128,0,48975:0:0:0:0:
320,192,48892,128,0,48975:0:0:0:0:
192,192,49059,128,0,49309:0:0:0:0:
64,192,49059,1,0,0:0:0:0:
448,192,49059,1,0,0:0:0:0:
64,192,49225,128,0,49309:0:0:0:0:
448,192,49225,128,0,49309:0:0:0:0:
320,192,49392,128,0,49642:0:0:0:0:
448,192,49392,1,0,0:0:0:0:
192,192,49392,1,0,0:0:0:0:
192,192,49559,128,0,49642:0:0:0:0:
448,192,49559,128,0,49642:0:0:0:0:
448,192,49725,128,0,49975:0:0:0:0:
64,192,49725,1,0,0:0:0:0:
320,192,49725,1,0,0:0:0:0:
64,192,49892,128,0,49975:0:0:0:0:
320,192,49892,128,0,49975:0:0:0:0:
192,192,50059,128,0,50309:0:0:0:0:
64,192,50059,1,0,0:0:0:0:
448,192,50059,1,0,0:0:0:0:
448,192,50225,128,0,50309:0:0:0:0:
64,192,50225,128,0,50309:0:0:0:0:
64,192,50392,128,0,50475:0:0:0:0:
192,192,50392,128,0,50475:0:0:0:0:
448,192,50392,128,0,50475:0:0:0:0:
320,192,50559,128,0,50642:0:0:0:0:
192,192,50642,128,0,50725:0:0:0:0:
64,192,50725,128,0,50892:0:0:0:0:
448,192,50725,128,0,50809:0:0:0:0:
320,192,50809,1,0,0:0:0:0:
448,192,50892,128,0,50975:0:0:0:0:
192,192,50892,128,0,50975:0:0:0:0:
64,192,51059,128,0,51142:0:0:0:0:
448,192,51059,128,0,51225:0:0:0:0:
192,192,51142,1,0,0:0:0:0:
64,192,51225,128,0,51309:0:0:0:0:
320,192,51225,128,0,51309:0:0:0:0:
64,192,51392,1,0,0:0:0:0:
192,192,51392,1,0,0:0:0:0:
448,192,51392,128,0,52059:0:0:0:0:
320,192,52059,128,0,52281:0:0:0:0:
192,192,52170,128,0,52392:0:0:0:0:
64,192,52281,128,0,52503:0:0:0:0:
448,192,52392,128,0,52725:0:0:0:0:
320,192,52503,128,0,52725:0:0:0:0:
192,192,52614,128,0,52725:0:0:0:0:
64,192,52725,128,0,53059:0:0:0:0:
320,192,52892,128,0,53059:0:0:0:0:
448,192,53059,128,0,53392:0:0:0:0:
192,192,53225,128,0,53392:0:0:0:0:
64,192,53392,128,0,53725:0:0:0:0:
320,192,53559,128,0,53725:0:0:0:0:
448,192,53725,128,0,54309:0:0:0:0:
64,192,53892,128,0,54975:0:0:0:0:
192,192,54059,128,0,55059:0:0:0:0:
320,192,54059,128,0,54392:0:0:0:0:
448,192,54392,128,0,54475:0:0:0:0:
320,192,54475,128,0,54559:0:0:0:0:
448,192,54559,128,0,54642:0:0:0:0:
320,192,54642,128,0,55975:0:0:0:0:
448,192,54725,128,0,55642:0:0:0:0:
64,192,55059,128,0,55142:0:0:0:0:
192,192,55142,128,0,55225:0:0:0:0:
64,192,55225,128,0,55309:0:0:0:0:
192,192,55309,128,0,55725:0:0:0:0:
64,192,55392,128,0,56059:0:0:0:0:
448,192,55725,128,0,55809:0:0:0:0:
192,192,55809,128,0,55892:0:0:0:0:
448,192,55892,128,0,56642:0:0:0:0:
192,192,55975,128,0,56392:0:0:0:0:
320,192,56059,128,0,56142:0:0:0:0:
64,192,56142,128,0,56225:0:0:0:0:
320,192,56225,128,0,56309:0:0:0:0:
64,192,56309,128,0,56975:0:0:0:0:
320,192,56392,128,0,56475:0:0:0:0:
192,192,56475,128,0,56559:0:0:0:0:
320,192,56559,128,0,56642:0:0:0:0:
192,192,56642,128,0,57059:0:0:0:0:
448,192,56725,128,0,57642:0:0:0:0:
320,192,56725,128,0,57725:0:0:0:0:
64,192,57059,128,0,57142:0:0:0:0:
192,192,57142,128,0,57225:0:0:0:0:
64,192,57225,128,0,57309:0:0:0:0:
192,192,57309,128,0,58642:0:0:0:0:
64,192,57392,128,0,58309:0:0:0:0:
448,192,57725,128,0,57809:0:0:0:0:
320,192,57809,128,0,57892:0:0:0:0:
448,192,57892,128,0,57975:0:0:0:0:
320,192,57975,128,0,58392:0:0:0:0:
448,192,58059,128,0,58725:0:0:0:0:
64,192,58392,128,0,58475:0:0:0:0:
320,192,58475,128,0,58559:0:0:0:0:
64,192,58559,128,0,59725:0:0:0:0:
320,192,58642,128,0,59059:0:0:0:0:
192,192,58725,128,0,58809:0:0:0:0:
448,192,58809,128,0,58892:0:0:0:0:
192,192,58892,128,0,58975:0:0:0:0:
448,192,58975,128,0,59309:0:0:0:0:
192,192,59059,128,0,59142:0:0:0:0:
320,192,59142,128,0,59225:0:0:0:0:
192,192,59225,128,0,59309:0:0:0:0:
320,192,59309,128,0,60309:0:0:0:0:
448,192,59392,128,0,60392:0:0:0:0:
192,192,59392,128,0,59642:0:0:0:0:
192,192,59725,128,0,59809:0:0:0:0:
64,192,59809,128,0,59892:0:0:0:0:
192,192,59892,128,0,59975:0:0:0:0:
64,192,59975,128,0,61309:0:0:0:0:
192,192,60059,128,0,60975:0:0:0:0:
320,192,60392,128,0,60475:0:0:0:0:
448,192,60475,128,0,60559:0:0:0:0:
320,192,60559,128,0,60642:0:0:0:0:
448,192,60642,128,0,61059:0:0:0:0:
320,192,60725,128,0,61392:0:0:0:0:
192,192,61059,128,0,61142:0:0:0:0:
448,192,61142,128,0,61225:0:0:0:0:
192,192,61225,128,0,62725:0:0:0:0:
448,192,61309,128,0,61725:0:0:0:0:
64,192,61392,128,0,61475:0:0:0:0:
320,192,61475,128,0,61559:0:0:0:0:
64,192,61559,128,0,61642:0:0:0:0:
320,192,61642,128,0,62309:0:0:0:0:
64,192,61725,128,0,61809:0:0:0:0:
448,192,61809,128,0,61892:0:0:0:0:
64,192,61892,128,0,61975:0:0:0:0:
448,192,61975,128,0,62392:0:0:0:0:
64,192,62059,128,0,62975:0:0:0:0:
320,192,62392,128,0,62475:0:0:0:0:
448,192,62475,128,0,62559:0:0:0:0:
320,192,62559,128,0,62642:0:0:0:0:
448,192,62642,128,0,63309:0:0:0:0:
320,192,62725,128,0,62809:0:0:0:0:
192,192,62809,128,0,62892:0:0:0:0:
320,192,62892,128,0,62975:0:0:0:0:
192,192,62975,128,0,63059:0:0:0:0:
64,192,63059,128,0,63142:0:0:0:0:
320,192,63059,128,0,63142:0:0:0:0:
192,192,63142,128,0,63225:0:0:0:0:
64,192,63225,128,0,63309:0:0:0:0:
320,192,63225,128,0,63309:0:0:0:0:
192,192,63309,128,0,63392:0:0:0:0:
448,192,63392,128,0,64392:0:0:0:0:
64,192,63392,128,0,64059:0:0:0:0:
320,192,63392,128,0,64225:0:0:0:0:
192,192,64725,128,0,64809:0:0:0:0:
448,192,64725,128,0,64975:0:0:0:0:
64,192,64725,128,0,64975:0:0:0:0:
320,192,64725,128,0,64975:0:0:0:0:
192,192,64892,128,0,64975:0:0:0:0:
64,192,65059,128,0,65309:0:0:0:0:
192,192,65059,128,0,65309:0:0:0:0:
320,192,65059,128,0,65309:0:0:0:0:
448,192,65059,128,0,65142:0:0:0:0:
448,192,65225,128,0,65309:0:0:0:0:
448,192,65392,128,0,65642:0:0:0:0:
192,192,65392,128,0,65642:0:0:0:0:
64,192,65392,128,0,65642:0:0:0:0:
320,192,65392,128,0,65475:0:0:0:0:
320,192,65559,128,0,65642:0:0:0:0:
64,192,65725,128,0,65809:0:0:0:0:
320,192,65725,128,0,65975:0:0:0:0:
448,192,65725,128,0,65975:0:0:0:0:
192,192,65725,128,0,65809:0:0:0:0:
64,192,65892,128,0,66142:0:0:0:0:
320,192,66059,128,0,66142:0:0:0:0:
448,192,66059,128,0,66142:0:0:0:0:
192,192,66059,128,0,66142:0:0:0:0:
64,192,66225,128,0,66309:0:0:0:0:
320,192,66225,128,0,66309:0:0:0:0:
448,192,66225,128,0,66309:0:0:0:0:
192,192,66392,128,0,66475:0:0:0:0:
320,192,66392,128,0,66475:0:0:0:0:
448,192,66392,128,0,66475:0:0:0:0:
64,192,66392,128,0,66475:0:0:0:0:
192,192,66559,128,0,66642:0:0:0:0:
320,192,66725,128,0,66809:0:0:0:0:
448,192,66725,128,0,66809:0:0:0:0:
192,192,66725,128,0,66809:0:0:0:0:
64,192,66725,128,0,66975:0:0:0:0:
448,192,66892,128,0,66975:0:0:0:0:
64,192,67059,128,0,67309:0:0:0:0:
320,192,67059,128,0,67142:0:0:0:0:
192,192,67059,128,0,67142:0:0:0:0:
448,192,67059,128,0,67142:0:0:0:0:
320,192,67225,128,0,67309:0:0:0:0:
320,192,67392,128,0,67475:0:0:0:0:
448,192,67392,128,0,67475:0:0:0:0:
64,192,67392,128,0,67642:0:0:0:0:
192,192,67392,128,0,67642:0:0:0:0:
448,192,67559,128,0,67642:0:0:0:0:
64,192,67725,128,0,67809:0:0:0:0:
192,192,67725,128,0,67809:0:0:0:0:
320,192,67725,128,0,67975:0:0:0:0:
448,192,67725,128,0,67975:0:0:0:0:
64,192,67892,128,0,67975:0:0:0:0:
64,192,68059,128,0,68309:0:0:0:0:
192,192,68059,128,0,68142:0:0:0:0:
448,192,68059,128,0,68309:0:0:0:0:
320,192,68059,128,0,68142:0:0:0:0:
192,192,68225,128,0,68309:0:0:0:0:
64,192,68392,128,0,68642:0:0:0:0:
192,192,68392,128,0,68475:0:0:0:0:
320,192,68392,128,0,68475:0:0:0:0:
448,192,68392,128,0,68642:0:0:0:0:
320,192,68559,128,0,68642:0:0:0:0:
448,192,68725,128,0,68975:0:0:0:0:
320,192,68725,128,0,68975:0:0:0:0:
192,192,68725,128,0,68975:0:0:0:0:
64,192,68725,128,0,68809:0:0:0:0:
64,192,68892,128,0,68975:0:0:0:0:
64,192,69059,128,0,69309:0:0:0:0:
192,192,69059,128,0,69309:0:0:0:0:
320,192,69059,128,0,69309:0:0:0:0:
448,192,69059,128,0,69142:0:0:0:0:
448,192,69225,128,0,69309:0:0:0:0:
448,192,69392,128,0,69559:0:0:0:0:
64,192,69392,128,0,69475:0:0:0:0:
192,192,69392,128,0,69475:0:0:0:0:
320,192,69559,128,0,69725:0:0:0:0:
64,192,69559,128,0,69642:0:0:0:0:
448,192,69725,128,0,69809:0:0:0:0:
64,192,69725,128,0,69975:0:0:0:0:
192,192,69725,128,0,69975:0:0:0:0:
448,192,69892,128,0,69975:0:0:0:0:
64,192,70059,128,0,70142:0:0:0:0:
192,192,70059,128,0,70142:0:0:0:0:
448,192,70059,128,0,70142:0:0:0:0:
192,192,70225,128,0,70309:0:0:0:0:
448,192,70392,128,0,70475:0:0:0:0:
320,192,70392,128,0,70475:0:0:0:0:
64,192,70392,128,0,70809:0:0:0:0:
448,192,70559,128,0,70642:0:0:0:0:
192,192,70725,128,0,71142:0:0:0:0:
320,192,70725,128,0,70809:0:0:0:0:
448,192,70725,128,0,70809:0:0:0:0:
448,192,70892,128,0,70975:0:0:0:0:
64,192,71059,128,0,71475:0:0:0:0:
320,192,71059,128,0,71142:0:0:0:0:
448,192,71059,128,0,71142:0:0:0:0:
448,192,71225,128,0,71309:0:0:0:0:
448,192,71392,128,0,71475:0:0:0:0:
320,192,71392,128,0,71475:0:0:0:0:
192,192,71392,128,0,71475:0:0:0:0:
192,192,71559,128,0,71642:0:0:0:0:
448,192,71725,128,0,72142:0:0:0:0:
64,192,71725,128,0,71809:0:0:0:0:
192,192,71725,128,0,71809:0:0:0:0:
64,192,71892,128,0,71975:0:0:0:0:
320,192,72059,128,0,72475:0:0:0:0:
64,192,72059,128,0,72142:0:0:0:0:
192,192,72059,128,0,72142:0:0:0:0:
64,192,72225,128,0,72309:0:0:0:0:
448,192,72392,128,0,72809:0:0:0:0:
192,192,72392,128,0,72475:0:0:0:0:
64,192,72392,128,0,72475:0:0:0:0:
64,192,72559,128,0,72642:0:0:0:0:
320,192,72725,128,0,73309:0:0:0:0:
192,192,72725,128,0,72809:0:0:0:0:
64,192,72725,128,0,72809:0:0:0:0:
192,192,72892,128,0,72975:0:0:0:0:
64,192,73059,128,0,73142:0:0:0:0:
448,192,73059,128,0,73142:0:0:0:0:
192,192,73225,128,0,73309:0:0:0:0:
192,192,73392,128,0,73475:0:0:0:0:
320,192,73392,128,0,73475:0:0:0:0:
64,192,73559,128,0,73642:0:0:0:0:
192,192,73559,128,0,73642:0:0:0:0:
448,192,73559,128,0,73642:0:0:0:0:
448,192,73725,128,0,73975:0:0:0:0:
320,192,73725,128,0,73809:0:0:0:0:
64,192,73725,128,0,73809:0:0:0:0:
64,192,73892,128,0,73975:0:0:0:0:
64,192,74059,128,0,74142:0:0:0:0:
192,192,74059,128,0,74142:0:0:0:0:
448,192,74059,128,0,74142:0:0:0:0:
448,192,74225,128,0,74309:0:0:0:0:
320,192,74225,128,0,74309:0:0:0:0:
64,192,74225,128,0,74309:0:0:0:0:
64,192,74392,128,0,74475:0:0:0:0:
192,192,74392,128,0,74475:0:0:0:0:
320,192,74392,128,0,74475:0:0:0:0:
448,192,74392,128,0,74475:0:0:0:0:
320,192,74559,128,0,74642:0:0:0:0:
448,192,74559,128,0,74725:0:0:0:0:
64,192,74642,128,0,74725:0:0:0:0:
320,192,74725,128,0,74892:0:0:0:0:
192,192,74725,128,0,74809:0:0:0:0:
448,192,74809,128,0,74892:0:0:0:0:
192,192,74892,128,0,75059:0:0:0:0:
64,192,74892,128,0,74975:0:0:0:0:
320,192,74975,128,0,75059:0:0:0:0:
64,192,75059,128,0,75225:0:0:0:0:
448,192,75059,128,0,75142:0:0:0:0:
192,192,75142,128,0,75225:0:0:0:0:
448,192,75225,128,0,75309:0:0:0:0:
320,192,75225,128,0,75309:0:0:0:0:
64,192,75392,128,0,75642:0:0:0:0:
192,192,75392,128,0,75475:0:0:0:0:
320,192,75392,128,0,75642:0:0:0:0:
448,192,75392,128,0,75642:0:0:0:0:
192,192,75559,128,0,75642:0:0:0:0:
448,192,75725,128,0,75809:0:0:0:0:
320,192,75725,128,0,75975:0:0:0:0:
192,192,75725,128,0,75975:0:0:0:0:
64,192,75725,128,0,75975:0:0:0:0:
448,192,75892,128,0,75975:0:0:0:0:
320,192,76059,128,0,76142:0:0:0:0:
64,192,76059,128,0,76309:0:0:0:0:
192,192,76059,128,0,76309:0:0:0:0:
448,192,76059,128,0,76309:0:0:0:0:
320,192,76225,128,0,76309:0:0:0:0:
320,192,76392,128,0,76475:0:0:0:0:
192,192,76392,128,0,76642:0:0:0:0:
64,192,76392,128,0,76642:0:0:0:0:
448,192,76559,128,0,76809:0:0:0:0:
64,192,76725,128,0,76809:0:0:0:0:
192,192,76725,128,0,76809:0:0:0:0:
320,192,76725,128,0,76809:0:0:0:0:
448,192,76892,128,0,76975:0:0:0:0:
320,192,76892,128,0,76975:0:0:0:0:
64,192,76892,128,0,76975:0:0:0:0:
64,192,77059,128,0,77142:0:0:0:0:
192,192,77059,128,0,77142:0:0:0:0:
320,192,77059,128,0,77142:0:0:0:0:
448,192,77059,128,0,77142:0:0:0:0:
192,192,77225,128,0,77309:0:0:0:0:
64,192,77392,128,0,77642:0:0:0:0:
320,192,77392,128,0,77475:0:0:0:0:
448,192,77392,128,0,77475:0:0:0:0:
320,192,77559,128,0,77642:0:0:0:0:
64,192,77725,128,0,77975:0:0:0:0:
320,192,77725,128,0,77809:0:0:0:0:
448,192,77725,128,0,77809:0:0:0:0:
448,192,77892,128,0,77975:0:0:0:0:
448,192,78059,128,0,78309:0:0:0:0:
64,192,78059,128,0,78142:0:0:0:0:
192,192,78059,128,0,78142:0:0:0:0:
192,192,78225,128,0,78475:0:0:0:0:
448,192,78392,128,0,78642:0:0:0:0:
64,192,78392,128,0,78475:0:0:0:0:
320,192,78392,128,0,78475:0:0:0:0:
192,192,78559,128,0,78809:0:0:0:0:
320,192,78725,128,0,78975:0:0:0:0:
448,192,78725,128,0,78809:0:0:0:0:
64,192,78725,128,0,78809:0:0:0:0:
64,192,78892,128,0,79142:0:0:0:0:
320,192,79059,128,0,79309:0:0:0:0:
192,192,79059,128,0,79142:0:0:0:0:
448,192,79059,128,0,79142:0:0:0:0:
64,192,79225,128,0,79475:0:0:0:0:
192,192,79392,128,0,79642:0:0:0:0:
320,192,79392,128,0,79475:0:0:0:0:
448,192,79392,128,0,79475:0:0:0:0:
448,192,79559,128,0,79809:0:0:0:0:
192,192,79725,128,0,79975:0:0:0:0:
64,192,79725,128,0,79809:0:0:0:0:
320,192,79725,128,0,79809:0:0:0:0:
448,192,79892,128,0,80142:0:0:0:0:
64,192,79975,128,0,80142:0:0:0:0:
320,192,80059,128,0,80309:0:0:0:0:
192,192,80059,128,0,80142:0:0:0:0:
64,192,80225,128,0,80475:0:0:0:0:
320,192,80392,128,0,80642:0:0:0:0:
192,192,80392,128,0,80475:0:0:0:0:
448,192,80392,128,0,80475:0:0:0:0:
64,192,80559,128,0,80809:0:0:0:0:
192,192,80725,128,0,80809:0:0:0:0:
448,192,80725,128,0,80809:0:0:0:0:
320,192,80725,128,0,80809:0:0:0:0:
192,192,80892,128,0,81142:0:0:0:0:
320,192,81059,128,0,81142:0:0:0:0:
448,192,81059,128,0,81142:0:0:0:0:
64,192,81059,128,0,81142:0:0:0:0:
192,192,81225,128,0,81475:0:0:0:0:
64,192,81392,128,0,81475:0:0:0:0:
320,192,81392,128,0,81475:0:0:0:0:
448,192,81392,128,0,81642:0:0:0:0:
192,192,81559,128,0,81809:0:0:0:0:
320,192,81725,128,0,81809:0:0:0:0:
448,192,81725,128,0,81809:0:0:0:0:
64,192,81725,128,0,81809:0:0:0:0:
64,192,81892,128,0,82142:0:0:0:0:
192,192,82059,128,0,82142:0:0:0:0:
320,192,82059,128,0,82142:0:0:0:0:
448,192,82059,128,0,82142:0:0:0:0:
320,192,82225,128,0,82309:0:0:0:0:
64,192,82392,128,0,82475:0:0:0:0:
448,192,82392,128,0,82642:0:0:0:0:
192,192,82392,128,0,82475:0:0:0:0:
320,192,82392,128,0,82475:0:0:0:0:
64,192,82559,128,0,82642:0:0:0:0:
192,192,82642,128,0,82725:0:0:0:0:
64,192,82725,128,0,82975:0:0:0:0:
320,192,82725,128,0,82809:0:0:0:0:
448,192,82725,128,0,82809:0:0:0:0:
448,192,82892,128,0,82975:0:0:0:0:
320,192,82975,128,0,83059:0:0:0:0:
448,192,83059,128,0,83309:0:0:0:0:
64,192,83059,128,0,83142:0:0:0:0:
192,192,83059,128,0,83142:0:0:0:0:
192,192,83225,128,0,83309:0:0:0:0:
320,192,83309,128,0,83392:0:0:0:0:
64,192,83392,128,0,83809:0:0:0:0:
192,192,83392,128,0,83475:0:0:0:0:
448,192,83392,128,0,83475:0:0:0:0:
448,192,83559,128,0,83642:0:0:0:0:
448,192,83725,128,0,83809:0:0:0:0:
320,192,83725,128,0,83809:0:0:0:0:
192,192,83725,128,0,83809:0:0:0:0:
64,192,83892,128,0,83975:0:0:0:0:
64,192,84059,128,0,84142:0:0:0:0:
448,192,84059,128,0,84142:0:0:0:0:
64,192,84225,128,0,84309:0:0:0:0:
320,192,84225,128,0,84309:0:0:0:0:
64,192,84392,128,0,84475:0:0:0:0:
448,192,84392,128,0,84642:0:0:0:0:
320,192,84392,128,0,84642:0:0:0:0:
64,192,84559,128,0,84642:0:0:0:0:
192,192,84725,128,0,84809:0:0:0:0:
448,192,84725,128,0,85142:0:0:0:0:
192,192,84892,128,0,84975:0:0:0:0:
320,192,84892,128,0,85142:0:0:0:0:
192,192,85059,128,0,85142:0:0:0:0:
64,192,85059,128,0,85142:0:0:0:0:
448,192,85225,128,0,85392:0:0:0:0:
64,192,85225,128,0,85392:0:0:0:0:
192,192,85392,128,0,85475:0:0:0:0:
320,192,85475,128,0,85559:0:0:0:0:
64,192,85559,128,0,85725:0:0:0:0:
192,192,85559,128,0,85642:0:0:0:0:
448,192,85642,128,0,85725:0:0:0:0:
192,192,85725,128,0,85892:0:0:0:0:
320,192,85725,128,0,85809:0:0:0:0:
448,192,85809,128,0,85892:0:0:0:0:
64,192,85892,128,0,86059:0:0:0:0:
320,192,85892,128,0,85975:0:0:0:0:
448,192,85975,128,0,86059:0:0:0:0:
192,192,86059,128,0,86475:0:0:0:0:
320,192,86059,1,0,0:0:0:0:
64,192,86225,128,0,86475:0:0:0:0:
448,192,86225,128,0,86309:0:0:0:0:
320,192,86392,128,0,86475:0:0:0:0:
448,192,86392,128,0,86475:0:0:0:0:
64,192,86559,128,0,86642:0:0:0:0:
192,192,86559,128,0,86642:0:0:0:0:
448,192,86559,128,0,86809:0:0:0:0:
192,192,86725,128,0,86809:0:0:0:0:
64,192,86725,128,0,86809:0:0:0:0:
192,192,86892,128,0,86975:0:0:0:0:
448,192,86892,128,0,86975:0:0:0:0:
64,192,86892,128,0,86975:0:0:0:0:
448,192,87059,128,0,87142:0:0:0:0:
320,192,87059,128,0,87142:0:0:0:0:
64,192,87059,128,0,87309:0:0:0:0:
448,192,87225,128,0,87309:0:0:0:0:
320,192,87225,128,0,87309:0:0:0:0:
448,192,87392,128,0,87475:0:0:0:0:
64,192,87392,128,0,87475:0:0:0:0:
192,192,87392,128,0,87475:0:0:0:0:
64,192,87559,128,0,87809:0:0:0:0:
192,192,87559,128,0,87642:0:0:0:0:
448,192,87559,128,0,87642:0:0:0:0:
320,192,87559,128,0,87642:0:0:0:0:
448,192,87725,128,0,87809:0:0:0:0:
320,192,87725,128,0,87809:0:0:0:0:
192,192,87892,128,0,87975:0:0:0:0:
448,192,87892,128,0,87975:0:0:0:0:
64,192,88059,128,0,88142:0:0:0:0:
448,192,88059,128,0,88142:0:0:0:0:
320,192,88059,128,0,88142:0:0:0:0:
192,192,88225,128,0,88309:0:0:0:0:
64,192,88225,128,0,88309:0:0:0:0:
448,192,88309,128,0,88475:0:0:0:0:
192,192,88392,128,0,88475:0:0:0:0:
320,192,88392,128,0,88475:0:0:0:0:
64,192,88475,128,0,88642:0:0:0:0:
448,192,88559,128,0,88642:0:0:0:0:
320,192,88559,128,0,88642:0:0:0:0:
192,192,88642,128,0,88725:0:0:0:0:
448,192,88725,128,0,88975:0:0:0:0:
64,192,88725,128,0,88809:0:0:0:0:
64,192,88892,128,0,88975:0:0:0:0:
64,192,89059,128,0,89142:0:0:0:0:
448,192,89059,128,0,89142:0:0:0:0:
320,192,89059,128,0,89142:0:0:0:0:
64,192,89225,128,0,89309:0:0:0:0:
64,192,89392,128,0,89975:0:0:0:0:
320,192,89392,128,0,89475:0:0:0:0:
448,192,89392,128,0,89475:0:0:0:0:
448,192,89559,128,0,89642:0:0:0:0:
320,192,89725,128,0,89809:0:0:0:0:
448,192,89725,128,0,89809:0:0:0:0:
448,192,89892,128,0,89975:0:0:0:0:
192,192,90059,128,0,90309:0:0:0:0:
64,192,90059,128,0,90142:0:0:0:0:
320,192,90059,128,0,90142:0:0:0:0:
320,192,90225,128,0,90309:0:0:0:0:
448,192,90392,128,0,90642:0:0:0:0:
64,192,90392,128,0,90475:0:0:0:0:
192,192,90392,128,0,90475:0:0:0:0:
64,192,90559,128,0,90642:0:0:0:0:
320,192,90725,128,0,90975:0:0:0:0:
192,192,90725,128,0,90809:0:0:0:0:
448,192,90725,128,0,90809:0:0:0:0:
192,192,90892,128,0,90975:0:0:0:0:
64,192,91059,128,0,91309:0:0:0:0:
192,192,91059,128,0,91142:0:0:0:0:
448,192,91059,128,0,91142:0:0:0:0:
448,192,91225,128,0,91309:0:0:0:0:
64,192,91392,128,0,91475:0:0:0:0:
448,192,91392,128,0,91559:0:0:0:0:
320,192,91392,128,0,91559:0:0:0:0:
192,192,91559,128,0,91642:0:0:0:0:
64,192,91642,128,0,91725:0:0:0:0:
448,192,91725,128,0,91809:0:0:0:0:
320,192,91725,128,0,91892:0:0:0:0:
192,192,91809,128,0,91892:0:0:0:0:
64,192,91892,128,0,92059:0:0:0:0:
448,192,91975,128,0,92059:0:0:0:0:
320,192,92059,128,0,92225:0:0:0:0:
192,192,92059,128,0,92142:0:0:0:0:
448,192,92142,128,0,92225:0:0:0:0:
64,192,92225,128,0,92309:0:0:0:0:
192,192,92309,128,0,92392:0:0:0:0:
320,192,92392,128,0,92475:0:0:0:0:
448,192,92392,128,0,92559:0:0:0:0:
64,192,92475,128,0,92559:0:0:0:0:
192,192,92559,128,0,92809:0:0:0:0:
320,192,92642,128,0,92809:0:0:0:0:
448,192,92725,128,0,92809:0:0:0:0:
64,192,92725,128,0,92809:0:0:0:0:
448,192,93392,128,0,94725:0:0:0:0:
64,192,94059,128,0,94725:0:0:0:0:
320,192,94059,1,0,0:0:0:0:
