osu file format v14

[General]
AudioFilename: audio.mp3
AudioLeadIn: 0
PreviewTime: 64725
Countdown: 1
SampleSet: Soft
StackLeniency: 0.7
Mode: 0
LetterboxInBreaks: 0
WidescreenStoryboard: 0

[Editor]
Bookmarks: 49809
DistanceSpacing: 1.2
BeatDivisor: 4
GridSize: 4
TimelineZoom: 1.8

[Metadata]
Title:color
TitleUnicode:color
Artist:CHiCO with HoneyWorks
ArtistUnicode:CHiCO with HoneyWorks
Creator:-GriM-
Version:Colorful
Source:
Tags:
BeatmapID:1314589
BeatmapSetID:623683

[Difficulty]
HPDrainRate:6.5
CircleSize:4
OverallDifficulty:8.7
ApproachRate:9.2
SliderMultiplier:1.8
SliderTickRate:1

[Events]
//Background and Video events
0,0,"bg.jpg",0,0
//Break Periods
//Storyboard Layer 0 (Background)
//Storyboard Layer 1 (Fail)
//Storyboard Layer 2 (Pass)
//Storyboard Layer 3 (Foreground)
//Storyboard Sound Samples

[TimingPoints]
726,333.333333333333,4,2,0,100,1,0
726,-133.333333333333,4,2,0,100,0,0
10059,-100,4,2,0,100,0,0
11309,-100,4,2,0,5,0,0
11392,-100,4,2,0,100,0,1
13559,-100,4,2,0,100,0,0
19309,-100,4,2,0,5,0,0
19392,-100,4,2,0,100,0,0
24642,-100,4,2,0,5,0,0
24725,-100,4,2,0,50,0,0
27392,-100,4,2,0,100,0,0
30059,-133.333333333333,4,2,0,50,0,0
40725,-100,4,2,0,100,0,0
54059,-100,4,2,0,50,0,0
59642,-100,4,2,0,5,0,0
59725,-100,4,2,0,50,0,0
63392,-100,4,2,0,50,0,0
64725,-100,4,2,0,100,0,1
85892,-100,4,2,0,100,0,0
86059,-100,4,2,0,100,0,1
88725,-100,4,2,0,100,0,0
91392,-100,4,2,0,100,0,1
92725,-100,4,2,0,100,0,0
93392,-133.333333333333,4,2,0,10,0,0

[HitObjects]
40,148,726,6,0,P|72:112|32:216,2,540.000020599366
160,40,4725,6,0,B|248:48|296:20|296:20|336:52|432:40,1,270.000010299683
252,364,6059,5,0,0:0:0:0:
148,240,6392,2,0,P|136:296|156:376,1,135.000005149842
224,168,7059,1,0,0:0:0:0:
344,48,7392,6,0,P|324:96|364:64,1,135.000005149842
440,212,8059,2,0,B|452:256|452:256|416:356,1,135.000005149842
140,240,8725,6,0,P|180:224|280:240,1,135.000005149842
152,364,9225,1,0,0:0:0:0:
152,364,9309,1,0,0:0:0:0:
152,364,9392,1,0,0:0:0:0:
40,256,9559,1,0,0:0:0:0:
144,136,9725,1,0,0:0:0:0:
269,234,9892,1,0,0:0:0:0:
269,234,10059,6,0,P|240:188|276:60,1,180
384,200,10559,2,0,P|400:252|316:332,1,180
56,336,11059,2,0,B|104:320|104:320|220:336,1,135
240,352,11392,5,0,0:0:0:0:
184,192,11559,1,0,0:0:0:0:
240,352,11725,1,0,0:0:0:0:
364,200,11892,5,0,0:0:0:0:
144,288,12059,1,0,0:0:0:0:
364,200,12225,1,0,0:0:0:0:
244,72,12392,5,0,0:0:0:0:
320,292,12559,1,0,0:0:0:0:
244,72,12725,1,0,0:0:0:0:
128,144,12892,5,0,0:0:0:0:
364,200,13059,1,0,0:0:0:0:
360,56,13225,5,0,0:0:0:0:
416,320,13392,1,0,0:0:0:0:
80,320,13559,5,0,0:0:0:0:
116,300,13642,1,0,0:0:0:0:
156,296,13725,1,0,0:0:0:0:
196,304,13809,1,0,0:0:0:0:
228,328,13892,1,0,0:0:0:0:
252,360,13975,1,0,0:0:0:0:
272,324,14059,6,0,P|284:272|268:144,1,180
144,64,14559,1,0,0:0:0:0:
144,64,14725,2,0,P|128:120|144:160,1,90
320,28,15059,2,0,P|263:12|224:29,1,90
336,180,15392,5,0,0:0:0:0:
440,52,15559,1,0,0:0:0:0:
256,136,15725,2,0,P|200:140|152:132,1,90
32,32,16059,2,0,P|20:88|44:132,1,90
184,304,16392,2,0,P|196:248|172:204,1,90
112,368,16725,5,0,0:0:0:0:
64,224,16892,1,0,0:0:0:0:
184,304,17059,5,0,0:0:0:0:
268,136,17226,1,0,0:0:0:0:
284,272,17392,5,0,0:0:0:0:
464,176,17559,1,0,0:0:0:0:
508,304,17725,5,0,0:0:0:0:
387,126,17892,1,0,0:0:0:0:
387,126,17975,1,0,0:0:0:0:
387,126,18059,6,0,L|371:246,1,90
272,24,18392,2,0,L|292:136,1,90
48,204,18725,1,0,0:0:0:0:
60,204,18809,1,0,0:0:0:0:
72,204,18892,1,0,0:0:0:0:
84,204,18975,1,0,0:0:0:0:
96,204,19059,2,0,B|144:200|144:200|128:320,1,135
152,300,19392,6,0,P|200:284|256:304,1,90
336,376,19725,1,0,0:0:0:0:
384,220,19892,1,0,0:0:0:0:
256,320,20059,1,0,0:0:0:0:
416,296,20225,1,0,0:0:0:0:
320,164,20392,2,0,L|324:56,1,90
96,24,20725,6,0,L|204:48,1,90
140,200,21059,1,0,0:0:0:0:
28,84,21225,1,0,0:0:0:0:
16,244,21392,2,0,B|8:296|8:296|16:348,1,90
140,200,21725,2,0,B|148:148|148:148|140:96,1,90
396,48,22059,6,0,P|328:36|296:48,1,90
396,176,22392,1,0,0:0:0:0:
480,36,22559,1,0,0:0:0:0:
488,248,22725,2,0,B|496:204|496:204|488:156,1,90
368,284,23059,2,0,B|360:328|360:328|368:376,1,90
300,96,23392,5,0,0:0:0:0:
240,248,23559,1,0,0:0:0:0:
388,184,23725,1,0,0:0:0:0:
228,156,23892,1,0,0:0:0:0:
304,352,24059,2,0,L|316:296,1,45
148,228,24225,2,0,L|138:272,1,45
24,368,24392,2,0,P|4:320|24:228,1,135
16,192,24725,5,0,0:0:0:0:
36,160,24809,1,0,0:0:0:0:
72,148,24892,1,0,0:0:0:0:
108,152,24975,1,0,0:0:0:0:
132,180,25059,1,0,0:0:0:0:
140,216,25142,1,0,0:0:0:0:
128,248,25225,1,0,0:0:0:0:
104,276,25309,1,0,0:0:0:0:
68,288,25392,2,0,L|16:272,1,45
152,368,25559,2,0,L|195:381,1,45
84,260,25725,6,0,L|32:244,1,45
168,340,25892,2,0,L|211:353,1,45
264,364,26059,5,0,0:0:0:0:
244,336,26142,1,0,0:0:0:0:
240,300,26225,1,0,0:0:0:0:
252,264,26309,1,0,0:0:0:0:
276,240,26392,1,0,0:0:0:0:
312,236,26475,1,0,0:0:0:0:
348,240,26559,1,0,0:0:0:0:
376,260,26642,1,0,0:0:0:0:
384,296,26725,6,0,L|408:240,1,45
436,164,26892,1,0,0:0:0:0:
288,144,27059,6,0,L|304:86,1,45
328,12,27226,1,0,0:0:0:0:
328,12,27309,1,0,0:0:0:0:
328,12,27392,6,0,P|280:32|132:8,1,180
180,224,27892,1,0,0:0:0:0:
80,88,28059,1,0,0:0:0:0:
72,328,28225,1,0,0:0:0:0:
156,140,28392,1,0,0:0:0:0:
176,352,28559,1,0,0:0:0:0:
176,352,28642,1,0,0:0:0:0:
176,352,28725,6,0,P|228:332|276:352,1,90
344,76,29059,1,0,0:0:0:0:
312,116,29142,1,0,0:0:0:0:
300,164,29225,1,0,0:0:0:0:
308,212,29309,1,0,0:0:0:0:
336,252,29392,1,0,0:0:0:0:
304,240,29475,1,0,0:0:0:0:
268,232,29559,1,0,0:0:0:0:
232,232,29642,1,0,0:0:0:0:
196,240,29725,2,0,L|184:300,1,45
112,164,29892,2,0,L|120:119,1,45
344,52,30059,6,0,P|296:32|208:56,1,135.000005149842
384,192,30725,2,0,P|432:212|520:187,1,135.000005149842
296,332,31392,6,0,L|152:332,1,135.000005149842
128,108,32059,1,0,0:0:0:0:
224,264,32392,1,0,0:0:0:0:
284,32,32725,6,0,P|304:88|280:164,1,135.000005149842
156,256,33392,1,0,0:0:0:0:
324,332,33725,2,0,P|328:284|324:248,1,67.5000025749208
304,104,34225,5,0,0:0:0:0:
252,168,34392,1,0,0:0:0:0:
200,104,34559,1,0,0:0:0:0:
124,76,34725,2,0,P|80:100|92:176,1,135.000005149842
200,368,35392,6,0,L|204:216,1,135.000005149842
276,88,36059,1,0,0:0:0:0:
320,244,36392,1,0,0:0:0:0:
200,368,36725,6,0,P|178:305|195:240,1,135.000005149842
96,32,37392,1,0,0:0:0:0:
40,184,37725,1,0,0:0:0:0:
296,64,38059,5,0,0:0:0:0:
160,88,38225,1,0,0:0:0:0:
360,120,38392,1,0,0:0:0:0:
360,120,38475,1,0,0:0:0:0:
360,120,38559,1,0,0:0:0:0:
248,244,38725,2,0,P|240:184|252:152,1,67.5000025749208
344,344,39059,1,0,0:0:0:0:
432,252,39225,1,0,0:0:0:0:
432,252,39309,1,0,0:0:0:0:
432,252,39392,6,0,P|444:212|432:160,1,67.5000025749208
296,80,39725,1,0,0:0:0:0:
344,200,39892,1,0,0:0:0:0:
432,100,40059,1,0,0:0:0:0:
232,168,40225,1,0,0:0:0:0:
376,24,40392,1,0,0:0:0:0:
440,216,40559,1,0,0:0:0:0:
444,244,40642,1,0,0:0:0:0:
440,272,40725,6,0,P|408:304|284:280,1,180
168,148,41225,1,0,0:0:0:0:
156,344,41392,2,0,P|144:288|156:248,1,90
280,48,41725,2,0,P|292:103|279:144,1,90
16,24,42059,6,0,L|200:32,1,180
120,228,42559,1,0,0:0:0:0:
32,104,42725,1,0,0:0:0:0:
220,192,42892,1,0,0:0:0:0:
32,268,43059,1,0,0:0:0:0:
192,32,43225,1,0,0:0:0:0:
192,32,43309,1,0,0:0:0:0:
192,32,43392,6,0,B|188:64|188:64|184:128,1,90
288,264,43725,2,0,B|292:224|292:224|296:168,1,90
184,360,44059,1,0,0:0:0:0:
376,272,44225,1,0,0:0:0:0:
184,184,44392,1,0,0:0:0:0:
300,368,44559,1,0,0:0:0:0:
465,282,44725,6,0,L|361:270,1,90
348,112,45059,2,0,L|356:160,1,45
264,56,45225,1,0,0:0:0:0:
264,56,45309,1,0,0:0:0:0:
264,56,45392,2,0,P|204:40|152:60,1,90
128,232,45725,1,0,0:0:0:0:
68,8,45892,1,0,0:0:0:0:
216,140,46059,6,0,P|272:148|332:136,1,90
320,140,46309,1,0,0:0:0:0:
340,132,46392,1,0,0:0:0:0:
328,324,46559,1,0,0:0:0:0:
320,288,46642,1,0,0:0:0:0:
312,252,46725,1,0,0:0:0:0:
420,368,46892,1,0,0:0:0:0:
460,152,47059,2,0,L|476:256,1,90
404,56,47392,6,0,L|284:48,1,90
112,96,47725,2,0,L|201:101,1,90
480,188,48059,2,0,L|360:180,1,90
24,236,48392,2,0,L|113:241,1,90
188,248,48642,1,0,0:0:0:0:
188,248,48725,6,0,P|212:176|188:72,1,180
64,184,49225,1,0,0:0:0:0:
64,24,49392,1,0,0:0:0:0:
188,248,49559,1,0,0:0:0:0:
276,85,49725,2,0,P|220:69|172:85,1,90
300,192,50059,5,0,0:0:0:0:
400,32,50225,1,0,0:0:0:0:
400,280,50392,5,0,0:0:0:0:
340,104,50559,1,0,0:0:0:0:
304,344,50725,5,0,0:0:0:0:
404,160,50892,1,0,0:0:0:0:
248,68,51059,5,0,0:0:0:0:
400,280,51225,1,0,0:0:0:0:
236,168,51392,6,0,P|184:148|232:192,1,180
360,32,52059,1,0,0:0:0:0:
412,64,52170,1,0,0:0:0:0:
420,124,52281,1,0,0:0:0:0:
380,168,52392,1,0,0:0:0:0:
320,180,52503,1,0,0:0:0:0:
280,136,52614,1,0,0:0:0:0:
268,76,52725,6,0,P|224:48|104:84,1,180
268,232,53392,2,0,P|312:260|432:224,1,180
140,368,54059,5,0,0:0:0:0:
68,128,54392,2,0,L|72:224,3,60
284,40,55059,2,0,L|220:48,3,60
404,240,55725,2,0,L|408:176,8,60
396,312,56725,5,0,0:0:0:0:
104,332,57059,1,0,0:0:0:0:
164,332,57170,1,0,0:0:0:0:
224,332,57281,1,0,0:0:0:0:
284,332,57392,1,0,0:0:0:0:
132,232,57725,1,0,0:0:0:0:
104,180,57837,1,0,0:0:0:0:
108,120,57948,1,0,0:0:0:0:
148,76,58059,5,0,0:0:0:0:
280,196,58392,6,0,L|268:136,2,60
292,256,58725,1,0,0:0:0:0:
340,292,58837,1,0,0:0:0:0:
400,288,58948,1,0,0:0:0:0:
440,244,59059,1,0,0:0:0:0:
420,188,59170,1,0,0:0:0:0:
380,144,59281,1,0,0:0:0:0:
376,84,59392,6,0,P|436:68|504:88,1,135
504,216,59725,2,0,L|504:152,3,60
296,32,60392,2,0,L|296:92,3,60
116,108,61059,6,0,P|156:92|184:104,8,60
216,156,62059,6,0,P|248:100|180:24,1,180
136,28,62475,1,0,0:0:0:0:
100,52,62559,1,0,0:0:0:0:
88,96,62642,1,0,0:0:0:0:
112,144,62725,1,0,0:0:0:0:
160,172,62809,1,0,0:0:0:0:
212,156,62892,1,0,0:0:0:0:
260,128,62975,1,0,0:0:0:0:
312,120,63059,1,0,0:0:0:0:
364,132,63142,1,0,0:0:0:0:
400,172,63225,1,0,0:0:0:0:
396,228,63309,1,0,0:0:0:0:
256,192,63392,12,0,64559,0:0:0:0:
96,344,64725,6,0,P|72:288|84:252,1,90
192,88,65059,1,0,0:0:0:0:
144,288,65225,1,0,0:0:0:0:
108,52,65392,2,0,B|92:88|92:88|108:160,1,90
316,40,65725,1,0,0:0:0:0:
168,96,65892,1,0,0:0:0:0:
416,172,66059,6,0,L|300:152,1,90
496,272,66392,1,0,0:0:0:0:
496,272,66559,1,0,0:0:0:0:
268,328,66725,2,0,L|372:340,1,90
128,248,67059,2,0,L|232:260,1,90
284,20,67392,6,0,P|292:68|280:108,1,90
16,56,67725,1,0,0:0:0:0:
216,56,67892,1,0,0:0:0:0:
24,184,68059,1,0,0:0:0:0:
120,0,68225,1,0,0:0:0:0:
128,268,68392,2,0,P|144:204|132:168,1,90
320,24,68725,6,0,P|315:67|344:124,1,90
508,264,69059,2,0,P|474:207|440:190,1,90
288,296,69392,1,0,0:0:0:0:
408,96,69559,1,0,0:0:0:0:
384,360,69725,1,0,0:0:0:0:
288,180,69892,1,0,0:0:0:0:
156,288,70059,6,0,B|120:200|120:200|152:108,1,180
256,268,70559,1,0,0:0:0:0:
64,372,70725,1,0,0:0:0:0:
16,184,70892,1,0,0:0:0:0:
160,324,71059,2,0,B|172:288|172:288|164:232,1,90
476,120,71392,6,0,B|416:100|344:124|344:124|304:104,1,180
408,16,71892,1,0,0:0:0:0:
408,224,72059,1,0,0:0:0:0:
216,100,72225,1,0,0:0:0:0:
476,120,72392,1,0,0:0:0:0:
268,260,72559,1,0,0:0:0:0:
104,152,72725,6,0,P|92:216|112:276,1,90
188,384,73059,1,0,0:0:0:0:
252,208,73225,1,0,0:0:0:0:
252,208,73309,1,0,0:0:0:0:
252,208,73392,1,0,0:0:0:0:
144,52,73559,1,0,0:0:0:0:
144,52,73642,1,0,0:0:0:0:
144,52,73725,1,0,0:0:0:0:
96,320,73892,1,0,0:0:0:0:
268,104,74059,6,0,P|320:96|372:104,1,90
304,352,74392,1,0,0:0:0:0:
268,104,74559,1,0,0:0:0:0:
456,264,74725,1,0,0:0:0:0:
416,248,74809,1,0,0:0:0:0:
372,240,74892,1,0,0:0:0:0:
328,248,74975,1,0,0:0:0:0:
284,280,75059,1,0,0:0:0:0:
232,308,75142,1,0,0:0:0:0:
168,296,75225,1,0,0:0:0:0:
144,240,75309,1,0,0:0:0:0:
152,176,75392,6,0,P|168:120|160:88,1,90
84,344,75725,1,0,0:0:0:0:
56,136,75892,1,0,0:0:0:0:
208,280,76059,1,0,0:0:0:0:
240,64,76225,1,0,0:0:0:0:
380,184,76392,2,0,P|328:168|276:184,1,90
400,352,76725,5,0,0:0:0:0:
472,124,76892,1,0,0:0:0:0:
295,173,77059,1,0,0:0:0:0:
500,280,77225,1,0,0:0:0:0:
236,308,77392,2,0,L|328:312,1,90
56,252,77725,2,0,L|148:256,1,90
320,100,78059,6,0,P|256:88|216:104,1,90
352,244,78392,1,0,0:0:0:0:
416,80,78559,1,0,0:0:0:0:
472,288,78725,2,0,B|480:336|480:336|464:380,1,90
270,269,79059,2,0,B|311:244|311:244|358:243,1,90
176,360,79392,5,0,0:0:0:0:
232,108,79559,1,0,0:0:0:0:
80,248,79725,1,0,0:0:0:0:
320,344,79892,1,0,0:0:0:0:
320,344,79975,1,0,0:0:0:0:
320,344,80059,2,0,P|336:292|320:248,1,90
239,24,80392,2,0,P|223:75|239:120,1,90
80,248,80725,6,0,P|144:260|184:248,1,90
328,136,81059,1,0,0:0:0:0:
328,136,81225,1,0,0:0:0:0:
232,376,81392,2,0,P|288:360|340:376,1,90
216,180,81725,1,0,0:0:0:0:
404,320,81892,1,0,0:0:0:0:
452,52,82059,6,0,P|464:104|448:152,1,90
196,88,82392,1,0,0:0:0:0:
240,80,82475,1,0,0:0:0:0:
284,72,82559,1,0,0:0:0:0:
328,64,82642,1,0,0:0:0:0:
372,56,82725,1,0,0:0:0:0:
216,208,82892,1,0,0:0:0:0:
84,32,83059,2,0,P|76:88|92:124,1,90
218,292,83392,6,0,P|226:236|210:200,1,90
40,356,83725,2,0,L|156:376,1,90
218,292,84059,2,0,L|322:280,1,90
400,360,84392,2,0,L|504:380,1,90
376,240,84725,5,0,0:0:0:0:
464,144,84892,1,0,0:0:0:0:
376,64,85059,1,0,0:0:0:0:
332,64,85142,1,0,0:0:0:0:
292,80,85225,1,0,0:0:0:0:
272,120,85309,1,0,0:0:0:0:
272,164,85392,2,0,P|296:228|336:240,1,90
136,360,85725,2,0,B|120:328|120:328|120:248,1,90
132,24,86059,5,0,0:0:0:0:
184,200,86225,1,0,0:0:0:0:
132,24,86392,1,0,0:0:0:0:
12,276,86559,5,0,0:0:0:0:
168,120,86725,1,0,0:0:0:0:
12,276,86892,1,0,0:0:0:0:
164,360,87059,5,0,0:0:0:0:
72,128,87225,1,0,0:0:0:0:
164,360,87392,1,0,0:0:0:0:
412,168,87559,5,0,0:0:0:0:
164,88,87725,1,0,0:0:0:0:
280,320,87892,5,0,0:0:0:0:
356,20,88059,1,0,0:0:0:0:
108,212,88225,5,0,0:0:0:0:
144,188,88309,1,0,0:0:0:0:
188,192,88392,1,0,0:0:0:0:
224,216,88475,1,0,0:0:0:0:
224,260,88559,1,0,0:0:0:0:
256,228,88642,1,0,0:0:0:0:
296,216,88725,6,0,P|360:212|388:228,1,90
348,352,89059,1,0,0:0:0:0:
464,268,89225,1,0,0:0:0:0:
408,156,89392,2,0,P|360:132|304:144,1,90
104,228,89725,2,0,P|152:204|208:216,1,90
276,332,90059,5,0,0:0:0:0:
288,96,90225,1,0,0:0:0:0:
104,228,90392,2,0,P|96:292|116:320,1,90
252,196,90725,1,0,0:0:0:0:
152,72,90892,1,0,0:0:0:0:
192,364,91059,1,0,0:0:0:0:
192,364,91225,1,0,0:0:0:0:
252,196,91392,5,0,0:0:0:0:
288,156,91475,1,0,0:0:0:0:
340,156,91559,1,0,0:0:0:0:
376,196,91642,1,0,0:0:0:0:
380,248,91725,1,0,0:0:0:0:
340,284,91809,1,0,0:0:0:0:
288,288,91892,1,0,0:0:0:0:
252,252,91975,1,0,0:0:0:0:
252,196,92059,1,0,0:0:0:0:
208,168,92142,1,0,0:0:0:0:
156,168,92225,1,0,0:0:0:0:
112,196,92309,1,0,0:0:0:0:
100,248,92392,2,0,P|112:300|224:320,1,180
237,51,93392,6,0,L|221:343,1,270.000010299683
