osu file format v14

[General]
AudioFilename: audio.mp3
AudioLeadIn: 0
PreviewTime: 56095
Countdown: 0
SampleSet: Soft
StackLeniency: 0.5
Mode: 0
LetterboxInBreaks: 0
WidescreenStoryboard: 1

[Editor]
DistanceSpacing: 1.3
BeatDivisor: 4
GridSize: 32
TimelineZoom: 1.9

[Metadata]
Title:Wolf
TitleUnicode:ウルフ
Artist:CHiCO with HoneyWorks
ArtistUnicode:CHiCO with HoneyWorks
Creator:PikAqours
Version:Insane
Source:泡恋
Tags:cut version japanese pop jpop short Watashiwo Someru Aino Uta 私を染めるiの歌 j-pop ver edit カヌレとウルフ suyuko NoFC rock jrock j-rock Awa Koi
BeatmapID:2617751
BeatmapSetID:1257977

[Difficulty]
HPDrainRate:5
CircleSize:3.7
OverallDifficulty:8.5
ApproachRate:9
SliderMultiplier:1.8
SliderTickRate:1

[Events]
//Background and Video events
0,0,"bg.jpg",0,0
//Break Periods
//Storyboard Layer 0 (Background)
//Storyboard Layer 1 (Fail)
//Storyboard Layer 2 (Pass)
//Storyboard Layer 3 (Foreground)
//Storyboard Layer 4 (Overlay)
//Storyboard Sound Samples

[TimingPoints]
753,315.789473684211,4,2,1,60,1,0
753,-153.846153846153,4,2,1,60,0,0
5805,-133.333333333333,4,2,1,60,0,0
10700,-111.111111111111,4,2,1,70,0,0
20963,-125,4,2,1,60,0,0
29647,-153.846153846154,4,2,1,60,0,0
30595,-125,4,2,1,60,0,0
30910,-111.111111111111,4,2,1,70,0,0
41174,-125,4,2,1,60,0,0
51279,-166.666666666667,4,2,1,50,0,0
53805,-125,4,2,1,50,0,0
54437,-111.111111111111,4,2,1,50,0,0
55068,-111.111111111111,4,2,1,60,0,0
55700,-111.111111111111,4,2,1,70,0,0
56174,-100,4,2,1,80,0,1
61384,-100,4,2,1,80,0,1
63910,-100,4,2,1,80,0,1
75910,-125,4,2,1,60,0,0
76542,-111.111111111111,4,2,1,70,0,0
86489,-200,4,2,1,70,0,0

[Colours]
Combo1 : 255,255,0
Combo2 : 128,128,192
Combo3 : 255,128,64
Combo4 : 0,128,128

[HitObjects]
21,56,753,6,0,P|85:48|126:80,1,116.999994644165,6|2,1:2|0:0,0:0:0:0:
184,149,1226,2,0,P|156:157|128:166,1,58.4999973220826,2|0,0:0|0:0,0:0:0:0:
66,237,1542,2,0,P|93:245|121:254,1,58.4999973220826,2|0,0:0|0:0,0:0:0:0:
191,317,1858,2,0,B|266:293|266:293|300:316,1,116.999994644165,2|2,0:0|0:0,0:0:0:0:
377,363,2331,2,0,P|390:304|404:246,1,116.999994644165,2|0,0:0|0:0,0:0:0:0:
428,62,2963,2,0,P|395:70|366:78,1,58.4999973220826,2|0,0:0|0:0,0:0:0:0:
275,131,3279,6,0,P|266:103|256:75,1,58.4999973220826,10|8,0:2|0:2,0:0:0:0:
180,20,3595,1,2,0:0:0:0:
180,20,3753,2,0,P|170:47|161:75,1,58.4999973220826,2|0,0:0|0:0,0:0:0:0:
84,128,4068,2,0,P|100:178|120:258,1,116.999994644165,2|0,0:0|0:0,0:0:0:0:
73,353,4542,6,0,P|100:347|130:340,1,58.4999973220826,10|8,0:2|0:2,0:0:0:0:
215,299,4858,2,0,P|243:305|272:312,1,58.4999973220826,2|0,0:0|0:0,0:0:0:0:
389,355,5174,2,0,P|381:326|372:299,1,58.4999973220826,10|8,0:2|0:2,0:0:0:0:
327,216,5489,2,0,P|334:187|343:160,1,58.4999973220826,2|8,0:0|0:2,0:0:0:0:
357,125,5726,1,8,0:2:0:0:
357,125,5805,6,0,B|303:115|303:115|270:133|270:133|211:120,1,135.000005149842,6|2,1:2|1:2,0:0:0:0:
156,40,6279,2,0,P|194:28|227:19,1,67.5000025749208,2|0,0:2|1:2,0:0:0:0:
123,128,6595,2,0,P|85:116|52:107,1,67.5000025749208,2|0,0:2|1:2,0:0:0:0:
65,259,6910,2,0,P|122:223|186:239,1,135.000005149842,2|2,0:0|0:0,0:0:0:0:
260,314,7384,2,0,P|315:349|379:335,1,135.000005149842,2|0,1:2|1:2,0:0:0:0:
427,109,8016,2,0,P|389:119|354:127,1,67.5000025749208,2|10,1:2|0:2,0:0:0:0:
338,139,8253,1,8,0:2:0:0:
338,139,8331,6,0,B|321:166|304:179|304:179|327:221|336:268,1,135.000005149842,6|2,1:2|1:2,0:0:0:0:
411,358,8805,1,2,1:2:0:0:
452,231,8963,1,0,1:2:0:0:
305,359,9121,1,2,1:2:0:0:
250,183,9279,1,0,1:2:0:0:
134,348,9437,5,6,1:2:0:0:
134,348,10226,2,0,P|96:357|63:365,2,67.5000025749208,2|2|2,0:2|0:2|0:2,0:0:0:0:
237,242,10700,6,0,B|285:220|326:213|326:213|353:223|347:259|326:283,1,161.999995056153,6|0,1:2|1:2,0:0:0:0:
242,354,11174,1,10,0:2:0:0:
138,254,11331,2,0,P|126:207|117:173,1,80.9999975280763,2|0,0:2|1:2,0:0:0:0:
228,64,11647,2,0,P|217:103|207:142,1,80.9999975280763,2|8,1:2|0:2,0:0:0:0:
55,42,11963,6,0,P|103:27|143:17,1,80.9999975280763,6|0,1:2|0:0,0:0:0:0:
285,165,12279,2,0,P|237:150|197:140,1,80.9999975280763,2|8,1:2|0:2,0:0:0:0:
330,32,12595,1,2,1:2:0:0:
330,32,12674,1,8,0:2:0:0:
330,32,12753,1,0,1:2:0:0:
389,165,12910,1,0,1:2:0:0:
487,21,13068,2,0,P|474:63|461:107,1,80.9999975280763,8|0,0:2|0:0,0:0:0:0:
310,260,13384,6,0,P|289:182|264:91,1,161.999995056153,6|10,1:2|0:2,0:0:0:0:
182,236,13858,2,0,P|169:272|156:319,1,80.9999975280763,2|0,0:2|1:2,0:0:0:0:
87,165,14174,2,0,P|76:126|62:87,1,80.9999975280763,2|8,1:2|0:2,0:0:0:0:
241,21,14489,6,0,P|197:31|154:44,1,80.9999975280763,6|0,1:2|0:0,0:0:0:0:
303,111,14805,2,0,P|347:121|390:134,1,80.9999975280763,2|8,1:2|0:2,0:0:0:0:
507,229,15121,1,2,1:2:0:0:
335,269,15279,1,0,1:2:0:0:
471,130,15437,1,0,1:2:0:0:
443,310,15595,2,0,P|428:272|412:234,1,80.9999975280763,12|0,0:2|1:2,0:0:0:0:
397,204,15831,1,8,0:2:0:0:
397,204,15910,6,0,P|323:179|248:232,1,161.999995056153,6|8,1:2|0:2,0:0:0:0:
181,319,16384,2,0,P|222:334|261:349,1,80.9999975280763,2|0,0:0|1:2,0:0:0:0:
149,221,16700,2,0,P|108:236|69:251,1,80.9999975280763,2|8,1:2|0:2,0:0:0:0:
223,153,17016,6,0,P|240:109|257:63,1,80.9999975280763,6|0,1:2|0:0,0:0:0:0:
114,0,17331,2,0,P|128:37|142:75,1,80.9999975280763,2|8,1:2|0:2,0:0:0:0:
243,183,17647,1,2,1:2:0:0:
243,183,17726,1,8,0:2:0:0:
243,183,17805,1,0,1:2:0:0:
313,40,17963,1,0,1:2:0:0:
396,163,18121,2,0,P|412:206|427:255,1,80.9999975280763,8|0,0:2|1:2,0:0:0:0:
234,322,18437,6,0,B|226:296|200:267|200:267|242:230|246:153,1,161.999995056153,6|10,1:2|0:2,0:0:0:0:
125,92,18910,2,0,P|139:133|153:176,1,80.9999975280763,2|0,0:2|1:2,0:0:0:0:
281,96,19226,2,0,P|293:57|306:19,1,80.9999975280763,2|8,1:2|0:2,0:0:0:0:
80,56,19542,6,0,P|107:130|135:218,1,161.999995056153,6|0,1:2|1:2,0:0:0:0:
231,342,20016,2,0,P|245:289|257:248,1,80.9999975280763,12|0,0:2|1:2,0:0:0:0:
273,248,20253,1,8,0:2:0:0:
273,248,20331,2,0,P|300:243|313:239,3,40.4999987640381,2|0|2|0,1:2|1:2|1:2|1:2,0:0:0:0:
264,160,20647,2,0,P|237:155|224:151,3,40.4999987640381,10|0|2|0,0:2|1:2|1:2|1:2,0:0:0:0:
319,93,20963,6,0,P|391:57|464:74,1,144,6|2,1:2|1:2,0:0:0:0:
478,176,21437,2,0,P|444:165|409:154,1,72,2|0,0:2|1:2,0:0:0:0:
343,276,21753,2,0,P|377:265|411:254,1,72,2|0,0:2|1:2,0:0:0:0:
293,190,22068,2,0,P|248:243|258:336,1,144,2|2,0:2|0:2,0:0:0:0:
163,377,22542,2,0,P|141:306|112:206,1,144,2|0,1:2|1:2,0:0:0:0:
14,84,23174,1,2,1:2:0:0:
14,84,23331,1,2,0:2:0:0:
98,135,23489,6,0,B|156:123|156:123|193:138|193:138|253:127,1,144,2|2,1:2|1:2,0:0:0:0:
323,69,23963,2,0,P|334:108|346:158,1,72,2|0,0:2|1:2,0:0:0:0:
418,212,24279,2,0,P|426:177|436:142,1,72,2|2,0:2|1:2,0:0:0:0:
465,302,24595,2,0,P|402:310|330:258,1,144,2|0,0:2|0:0,0:0:0:0:
298,173,25068,2,0,P|263:181|228:191,1,72,2|0,1:2|0:0,0:0:0:0:
166,271,25384,2,0,P|191:296|217:321,1,72,2|0,1:2|0:0,0:0:0:0:
318,338,25700,2,0,P|326:303|336:268,1,72,2|0,1:2|0:0,0:0:0:0:
410,152,26016,6,0,P|390:84|367:-2,1,144,2|2,1:2|1:2,0:0:0:0:
286,73,26489,2,0,P|253:65|216:55,1,72,2|0,0:2|1:2,0:0:0:0:
151,169,26805,2,0,P|184:161|220:151,1,72,2|0,0:2|1:2,0:0:0:0:
78,90,27121,2,0,B|71:135|44:176|44:176|62:200|68:221,1,144,2|2,0:2|0:2,0:0:0:0:
145,309,27595,2,0,P|66:264|14:283,1,144,2|0,1:2|0:0,0:0:0:0:
204,372,28226,1,2,1:2:0:0:
204,372,28384,1,2,0:2:0:0:
268,297,28542,6,0,P|333:263|405:280,1,144,2|2,1:2|1:2,0:0:0:0:
483,354,29016,2,0,P|495:319|509:277,1,72,2|0,0:2|1:2,0:0:0:0:
504,179,29331,1,2,0:2:0:0:
504,179,29489,1,2,1:2:0:0:
399,276,29647,5,6,1:2:0:0:
399,276,29963,2,0,P|389:308|377:343,3,58.4999973220826,2|2|2|2,0:2|0:2|0:0|0:0,0:0:0:0:
297,370,30595,2,0,P|263:358|227:346,1,72,2|0,0:2|0:0,0:0:0:0:
134,240,30910,6,0,B|170:214|235:201|235:201|253:235|223:261,1,161.999995056153,6|0,1:2|1:0,0:0:0:0:
53,301,31384,1,10,0:2:0:0:
53,301,31542,2,0,P|41:262|31:223,1,80.9999975280763,2|0,0:2|0:0,0:0:0:0:
79,86,31858,1,2,1:2:0:0:
79,86,32016,1,10,0:2:0:0:
188,183,32174,6,0,B|225:200|273:174|255:159|290:129|348:152,1,161.999995056153,6|0,1:2|0:0,0:0:0:0:
511,36,32647,2,0,P|468:50|413:67,1,80.9999975280763,10|0,0:2|0:0,0:0:0:0:
421,83,32884,1,8,0:2:0:0:
421,83,32963,2,0,P|433:121|445:160,1,80.9999975280763,0|0,1:2|0:0,0:0:0:0:
489,311,33279,1,10,0:2:0:0:
489,311,33437,1,2,0:2:0:0:
352,199,33595,6,0,P|334:261|308:365,1,161.999995056153,6|8,1:2|0:0,0:0:0:0:
154,384,34068,1,2,1:2:0:0:
154,384,34147,1,8,0:2:0:0:
154,384,34226,1,0,1:2:0:0:
228,226,34384,1,2,1:2:0:0:
300,365,34542,1,8,0:2:0:0:
120,278,34700,6,0,B|103:247|86:226|86:226|118:182|133:122,1,161.999995056153,6|0,1:2|0:0,0:0:0:0:
226,22,35174,2,0,P|266:10|307:-1,1,80.9999975280763,10|0,0:2|0:0,0:0:0:0:
277,173,35489,2,0,P|246:144|216:114,1,80.9999975280763,2|0,1:2|1:2,0:0:0:0:
383,54,35805,2,0,P|373:94|362:135,1,80.9999975280763,14|0,0:2|0:0,0:0:0:0:
292,282,36121,6,0,B|241:274|196:245|196:245|172:273|136:284,1,161.999995056153,2|10,1:2|0:0,0:0:0:0:
27,355,36595,1,2,1:2:0:0:
27,355,36674,1,8,0:2:0:0:
27,355,36753,1,0,1:2:0:0:
82,214,36910,1,0,1:2:0:0:
162,342,37068,1,10,0:2:0:0:
74,189,37226,6,0,B|61:128|61:128|85:89|85:89|69:11,1,161.999995056153,6|2,1:2|1:2,0:0:0:0:
210,0,37700,2,0,P|254:14|295:29,1,80.9999975280763,10|0,0:2|0:0,0:0:0:0:
312,46,37937,1,8,0:2:0:0:
312,46,38016,2,0,P|325:84|337:122,1,80.9999975280763,0|0,1:2|0:0,0:0:0:0:
426,229,38331,1,8,0:2:0:0:
426,229,38489,1,2,0:2:0:0:
253,178,38647,6,0,P|169:169|100:236,1,161.999995056153,6|8,1:2|0:0,0:0:0:0:
69,340,39121,1,2,1:2:0:0:
69,340,39200,1,8,0:0:0:0:
69,340,39279,1,0,1:2:0:0:
202,269,39437,1,2,1:2:0:0:
14,242,39595,1,8,0:2:0:0:
213,301,39753,1,2,1:2:0:0:
98,40,40068,5,0,1:2:0:0:
137,127,40226,2,0,P|126:168|115:208,1,80.9999975280763,4|0,1:2|0:0,0:0:0:0:
236,110,40542,2,0,P|230:86|221:55,3,40.4999987640381,10|0|0|0,0:2|1:0|1:0|1:0,0:0:0:0:
291,177,40858,1,10,0:2:0:0:
449,83,41174,5,10,0:2:0:0:
449,83,41331,1,8,0:2:0:0:
375,248,41647,1,0,1:2:0:0:
375,248,41726,1,0,1:2:0:0:
375,248,41805,2,0,P|399:319|405:338,1,72,14|0,1:2|0:0,0:0:0:0:
277,384,42121,2,0,P|288:349|300:315,1,72,2|0,1:2|0:2,0:0:0:0:
239,202,42437,5,2,1:2:0:0:
239,202,42595,2,0,P|173:184|99:165,1,144,8|0,0:2|1:2,0:0:0:0:
10,90,43068,2,0,P|52:76|101:62,1,72,10|2,0:2|0:2,0:0:0:0:
158,0,43384,2,0,P|192:10|226:21,1,72,2|2,0:2|0:2,0:0:0:0:
328,136,43700,5,10,0:2:0:0:
328,136,43858,1,8,0:2:0:0:
512,36,44174,1,0,1:2:0:0:
512,36,44253,1,2,1:2:0:0:
512,36,44331,2,0,P|498:78|486:117,1,72,14|0,0:2|1:2,0:0:0:0:
426,173,44647,2,0,P|440:215|452:254,1,72,10|0,0:2|0:0,0:0:0:0:
478,345,44963,5,2,1:2:0:0:
478,345,45121,2,0,P|443:336|400:325,1,72,0|0,1:2|0:0,0:0:0:0:
345,253,45437,2,0,P|270:247|223:308,1,144,8|0,3:0|1:2,0:0:0:0:
136,380,45910,1,10,0:2:0:0:
136,380,46226,6,0,P|123:334|113:296,1,72,6|2,1:2|1:2,0:0:0:0:
49,244,46542,2,0,P|58:209|68:174,1,72,2|0,0:2|1:2,0:0:0:0:
3,104,46858,2,0,B|87:76|87:76|110:103|141:109,1,144,10|2,0:2|0:2,0:0:0:0:
282,41,47331,1,0,1:2:0:0:
282,41,47410,1,8,0:2:0:0:
282,41,47489,5,2,1:2:0:0:
239,128,47647,2,0,P|254:169|286:268,1,144,0|0,1:2|1:2,0:0:0:0:
284,368,48121,2,0,P|319:355|358:339,1,72,8|0,0:2|0:0,0:0:0:0:
443,299,48437,1,2,0:2:0:0:
371,217,48595,1,10,0:2:0:0:
371,217,48674,1,8,0:2:0:0:
371,217,48753,6,0,P|379:169|388:126,1,72,2|0,1:2|0:0,0:0:0:0:
209,167,49068,2,0,P|245:198|278:227,1,72,2|0,0:2|1:2,0:0:0:0:
332,52,49384,2,0,P|286:67|244:82,1,72,10|0,0:2|0:0,0:0:0:0:
140,143,49700,2,0,P|185:158|227:173,1,72,2|0,0:2|1:2,0:0:0:0:
49,63,50016,5,14,0:2:0:0:
101,234,50174,1,0,1:2:0:0:
41,44,50331,1,8,0:2:0:0:
36,291,50647,6,0,P|32:308|16:359,2,48,8|8|8,1:2|0:2|0:0,0:0:0:0:
120,332,50963,2,0,P|124:349|140:400,2,48,0|0|0,1:2|1:2|1:2,0:0:0:0:
200,284,51279,6,0,P|212:232|230:171,2,107.999996704102,6|0|0,1:2|0:0|0:0,0:0:0:0:
310,384,52226,1,0,0:0:0:0:
397,206,52542,6,0,P|412:257|424:310,2,107.999996704102,2|0|0,0:0|0:0|0:0,0:0:0:0:
363,60,53489,1,0,0:0:0:0:
235,204,53805,6,0,P|197:193|147:178,1,72,2|0,1:2|0:0,0:0:0:0:
197,85,54121,2,0,P|231:95|266:105,1,72,0|0,1:0|0:0,0:0:0:0:
382,224,54437,2,0,P|431:261|498:252,1,121.499996292114,8|0,0:0|0:0,0:0:0:0:
512,244,54753,2,0,P|493:180|471:108,1,121.499996292114,0|0,1:0|0:0,0:0:0:0:
468,94,55068,6,0,P|421:106|383:116,1,80.9999975280763,10|0,0:2|1:2,0:0:0:0:
252,173,55384,1,0,1:2:0:0:
269,0,55542,2,0,P|281:47|291:85,1,80.9999975280763,8|2,0:2|1:2,0:0:0:0:
357,223,55858,1,2,1:2:0:0:
357,223,56016,1,2,1:2:0:0:
176,106,56174,6,0,B|165:135|135:158|135:158|168:205|174:274,1,180,6|2,1:2|1:2,0:0:0:0:
275,373,56647,2,0,P|290:317|301:280,1,90,8|2,0:2|0:2,0:0:0:0:
393,136,56963,1,2,1:2:0:0:
449,288,57121,1,0,1:2:0:0:
275,193,57279,1,10,0:2:0:0:
447,57,57437,6,0,B|381:39|381:39|329:65|329:65|255:48,1,180,2|2,1:2|1:2,0:0:0:0:
91,5,57910,2,0,P|105:53|119:100,1,90,8|0,0:2|0:0,0:0:0:0:
172,246,58226,1,0,1:2:0:0:
26,141,58384,1,2,1:2:0:0:
191,235,58542,1,8,0:2:0:0:
20,342,58700,1,2,1:2:0:0:
20,342,58779,1,8,1:2:0:0:
20,342,58858,6,0,P|109:317|178:385,1,180,0|10,1:2|0:2,0:0:0:0:
311,360,59331,2,0,P|298:312|279:252,1,90,2|0,0:2|1:2,0:0:0:0:
217,131,59647,1,2,1:2:0:0:
365,213,59805,1,10,0:2:0:0:
114,195,59963,6,0,P|135:117|159:21,1,180,2|2,1:2|1:2,0:0:0:0:
328,36,60437,2,0,P|344:83|361:134,1,90,8|2,0:2|0:2,0:0:0:0:
303,274,60753,1,2,1:2:0:0:
454,183,60910,1,0,1:2:0:0:
339,366,61068,2,0,P|270:367|219:324,1,135,10|0,0:2|0:0,0:0:0:0:
189,312,61384,6,0,P|171:259|154:203,1,90,6|0,1:2|0:0,0:0:0:0:
192,47,61700,1,10,0:2:0:0:
70,183,61858,1,2,0:2:0:0:
228,153,62016,2,0,P|185:138|142:124,1,90,2|2,1:2|1:2,0:0:0:0:
273,9,62331,1,8,0:2:0:0:
328,173,62489,6,0,B|379:153|424:185|407:201|447:234|507:201,1,180,2|2,1:2|1:2,0:0:0:0:
379,344,62963,2,0,P|359:283|341:228,1,90,8|0,0:2|0:0,0:0:0:0:
245,139,63279,1,0,1:2:0:0:
245,139,63437,1,0,1:2:0:0:
179,282,63595,2,0,P|221:296|264:310,1,90,10|0,0:2|0:0,0:0:0:0:
488,376,63910,5,2,1:2:0:0:
350,258,64068,1,2,0:2:0:0:
511,200,64226,2,0,P|491:247|473:292,1,90,10|2,0:2|0:2,0:0:0:0:
319,161,64542,5,2,1:2:0:0:
491,105,64700,1,0,1:2:0:0:
293,176,64858,1,8,0:2:0:0:
376,3,65016,6,0,P|402:107|423:192,1,180,2|0,1:2|1:2,0:0:0:0:
295,277,65489,1,8,0:2:0:0:
467,339,65647,1,2,0:2:0:0:
266,369,65805,2,0,P|246:363|222:355,3,45,10|0|0|0,0:2|1:2|1:2|1:2,0:0:0:0:
144,300,66121,2,0,P|122:307|101:313,3,45,10|0|0|0,0:2|1:2|1:2|1:2,0:0:0:0:
20,234,66437,6,0,B|59:209|117:240|93:263|145:292|189:265,1,180,6|10,1:2|0:2,0:0:0:0:
362,225,66910,1,2,0:2:0:0:
186,169,67068,1,2,1:2:0:0:
288,310,67226,1,2,1:2:0:0:
335,131,67384,1,10,0:2:0:0:
183,267,67542,6,0,P|104:220|97:127,1,180,2|0,1:2|1:2,0:0:0:0:
192,24,68016,2,0,P|235:36|278:48,1,90,8|2,0:2|0:2,0:0:0:0:
432,158,68331,1,2,1:2:0:0:
261,212,68489,1,2,1:2:0:0:
371,47,68647,1,10,0:2:0:0:
445,258,68805,1,2,1:2:0:0:
445,258,68884,1,8,0:2:0:0:
445,258,68963,6,0,P|367:279|250:320,1,180,0|10,1:2|0:2,0:0:0:0:
68,358,69437,1,2,0:2:0:0:
174,207,69595,1,2,1:2:0:0:
220,384,69753,1,2,1:2:0:0:
66,238,69910,1,10,0:2:0:0:
268,163,70068,6,0,B|319:136|374:131|374:131|386:170|367:203,1,180,2|0,1:2|1:2,0:0:0:0:
327,332,70542,2,0,P|310:279|299:243,1,90,8|2,0:2|0:2,0:0:0:0:
180,182,70858,2,0,P|166:225|152:267,1,90,2|0,1:2|1:2,0:0:0:0:
39,345,71174,1,10,0:2:0:0:
6,181,71331,1,0,1:2:0:0:
6,181,71410,1,8,0:2:0:0:
6,181,71489,6,0,B|2:115|-27:65|-27:65|0:46|17:7,1,180,6|10,1:2|0:2,0:0:0:0:
99,128,71963,1,2,0:2:0:0:
168,0,72121,1,2,1:2:0:0:
198,159,72279,1,2,1:2:0:0:
73,39,72437,1,10,0:2:0:0:
273,30,72595,6,0,P|351:49|483:85,1,180,2|2,1:2|1:2,0:0:0:0:
361,206,73068,2,0,P|318:221|275:234,1,90,8|0,0:2|0:0,0:0:0:0:
92,167,73384,1,0,1:2:0:0:
92,167,73542,1,0,1:2:0:0:
192,324,73700,2,0,P|177:272|164:226,1,90,10|0,0:2|0:0,0:0:0:0:
216,59,74016,5,2,1:2:0:0:
280,212,74174,1,2,0:2:0:0:
117,80,74331,2,0,P|104:123|91:166,1,90,8|2,0:2|0:2,0:0:0:0:
106,344,74647,5,2,1:2:0:0:
195,162,74805,1,0,1:2:0:0:
15,248,74963,1,10,0:2:0:0:
212,331,75121,6,0,B|232:358|268:370|268:370|320:332|381:337,1,180,6|8,1:2|1:3,0:0:0:0:
284,227,75595,2,0,P|277:246|267:280,1,45,8|0,1:3|1:3,0:0:0:0:
374,220,75753,2,0,P|367:198|359:177,1,45,8|0,1:3|1:3,0:0:0:0:
279,127,75910,1,10,0:2:0:0:
279,127,76542,6,0,P|258:205|233:296,1,161.999995056153,6|10,1:2|0:2,0:0:0:0:
155,148,77016,2,0,P|142:112|129:65,1,80.9999975280763,2|0,0:2|1:2,0:0:0:0:
60,219,77332,2,0,P|49:258|35:297,1,80.9999975280763,2|8,1:2|0:2,0:0:0:0:
214,363,77647,6,0,P|170:353|127:340,1,80.9999975280763,6|0,1:2|0:0,0:0:0:0:
276,273,77963,2,0,P|320:263|363:250,1,80.9999975280763,2|8,1:2|0:2,0:0:0:0:
488,161,78279,1,2,1:2:0:0:
311,122,78437,1,0,1:2:0:0:
450,258,78595,1,0,1:2:0:0:
420,94,78753,2,0,P|407:127|387:175,1,80.9999975280763,8|0,0:2|0:0,0:0:0:0:
381,197,78989,1,2,0:0:0:0:
381,197,79068,6,0,P|296:217|206:241,1,161.999995056153,6|10,1:2|0:2,0:0:0:0:
69,124,79542,2,0,P|106:138|157:159,1,80.9999975280763,2|0,1:2|1:2,0:0:0:0:
115,308,79858,2,0,P|100:270|86:232,1,80.9999975280763,2|8,1:2|0:2,0:0:0:0:
181,80,80174,6,0,P|166:117|152:155,1,80.9999975280763,6|0,1:2|0:0,0:0:0:0:
260,6,80489,2,0,P|274:43|288:81,1,80.9999975280763,2|8,1:2|0:2,0:0:0:0:
354,223,80805,1,2,1:2:0:0:
390,79,80963,1,0,1:2:0:0:
260,170,81121,1,0,1:2:0:0:
460,246,81279,2,0,P|445:199|430:153,1,80.9999975280763,8|2,0:2|1:2,0:0:0:0:
465,147,81516,1,10,0:2:0:0:
465,147,81595,6,0,P|483:58|441:0,1,161.999995056153,6|10,1:2|0:2,0:0:0:0:
312,56,82068,2,0,P|352:68|395:80,1,80.9999975280763,2|2,1:2|1:2,0:0:0:0:
273,140,82384,2,0,P|233:152|190:164,1,80.9999975280763,2|8,1:2|0:2,0:0:0:0:
308,269,82700,6,0,B|366:285|366:285|404:266|404:266|472:283,1,161.999995056153,6|2,1:2|1:2,0:0:0:0:
261,358,83174,2,0,P|224:370|185:384,1,80.9999975280763,8|2,0:2|1:2,0:0:0:0:
19,225,83489,1,0,1:2:0:0:
163,285,83647,1,2,1:2:0:0:
46,384,83805,2,0,P|58:345|72:307,1,80.9999975280763,10|0,0:2|0:0,0:0:0:0:
148,146,84121,6,0,B|191:149|243:118|243:118|264:145|309:161,1,161.999995056153,6|10,1:2|0:2,0:0:0:0:
402,43,84595,2,0,P|368:54|313:71,1,80.9999975280763,2|0,1:2|1:2,0:0:0:0:
423,156,84910,2,0,P|457:167|512:184,1,80.9999975280763,2|8,1:2|0:2,0:0:0:0:
366,275,85226,6,0,P|295:295|203:323,1,161.999995056153,6|0,1:2|1:2,0:0:0:0:
57,380,85700,2,0,P|71:334|89:272,1,80.9999975280763,8|2,0:2|0:2,0:0:0:0:
24,189,86016,2,0,P|17:165|9:137,3,40.4999987640381,2|8|10|10,1:2|0:0|0:2|0:2,0:0:0:0:
86,104,86331,2,0,P|92:83|102:56,1,40.4999987640381,10|0,1:2|0:0,0:0:0:0:
43,0,86489,1,14,0:2:0:0:
