osu file format v14

[General]
AudioFilename: audio.mp3
AudioLeadIn: 0
PreviewTime: 56095
Countdown: 0
SampleSet: Soft
StackLeniency: 0.5
Mode: 0
LetterboxInBreaks: 0
WidescreenStoryboard: 1

[Editor]
DistanceSpacing: 1.4
BeatDivisor: 4
GridSize: 32
TimelineZoom: 3.399999

[Metadata]
Title:Wolf
TitleUnicode:ウルフ
Artist:CHiCO with HoneyWorks
ArtistUnicode:CHiCO with HoneyWorks
Creator:PikAqours
Version:Hard
Source:泡恋
Tags:cut version japanese pop jpop short Watashiwo Someru Aino Uta 私を染めるiの歌 j-pop ver edit カヌレとウルフ suyuko NoFC rock jrock j-rock Awa Koi
BeatmapID:2616567
BeatmapSetID:1257977

[Difficulty]
HPDrainRate:4
CircleSize:3.6
OverallDifficulty:6
ApproachRate:8
SliderMultiplier:1.4
SliderTickRate:1

[Events]
//Background and Video events
0,0,"bg.jpg",0,0
//Break Periods
//Storyboard Layer 0 (Background)
//Storyboard Layer 1 (Fail)
//Storyboard Layer 2 (Pass)
//Storyboard Layer 3 (Foreground)
//Storyboard Layer 4 (Overlay)
//Storyboard Sound Samples

[TimingPoints]
753,315.789473684211,4,2,1,60,1,0
753,-125,4,2,1,60,0,0
10700,-100,4,2,1,70,0,0
20963,-117.647058823529,4,2,1,60,0,0
30595,-105.263157894737,4,2,1,60,0,0
30910,-105.263157894737,4,2,1,70,0,0
41174,-117.647058823529,4,2,1,60,0,0
51279,-142.857142857143,4,2,1,50,0,0
53805,-125,4,2,1,50,0,0
55068,-111.111111111111,4,2,1,60,0,0
55700,-111.111111111111,4,2,1,70,0,0
56174,-95.2380952380952,4,2,1,80,0,1
61384,-95.2380952380952,4,2,1,80,0,1
63910,-95.2380952380952,4,2,1,80,0,1
75910,-125,4,2,1,60,0,0
76542,-100,4,2,1,70,0,0
86489,-200,4,2,1,70,0,0

[Colours]
Combo1 : 255,255,0
Combo2 : 128,128,192
Combo3 : 255,128,64
Combo4 : 0,128,128

[HitObjects]
28,57,753,6,0,P|85:52|134:87,1,112,6|2,1:2|0:0,0:0:0:0:
180,147,1226,2,0,P|226:176|281:170,1,112,2|2,0:0|0:0,0:0:0:0:
421,77,1858,2,0,P|404:133|387:203,1,112,2|2,0:0|0:0,0:0:0:0:
327,240,2331,2,0,P|344:296|361:366,1,112,2|0,0:0|0:0,0:0:0:0:
193,306,2963,2,0,P|161:297|125:289,1,56,2|0,0:0|0:0,0:0:0:0:
68,338,3279,6,0,P|61:310|52:280,1,56,10|8,0:2|0:2,0:0:0:0:
6,208,3595,1,2,0:0:0:0:
6,208,3753,2,0,P|25:152|42:97,1,112,2|2,0:0|0:0,0:0:0:0:
182,11,4384,1,0,0:0:0:0:
182,11,4542,2,0,P|191:48|201:84,1,56,10|8,0:2|0:2,0:0:0:0:
249,130,4858,1,2,0:0:0:0:
138,256,5174,2,0,P|174:267|197:275,1,56,10|8,0:2|0:2,0:0:0:0:
239,341,5489,1,2,0:0:0:0:
309,292,5647,1,8,0:2:0:0:
309,292,5726,1,8,0:2:0:0:
309,292,5805,6,0,P|368:297|422:260,1,112,6|2,1:2|1:2,0:0:0:0:
480,221,6279,2,0,P|472:193|463:159,1,56,2|0,0:2|1:2,0:0:0:0:
381,152,6595,2,0,P|388:125|395:98,1,56,2|0,0:2|1:2,0:0:0:0:
447,31,6910,2,0,P|386:66|345:62,1,112,2|2,0:0|0:0,0:0:0:0:
268,29,7384,2,0,B|225:23|225:23|201:36|201:36|151:27,1,112,2|0,1:2|1:2,0:0:0:0:
19,120,8016,1,2,1:2:0:0:
63,203,8174,1,10,0:2:0:0:
63,203,8253,1,8,0:2:0:0:
63,203,8331,6,0,P|97:196|137:187,1,56,6|0,1:2|0:0,0:0:0:0:
197,148,8647,1,2,1:2:0:0:
250,220,8805,2,0,P|277:225|304:231,1,56,2|0,1:2|1:2,0:0:0:0:
361,161,9121,2,0,P|388:155|415:149,1,56,2|0,1:2|1:2,0:0:0:0:
494,193,9437,1,6,1:2:0:0:
494,193,10226,2,0,P|504:160|511:139,2,56,2|2|2,0:2|0:2|0:2,0:0:0:0:
431,269,10700,6,0,P|372:283|290:307,1,140,6|0,1:2|1:2,0:0:0:0:
228,366,11174,1,10,0:2:0:0:
165,301,11331,2,0,P|176:256|187:215,1,70,2|0,0:2|1:2,0:0:0:0:
245,167,11647,2,0,P|234:122|223:81,1,70,2|8,1:2|0:2,0:0:0:0:
153,34,11963,6,0,P|85:27|14:73,1,140,6|2,1:2|1:2,0:0:0:0:
16,151,12437,2,0,P|49:159|83:168,1,70,8|2,0:2|1:2,0:0:0:0:
170,133,12753,1,0,1:2:0:0:
170,133,12910,1,0,1:2:0:0:
227,203,13068,2,0,P|236:237|245:270,1,70,8|0,0:2|0:0,0:0:0:0:
328,323,13384,6,0,P|337:289|364:187,1,140,6|10,1:2|0:2,0:0:0:0:
368,96,13858,2,0,P|334:106|301:116,1,70,2|0,0:2|1:2,0:0:0:0:
234,53,14174,2,0,P|200:42|167:32,1,70,2|8,1:2|0:2,0:0:0:0:
75,67,14489,6,0,B|61:90|40:109|40:109|56:144|67:194,1,140,6|2,1:2|1:2,0:0:0:0:
99,275,14963,2,0,P|139:287|180:297,1,70,8|2,0:2|1:2,0:0:0:0:
244,342,15279,1,0,1:2:0:0:
244,342,15437,1,0,1:2:0:0:
317,288,15595,2,0,P|304:246|293:208,1,70,12|0,0:2|1:2,0:0:0:0:
278,196,15831,1,8,0:2:0:0:
278,196,15910,6,0,P|289:153|299:120,1,70,6|0,1:2|0:0,0:0:0:0:
350,54,16226,1,8,0:2:0:0:
413,119,16384,2,0,P|451:130|483:140,1,70,2|0,0:0|1:2,0:0:0:0:
462,229,16700,2,0,P|424:218|392:208,1,70,2|8,1:2|0:2,0:0:0:0:
315,151,17016,6,0,P|244:146|185:198,1,140,6|2,1:2|1:2,0:0:0:0:
143,263,17489,2,0,P|112:269|67:279,1,70,8|2,0:2|1:2,0:0:0:0:
0,231,17805,1,0,1:2:0:0:
0,231,17963,1,0,1:2:0:0:
63,165,18121,2,0,P|73:132|86:87,1,70,8|0,0:2|1:2,0:0:0:0:
156,32,18437,6,0,B|204:22|250:8|250:8|271:27|302:49,1,140,6|10,1:2|0:2,0:0:0:0:
333,111,18910,2,0,P|322:146|312:177,1,70,2|0,0:2|1:2,0:0:0:0:
241,236,19226,2,0,P|251:269|262:302,1,70,2|8,1:2|0:2,0:0:0:0:
338,364,19542,6,0,P|266:347|180:328,1,140,6|0,1:2|1:2,0:0:0:0:
122,379,20016,2,0,P|112:339|101:301,1,70,12|0,0:2|1:2,0:0:0:0:
42,244,20331,2,0,L|53:196,3,35,2|0|2|0,1:2|1:2|1:2|1:2,0:0:0:0:
91,190,20647,2,0,L|83:155,3,35,10|0|2|0,0:2|1:2|1:2|1:2,0:0:0:0:
102,124,20963,6,0,P|157:93|218:102,1,119.000002269745,6|2,1:2|1:2,0:0:0:0:
277,158,21437,2,0,P|337:172|398:189,1,119.000002269745,2|2,0:2|0:2,0:0:0:0:
479,158,21910,1,0,1:2:0:0:
479,158,22068,2,0,P|483:219|437:277,1,119.000002269745,2|2,0:2|0:2,0:0:0:0:
381,321,22542,2,0,P|319:306|264:293,1,119.000002269745,2|0,1:2|1:2,0:0:0:0:
97,356,23174,2,0,P|87:320|79:286,1,59.5000011348725,2|2,1:2|0:2,0:0:0:0:
23,230,23489,6,0,P|33:194|57:103,1,119.000002269745,2|2,1:2|1:2,0:0:0:0:
24,28,23963,2,0,B|77:21|77:21|101:34|101:34|151:25,1,119.000002269745,2|2,0:2|0:2,0:0:0:0:
229,7,24437,1,2,1:2:0:0:
229,7,24595,2,0,P|294:25|363:46,1,119.000002269745,2|0,0:2|0:0,0:0:0:0:
389,116,25068,2,0,B|367:81|367:81|394:-7,2,119.000002269745,2|2|2,1:2|1:2|1:2,0:0:0:0:
472,274,26016,6,0,P|414:288|357:305,1,119.000002269745,2|2,1:2|1:2,0:0:0:0:
285,359,26489,2,0,P|228:341|170:327,1,119.000002269745,2|2,0:2|0:2,0:0:0:0:
92,368,26963,1,0,1:2:0:0:
92,368,27121,2,0,P|83:305|128:250,1,119.000002269745,2|2,0:2|0:2,0:0:0:0:
179,202,27595,2,0,P|208:151|198:94,1,119.000002269745,2|0,1:2|0:0,0:0:0:0:
355,8,28226,2,0,P|394:18|427:27,1,59.5000011348725,2|2,1:2|0:2,0:0:0:0:
470,91,28542,6,0,P|459:126|433:215,1,119.000002269745,2|2,1:2|1:2,0:0:0:0:
470,293,29016,2,0,P|411:291|361:260,1,119.000002269745,2|2,0:2|0:2,0:0:0:0:
293,201,29489,1,2,1:2:0:0:
274,294,29647,1,6,1:2:0:0:
274,294,30595,2,0,P|239:302|204:312,1,66.4999982242585,2|0,0:2|0:0,0:0:0:0:
110,325,30910,6,0,P|121:281|151:182,1,132.999996448517,6|0,1:2|1:0,0:0:0:0:
123,112,31384,1,10,0:2:0:0:
199,71,31542,2,0,P|235:80|270:90,1,66.4999982242585,2|0,0:2|0:0,0:0:0:0:
327,154,31858,1,2,1:2:0:0:
327,154,32016,1,10,0:2:0:0:
396,102,32174,6,0,B|412:129|430:145|430:145|411:179|399:233,1,132.999996448517,6|0,1:2|0:0,0:0:0:0:
357,291,32647,2,0,L|225:323,1,132.999996448517,10|0,0:2|1:2,0:0:0:0:
158,375,33121,1,0,0:0:0:0:
95,314,33279,2,0,P|104:280|116:232,1,66.4999982242585,10|2,0:2|0:2,0:0:0:0:
168,184,33595,6,0,P|150:117|132:50,1,132.999996448517,6|8,1:2|0:0,0:0:0:0:
205,7,34068,2,0,P|241:20|282:32,1,66.4999982242585,2|0,1:2|1:2,0:0:0:0:
303,107,34384,2,0,P|267:120|226:132,1,66.4999982242585,2|8,1:2|0:2,0:0:0:0:
176,188,34700,6,0,B|146:183|90:158|90:158|77:167|49:182,1,132.999996448517,6|0,1:2|0:0,0:0:0:0:
18,258,35174,2,0,P|28:293|38:333,1,66.4999982242585,10|0,0:2|0:0,0:0:0:0:
103,375,35489,2,0,P|134:365|167:357,1,66.4999982242585,2|0,1:2|1:2,0:0:0:0:
224,290,35805,2,0,P|294:293|331:334,1,99.7499973363877,14|0,0:2|0:0,0:0:0:0:
336,339,36121,6,0,P|351:265|366:202,1,132.999996448517,2|10,1:2|0:0,0:0:0:0:
431,153,36595,2,0,P|420:116|409:75,1,66.4999982242585,2|0,1:2|1:2,0:0:0:0:
351,27,36910,2,0,P|318:18|287:8,1,66.4999982242585,0|10,1:2|0:2,0:0:0:0:
226,70,37226,6,0,P|194:79|92:109,1,132.999996448517,6|2,1:2|1:2,0:0:0:0:
12,122,37700,2,0,P|43:131|146:161,1,132.999996448517,10|0,0:2|1:2,0:0:0:0:
198,223,38174,1,0,0:0:0:0:
129,274,38331,2,0,P|100:280|60:290,1,66.4999982242585,8|2,0:2|0:2,0:0:0:0:
77,374,38647,6,0,P|143:357|224:336,1,132.999996448517,6|8,1:2|0:0,0:0:0:0:
266,278,39121,2,0,P|300:285|348:299,1,66.4999982242585,2|0,1:2|1:2,0:0:0:0:
417,285,39437,2,0,P|406:252|394:203,1,66.4999982242585,2|8,1:2|0:2,0:0:0:0:
321,179,39753,6,0,B|337:124|337:124|330:88|330:88|349:37,1,132.999996448517,2|0,1:2|1:2,0:0:0:0:
417,7,40226,1,4,1:2:0:0:
494,172,40542,1,10,0:2:0:0:
494,172,40621,1,0,1:0:0:0:
494,172,40700,1,0,1:0:0:0:
438,238,40858,2,0,P|404:248|371:260,1,66.4999982242585,10|0,0:2|0:0,0:0:0:0:
306,307,41174,6,0,P|267:295|227:286,1,59.5000011348725,10|8,0:2|0:2,0:0:0:0:
166,275,41489,1,0,0:0:0:0:
105,330,41647,1,0,1:2:0:0:
105,330,41726,1,0,1:2:0:0:
105,330,41805,2,0,P|82:279|104:217,1,119.000002269745,14|2,1:2|1:2,0:0:0:0:
149,154,42279,1,0,0:2:0:0:
221,195,42437,2,0,P|255:184|281:179,1,59.5000011348725,2|8,1:2|0:2,0:0:0:0:
408,75,42910,1,0,1:2:0:0:
346,17,43068,2,0,P|315:25|217:61,1,119.000002269745,10|2,0:2|0:2,0:0:0:0:
66,55,43700,6,0,P|57:87|50:119,1,59.5000011348725,10|8,0:2|0:2,0:0:0:0:
31,193,44016,1,2,0:0:0:0:
91,264,44174,1,0,1:2:0:0:
91,264,44253,1,2,1:2:0:0:
91,264,44331,2,0,P|125:273|162:284,1,59.5000011348725,14|0,0:2|1:2,0:0:0:0:
215,229,44647,2,0,P|243:220|339:195,1,119.000002269745,10|2,0:2|1:2,0:0:0:0:
402,238,45121,1,0,1:2:0:0:
488,95,45437,1,8,3:0:0:0:
343,72,45753,1,0,1:2:0:0:
275,119,45910,2,0,P|241:109|207:101,1,59.5000011348725,10|0,0:2|0:0,0:0:0:0:
137,79,46226,6,0,P|129:47|122:21,2,59.5000011348725,6|2|2,1:2|1:2|0:2,0:0:0:0:
53,224,46858,2,0,P|116:240|186:262,1,119.000002269745,10|2,0:2|0:2,0:0:0:0:
244,309,47331,1,0,1:2:0:0:
244,309,47410,1,8,0:2:0:0:
244,309,47489,2,0,P|254:263|263:226,2,59.5000011348725,2|0|0,1:2|1:2|0:0,0:0:0:0:
405,264,48121,2,0,P|383:202|362:139,1,119.000002269745,8|2,0:2|0:2,0:0:0:0:
306,108,48595,1,10,0:2:0:0:
306,108,48674,1,8,0:2:0:0:
306,108,48753,6,0,L|236:92,2,59.5000011348725,2|0|2,1:2|0:0|0:2,0:0:0:0:
389,252,49384,2,0,P|333:268|260:289,1,119.000002269745,10|2,0:2|0:2,0:0:0:0:
120,350,50016,2,0,P|111:316|103:287,1,59.5000011348725,14|0,0:2|1:2,0:0:0:0:
136,215,50331,2,0,P|144:181|153:152,1,59.5000011348725,8|0,0:2|0:0,0:0:0:0:
209,97,50647,2,0,P|201:66|196:47,2,39.6666674232483,8|8|8,1:2|0:2|0:0,0:0:0:0:
252,129,50963,2,0,P|246:148|242:167,2,39.6666674232483,0|0|0,1:2|1:2|1:2,0:0:0:0:
305,119,51279,6,0,P|351:95|402:101,1,97.9999970092774,6|0,1:2|0:0,0:0:0:0:
432,251,51910,2,0,P|388:223|367:175,1,97.9999970092774
304,326,52542,2,0,P|242:315|191:305,1,97.9999970092774,2|0,0:0|0:0,0:0:0:0:
62,246,53174,2,0,P|124:235|175:225,1,97.9999970092774
291,107,53805,5,2,1:2:0:0:
243,279,54121,1,0,1:0:0:0:
196,105,54437,1,8,0:0:0:0:
367,157,54753,1,0,1:0:0:0:
243,279,55068,6,0,P|210:287|161:301,1,62.9999980773926,10|0,0:2|1:2,0:0:0:0:
113,351,55384,1,0,1:2:0:0:
51,288,55542,2,0,P|44:257|38:226,1,62.9999980773926,8|2,0:2|1:2,0:0:0:0:
74,144,55858,1,2,1:2:0:0:
74,144,56016,1,2,1:2:0:0:
163,194,56174,6,0,B|245:216|227:147|318:174,1,146.999995513916,6|2,1:2|1:2,0:0:0:0:
386,121,56647,1,8,0:2:0:0:
386,121,56805,1,2,0:2:0:0:
320,51,56963,2,0,P|281:60|171:89,1,146.999995513916,2|10,1:2|0:2,0:0:0:0:
98,20,57437,6,0,B|80:38|53:58|53:58|85:112|81:173,1,146.999995513916,2|2,1:2|1:2,0:0:0:0:
117,228,57910,2,0,P|187:249|218:260,1,73.4999977569581,8|0,0:2|0:0,0:0:0:0:
232,334,58226,2,0,P|267:322|302:312,1,73.4999977569581,0|2,1:2|1:2,0:0:0:0:
398,288,58542,1,8,0:2:0:0:
398,288,58700,1,2,1:2:0:0:
460,206,58858,6,0,P|436:124|415:52,1,146.999995513916,0|10,1:2|0:2,0:0:0:0:
339,13,59331,2,0,P|267:30|239:39,1,73.4999977569581,2|0,0:2|1:2,0:0:0:0:
193,90,59647,1,2,1:2:0:0:
193,90,59805,1,10,0:2:0:0:
265,162,59963,6,0,P|254:201|244:234,1,73.4999977569581,2|0,1:2|0:0,0:0:0:0:
152,262,60279,2,0,P|161:297|172:332,1,73.4999977569581,2|8,1:2|0:2,0:0:0:0:
258,375,60595,1,2,0:2:0:0:
336,320,60753,2,0,P|370:329|420:345,1,73.4999977569581,2|0,1:2|1:2,0:0:0:0:
435,249,61068,2,0,P|399:238|364:228,1,73.4999977569581,10|0,0:2|0:0,0:0:0:0:
279,169,61384,6,0,P|271:92|326:24,1,146.999995513916,6|10,1:2|0:2,0:0:0:0:
399,8,61858,1,2,0:2:0:0:
399,8,62016,2,0,P|446:21|499:36,1,73.4999977569581,2|2,1:2|1:2,0:0:0:0:
481,134,62331,1,8,0:2:0:0:
481,134,62489,6,0,P|434:121|331:92,1,146.999995513916,2|2,1:2|1:2,0:0:0:0:
261,32,62963,2,0,P|232:36|176:50,1,73.4999977569581,8|0,0:2|0:0,0:0:0:0:
107,5,63279,1,0,1:2:0:0:
107,5,63437,1,0,1:2:0:0:
32,64,63595,2,0,P|41:97|51:136,1,73.4999977569581,10|0,0:2|0:0,0:0:0:0:
119,208,63910,5,2,1:2:0:0:
119,208,64068,1,2,0:2:0:0:
64,286,64226,2,0,P|99:295|135:304,1,73.4999977569581,10|2,0:2|0:2,0:0:0:0:
207,367,64542,2,0,P|242:358|278:348,1,73.4999977569581,2|0,1:2|1:2,0:0:0:0:
380,368,64858,1,8,0:2:0:0:
445,288,65016,6,0,B|469:243|469:243|421:134,1,146.999995513916,2|0,1:2|1:2,0:0:0:0:
373,77,65489,1,8,0:2:0:0:
304,143,65647,1,2,0:2:0:0:
304,143,65805,2,0,L|255:157,3,36.749998878479,10|0|0|0,0:2|1:2|1:2|1:2,0:0:0:0:
301,184,66121,2,0,L|336:194,3,36.749998878479,10|0|0|0,0:2|1:2|1:2|1:2,0:0:0:0:
301,229,66437,6,0,P|230:246|158:266,1,146.999995513916,6|10,1:2|0:2,0:0:0:0:
84,326,66910,1,2,0:2:0:0:
36,242,67068,2,0,P|47:200|61:155,1,73.4999977569581,2|2,1:2|1:2,0:0:0:0:
109,91,67384,1,10,0:2:0:0:
175,169,67542,6,0,B|258:190|235:120|320:146,1,146.999995513916,2|0,1:2|1:2,0:0:0:0:
392,198,68016,2,0,P|400:234|413:294,1,73.4999977569581,8|2,0:2|0:2,0:0:0:0:
363,354,68331,1,2,1:2:0:0:
363,354,68489,1,2,1:2:0:0:
290,291,68647,1,10,0:2:0:0:
219,365,68805,6,0,B|162:370|162:370|129:344|129:344|72:350,1,146.999995513916,2|0,1:2|0:0,0:0:0:0:
25,268,69279,1,10,0:2:0:0:
25,268,69437,1,2,0:2:0:0:
84,193,69595,2,0,P|118:201|165:211,1,73.4999977569581,2|2,1:2|1:2,0:0:0:0:
226,144,69910,1,10,0:2:0:0:
312,200,70068,6,0,P|327:134|280:63,1,146.999995513916,2|0,1:2|1:2,0:0:0:0:
207,5,70542,2,0,P|161:18|129:26,1,73.4999977569581,8|2,0:2|0:2,0:0:0:0:
72,96,70858,2,0,P|60:131|47:177,1,73.4999977569581,2|0,1:2|1:2,0:0:0:0:
9,253,71174,2,0,P|17:275|26:299,3,36.749998878479,10|8|8|8,0:2|0:0|1:2|0:2,0:0:0:0:
57,255,71489,6,0,P|130:277|202:299,1,146.999995513916,6|10,1:2|0:2,0:0:0:0:
273,364,71963,1,2,0:2:0:0:
273,364,72121,2,0,P|283:323|291:292,1,73.4999977569581,2|2,1:2|1:2,0:0:0:0:
368,236,72437,1,10,0:2:0:0:
307,152,72595,6,0,P|266:95|290:12,1,146.999995513916,2|2,1:2|1:2,0:0:0:0:
374,7,73068,2,0,P|413:18|458:29,1,73.4999977569581,8|0,0:2|0:0,0:0:0:0:
505,107,73384,1,0,1:2:0:0:
505,107,73542,1,0,1:2:0:0:
442,178,73700,2,0,P|452:210|467:258,1,73.4999977569581,10|0,0:2|0:0,0:0:0:0:
437,351,74016,5,2,1:2:0:0:
437,351,74174,1,2,0:2:0:0:
364,289,74331,2,0,P|329:300|294:312,1,73.4999977569581,8|2,0:2|0:2,0:0:0:0:
222,375,74647,2,0,P|187:362|152:351,1,73.4999977569581,2|0,1:2|1:2,0:0:0:0:
121,264,74963,1,10,0:2:0:0:
51,339,75121,6,0,B|43:294|19:249|19:249|43:223|59:193,1,146.999995513916,6|8,1:2|1:3,0:0:0:0:
112,141,75595,2,0,P|131:146|152:153,3,36.749998878479,8|0|8|0,1:3|1:3|1:3|1:3,0:0:0:0:
90,106,75910,1,10,0:2:0:0:
90,106,76542,6,0,P|81:140|54:242,1,140,6|10,1:2|0:2,0:0:0:0:
105,317,77016,2,0,P|139:307|172:297,1,70,2|0,0:2|1:2,0:0:0:0:
244,352,77332,2,0,P|278:363|311:373,1,70,2|8,1:2|0:2,0:0:0:0:
399,330,77647,6,0,B|413:307|434:288|434:288|418:253|407:203,1,140,6|2,1:2|1:2,0:0:0:0:
408,115,78121,2,0,P|374:123|340:133,1,70,8|2,0:2|1:2,0:0:0:0:
281,71,78437,1,0,1:2:0:0:
281,71,78595,1,0,1:2:0:0:
200,113,78753,2,0,P|189:146|179:179,1,70,8|0,0:2|0:0,0:0:0:0:
150,214,78989,1,2,0:0:0:0:
150,214,79068,6,0,P|161:257|171:290,1,70,6|0,1:2|0:0,0:0:0:0:
216,359,79384,1,10,0:2:0:0:
283,297,79542,2,0,P|316:307|350:317,1,70,2|0,1:2|1:2,0:0:0:0:
424,370,79858,2,0,P|433:330|441:295,1,70,2|8,1:2|0:2,0:0:0:0:
383,220,80174,6,0,B|373:172|359:136|359:136|378:105|400:74,1,140,6|2,1:2|1:2,0:0:0:0:
332,19,80647,2,0,P|294:30|255:41,1,70,8|2,0:2|1:2,0:0:0:0:
195,95,80963,1,0,1:2:0:0:
195,95,81121,1,0,1:2:0:0:
114,51,81279,2,0,P|80:58|44:69,1,70,8|2,0:2|1:2,0:0:0:0:
25,100,81516,1,10,0:2:0:0:
25,100,81595,6,0,P|15:166|60:245,1,140,6|10,1:2|0:2,0:0:0:0:
97,304,82068,2,0,P|132:293|175:281,1,70,2|2,1:2|1:2,0:0:0:0:
235,226,82384,2,0,P|268:235|302:246,1,70,2|8,1:2|0:2,0:0:0:0:
337,338,82700,6,0,P|405:322|473:308,1,140,6|2,1:2|1:2,0:0:0:0:
502,221,83174,2,0,P|493:185|482:142,1,70,8|2,0:2|1:2,0:0:0:0:
443,77,83489,1,0,1:2:0:0:
443,77,83647,1,2,1:2:0:0:
371,133,83805,2,0,P|333:122|281:108,1,70,10|0,0:2|0:0,0:0:0:0:
224,54,84121,6,0,P|151:47|84:103,1,140,6|10,1:2|0:2,0:0:0:0:
58,164,84595,2,0,P|68:203|78:246,1,70,2|0,1:2|1:2,0:0:0:0:
161,204,84910,2,0,P|169:169|177:136,1,70,2|8,1:2|0:2,0:0:0:0:
257,192,85226,5,6,1:2:0:0:
401,304,85542,1,0,1:2:0:0:
317,355,85700,2,0,P|276:343|240:334,1,70,8|2,0:2|0:2,0:0:0:0:
167,281,86016,2,0,L|152:229,3,35,2|8|10|10,1:2|0:0|0:2|0:2,0:0:0:0:
154,313,86331,1,10,0:0:0:0:
87,376,86489,1,14,0:2:0:0:
