osu file format v14

[General]
AudioFilename: audio.mp3
AudioLeadIn: 0
PreviewTime: 54954
Countdown: 0
SampleSet: Soft
StackLeniency: 0.7
Mode: 0
LetterboxInBreaks: 0
WidescreenStoryboard: 1

[Editor]
DistanceSpacing: 1
BeatDivisor: 4
GridSize: 4
TimelineZoom: 1

[Metadata]
Title:Wolf
TitleUnicode:ウルフ
Artist:CHiCO with HoneyWorks
ArtistUnicode:CHiCO with HoneyWorks
Creator:CoLouRed GlaZeE
Version:Normal
Source:泡恋
Tags:japanese pop jpop rock jrock yoko delis smm shirohamymommy luscent djulus watashiwo someru aino uta 私を染めるiの歌 カヌレとウルフ full version
BeatmapID:2322585
BeatmapSetID:1111621

[Difficulty]
HPDrainRate:4
CircleSize:3
OverallDifficulty:4
ApproachRate:6
SliderMultiplier:1
SliderTickRate:1

[Events]
//Background and Video events
0,0,"bg.jpg",0,0
//Break Periods
2,21049,24852
2,41260,45062
2,76627,85483
2,106944,110747
2,142312,151168
2,163586,166112
//Storyboard Layer 0 (Background)
//Storyboard Layer 1 (Fail)
//Storyboard Layer 2 (Pass)
//Storyboard Layer 3 (Foreground)
//Storyboard Layer 4 (Overlay)
//Storyboard Sound Samples

[TimingPoints]
-624,315.789473684211,4,2,0,80,1,0
10586,-100,4,2,0,90,0,0
20928,-100,4,2,0,80,0,0
30797,-100,4,2,0,90,0,0
41060,-100,4,2,0,80,0,0
46112,-100,4,2,0,90,0,0
56060,-100,4,2,0,100,0,1
75954,-100,4,2,0,90,0,1
76428,-100,4,2,0,90,0,0
86218,-100,4,2,0,80,0,0
91586,-100,4,2,0,90,0,0
106744,-100,4,2,0,80,0,0
111797,-100,4,2,0,90,0,0
116770,-100,4,2,0,90,0,0
121744,-100,4,2,0,100,0,1
142112,-100,4,2,0,90,0,0
167376,-100,4,2,0,80,0,0
172428,-100,4,2,0,90,0,0
177323,-100,4,2,0,100,0,1
197691,-100,4,2,0,90,0,0
203849,-100,4,2,0,100,0,0
205270,-100,4,2,0,90,0,0

[Colours]
Combo1 : 214,137,233
Combo2 : 206,222,201
Combo3 : 186,187,243
Combo4 : 160,235,120

[HitObjects]
82,247,323,5,0,0:0:0:0:
172,289,639,2,0,P|222:296|280:296,1,100,4|0,0:0|0:0,0:0:0:0:
271,296,1112,2,0,L|296:196,2,100,0|0|0,0:0|0:0|0:0,0:0:0:0:
352,356,2060,1,2,0:0:0:0:
352,356,2218,2,0,L|401:154,1,200,0|0,0:0|0:0,0:0:0:0:
453,77,3165,6,0,P|399:46|345:50,1,100,0|0,3:0|0:0,0:0:0:0:
362,45,3639,2,0,L|252:63,1,100,0|0,3:0|0:0,0:0:0:0:
167,34,4270,2,0,P|139:97|168:171,1,150,0|0,3:0|0:0,0:0:0:0:
257,210,5060,1,0,3:0:0:0:
352,178,5376,1,0,0:0:0:0:
446,209,5691,6,0,P|460:272|444:326,1,100,0|0,1:0|1:0,0:0:0:0:
425,348,6165,1,0,1:0:0:0:
333,307,6481,1,0,1:0:0:0:
247,358,6797,2,0,L|147:348,1,100,0|0,1:0|1:0,0:0:0:0:
120,305,7270,2,0,P|102:234|115:197,1,100,0|0,1:0|1:0,0:0:0:0:
174,134,7902,2,0,L|155:68,2,50,0|0|0,1:0|1:0|1:0,0:0:0:0:
275,162,8533,1,0,1:0:0:0:
275,162,8691,2,0,L|374:182,2,100,0|0|0,1:0|1:0|1:0,0:0:0:0:
51,63,10586,6,0,P|33:125|47:169,1,100,4|0,1:2|3:0,0:0:0:0:
73,196,11060,1,0,1:0:0:0:
169,221,11376,1,0,3:0:0:0:
223,304,11691,1,0,1:0:0:0:
223,304,11849,2,0,P|296:323|343:326,1,100,0|0,1:0|3:0,0:0:0:0:
361,295,12323,2,0,L|476:277,1,100,0|0,1:0|3:0,0:0:0:0:
509,192,12954,1,0,1:0:0:0:
479,96,13270,5,4,1:2:0:0:
396,38,13586,2,0,P|379:94|388:142,1,100,0|0,1:0|3:0,0:0:0:0:
431,229,14218,1,0,1:0:0:0:
431,229,14376,2,0,P|360:252|319:249,1,100,0|0,1:0|3:0,0:0:0:0:
293,224,14849,2,0,L|276:115,1,100,0|0,1:0|3:0,0:0:0:0:
217,44,15481,1,0,1:0:0:0:
127,88,15797,5,4,1:2:0:0:
27,89,16112,1,0,1:0:0:0:
51,186,16428,1,0,3:0:0:0:
155,192,16744,1,0,1:0:0:0:
155,192,16902,2,0,P|165:241|161:295,1,100,0|0,1:0|3:0,0:0:0:0:
136,334,17376,2,0,L|243:345,1,100,0|0,1:0|3:0,0:0:0:0:
318,288,18007,1,0,1:0:0:0:
278,195,18323,5,4,1:2:0:0:
356,133,18639,1,0,1:0:0:0:
271,80,18954,2,0,L|288:30,2,50,0|0|0,3:0|3:0|1:0,0:0:0:0:
226,103,19428,2,0,P|166:109|92:59,1,150,0|0,1:0|1:0,0:0:0:0:
8,114,20218,1,0,3:0:0:0:
38,209,20533,1,0,1:0:0:0:
136,224,20849,1,6,1:2:0:0:
323,264,25902,6,0,L|339:155,1,100,2|0,3:2|3:0,0:0:0:0:
337,165,26376,1,0,3:0:0:0:
351,66,26691,1,0,3:0:0:0:
260,108,27007,2,0,P|204:112|153:103,1,100,2|0,3:2|3:0,0:0:0:0:
160,105,27481,2,0,P|96:96|57:97,2,100,0|0|0,3:0|3:0|3:0,0:0:0:0:
217,187,28428,5,2,3:2:0:0:
304,138,28744,1,0,3:0:0:0:
304,138,28902,2,0,L|407:159,1,100,0|0,3:0|0:0,0:0:0:0:
449,137,29376,1,0,3:0:0:0:
449,137,29533,1,0,1:0:0:0:
229,342,30481,2,0,L|179:349,1,50,0|0,3:0|3:0,0:0:0:0:
140,316,30797,6,0,P|126:259|139:202,1,100,4|0,1:2|3:0,0:0:0:0:
154,174,31270,1,0,1:0:0:0:
235,116,31586,2,0,L|211:56,2,50,0|0|0,3:0|3:0|1:0,0:0:0:0:
277,142,32060,2,0,P|323:157|384:160,1,100,0|0,1:0|3:0,0:0:0:0:
422,146,32533,1,0,1:0:0:0:
486,222,32849,2,0,P|424:248|382:258,1,100,0|0,3:0|1:0,0:0:0:0:
291,257,33481,5,4,0:0:0:0:
192,237,33797,1,0,1:0:0:0:
192,237,33954,2,0,P|129:241|78:254,1,100,0|0,3:0|3:0,0:0:0:0:
16,184,34586,2,0,L|46:20,1,150,0|0,1:0|1:0,0:0:0:0:
136,72,35376,1,0,3:0:0:0:
228,34,35691,1,0,1:0:0:0:
318,76,36007,6,0,L|428:59,1,100,4|0,1:2|1:0,0:0:0:0:
466,51,36481,2,0,P|478:106|466:162,1,100,0|0,0:0|3:0,0:0:0:0:
418,233,37112,1,0,1:0:0:0:
342,176,37428,1,0,3:0:0:0:
342,176,37586,2,0,P|269:151|234:150,1,100,0|0,1:0|3:0,0:0:0:0:
146,158,38218,1,0,1:0:0:0:
135,257,38533,5,4,0:0:0:0:
217,323,38849,1,0,1:0:0:0:
217,323,39007,2,0,P|280:344|316:347,1,100,0|0,3:0|3:0,0:0:0:0:
394,287,39639,2,0,L|426:135,1,150,0|0,1:0|1:0,0:0:0:0:
447,42,40428,1,0,3:0:0:0:
347,28,40744,1,0,1:0:0:0:
319,124,41060,1,0,1:0:0:0:
336,239,46112,6,0,L|316:70,1,150,0|0,3:0|3:0,0:0:0:0:
318,90,46744,2,0,L|149:110,1,150,0|0,1:0|3:0,0:0:0:0:
169,107,47376,1,0,3:0:0:0:
70,123,47691,1,0,3:0:0:0:
81,222,48007,2,0,L|92:321,1,100,0|0,1:0|3:0,0:0:0:0:
187,288,48639,6,0,P|242:327|333:334,1,150,0|0,3:0|3:0,0:0:0:0:
322,336,49270,2,0,P|361:281|368:190,1,150,0|0,1:0|3:0,0:0:0:0:
359,151,49902,1,4,1:2:0:0:
282,86,50218,1,0,1:0:0:0:
183,99,50533,2,0,P|124:113|82:132,1,100,0|0,3:0|1:0,0:0:0:0:
18,200,51165,6,0,L|36:318,1,100,2|0,3:2|3:0,0:0:0:0:
130,321,51797,2,0,L|114:222,1,100,0|0,3:0|3:0,0:0:0:0:
213,239,52428,2,0,L|311:254,1,100,2|2,3:0|3:0,0:0:0:0:
290,157,53060,2,0,L|191:141,1,100,2|2,3:0|3:0,0:0:0:0:
160,46,53691,5,4,1:3:0:0:
258,62,54007,1,4,1:3:0:0:
356,79,54323,1,4,1:3:0:0:
454,96,54639,1,4,1:3:0:0:
471,194,54954,2,0,L|322:170,2,150,0|0|2,1:0|1:0|3:2,0:0:0:0:
499,235,56060,5,4,1:2:0:0:
466,332,56376,1,0,3:0:0:0:
466,332,56533,2,0,P|437:348|399:350,1,50,0|0,1:0|3:0,0:0:0:0:
370,349,56849,2,0,P|345:304|348:242,1,100,4|0,1:2|1:0,0:0:0:0:
354,207,57323,1,4,1:2:0:0:
265,161,57639,2,0,P|284:94|354:39,1,150,0|0,1:0|3:0,0:0:0:0:
441,62,58428,1,0,1:0:0:0:
497,145,58744,6,0,L|482:245,1,100,4|0,1:2|1:0,0:0:0:0:
404,307,59376,1,0,3:0:0:0:
334,243,59691,1,0,1:0:0:0:
334,243,59849,1,4,1:2:0:0:
304,146,60165,2,0,P|255:116|192:110,1,100,0|0,3:0|3:0,0:0:0:0:
163,106,60639,1,0,3:0:0:0:
69,140,60954,1,0,1:0:0:0:
13,223,61270,1,4,1:2:0:0:
26,322,61586,6,0,L|137:343,1,100,0|0,1:2|3:0,0:0:0:0:
174,337,62060,2,0,L|229:330,1,50,0|0,3:0|1:2,0:0:0:0:
273,322,62376,1,4,1:2:0:0:
374,349,62691,1,0,3:0:0:0:
374,349,62849,2,0,L|389:240,1,100,0|0,1:2|3:0,0:0:0:0:
402,150,63481,1,0,1:2:0:0:
354,61,63797,5,4,1:2:0:0:
279,127,64112,2,0,P|218:130|174:128,1,100,0|0,1:2|3:0,0:0:0:0:
88,99,64744,1,0,1:2:0:0:
88,99,64902,2,0,L|97:203,1,100,4|0,1:2|3:0,0:0:0:0:
102,248,65376,1,0,1:2:0:0:
198,223,65691,2,0,P|246:258|287:273,1,100,0|0,1:0|1:0,0:0:0:0:
381,249,66323,5,4,1:2:0:0:
461,188,66639,2,0,L|512:205,2,50,4|2|0,1:2|0:0|3:0,0:0:0:0:
409,109,67270,1,0,1:2:0:0:
409,109,67428,2,0,P|354:76|314:65,1,100,2|0,3:2|3:0,0:0:0:0:
270,58,67902,1,0,1:2:0:0:
171,77,68218,2,0,P|169:114|176:135,1,50,0|2,3:0|3:2,0:0:0:0:
191,172,68533,1,0,1:2:0:0:
290,185,68849,5,4,1:2:0:0:
379,252,69165,1,0,1:2:0:0:
379,252,69323,1,2,0:0:0:0:
379,252,69481,1,4,1:2:0:0:
325,338,69797,1,0,1:2:0:0:
325,338,69954,2,0,L|211:352,1,100,4|0,1:2|3:0,0:0:0:0:
183,322,70428,1,0,1:2:0:0:
198,223,70744,2,0,P|153:201|98:181,1,100,0|0,3:0|1:2,0:0:0:0:
164,101,71376,6,0,P|214:84|275:83,1,100,4|0,1:2|1:2,0:0:0:0:
358,101,72007,1,0,3:0:0:0:
431,168,72323,1,0,1:2:0:0:
431,168,72481,2,0,L|425:276,1,100,4|0,1:2|3:0,0:0:0:0:
381,291,72954,2,0,P|309:300|278:299,1,100,0|0,1:2|3:0,0:0:0:0:
192,252,73586,1,0,1:2:0:0:
257,176,73902,6,0,L|273:74,1,100,4|0,1:2|1:2,0:0:0:0:
183,30,74533,2,0,L|75:57,1,100,0|0,3:0|1:2,0:0:0:0:
36,44,75007,2,0,L|20:199,1,150,4|4,1:2|1:3,0:0:0:0:
98,265,75797,1,4,1:2:0:0:
98,265,75954,2,0,L|249:277,1,150,0|4,3:0|1:2,0:0:0:0:
190,119,86533,6,0,L|311:138,1,100,4|0,1:2|1:0,0:0:0:0:
332,110,87007,2,0,P|390:96|443:96,1,100,0|0,3:0|3:0,0:0:0:0:
510,154,87639,1,0,3:0:0:0:
444,229,87954,1,0,3:0:0:0:
444,229,88112,2,0,P|369:275|336:333,1,150,0|0,1:0|3:0,0:0:0:0:
326,375,88744,1,0,1:0:0:0:
227,358,89060,5,0,3:0:0:0:
253,264,89376,1,0,1:0:0:0:
253,264,89533,2,0,L|231:160,1,100,0|0,3:0|3:0,0:0:0:0:
283,79,90165,2,0,P|222:51|129:59,1,150,0|0,3:0|1:0,0:0:0:0:
47,90,90954,1,0,3:0:0:0:
84,182,91270,1,0,1:0:0:0:
183,174,91586,5,0,1:0:0:0:
285,157,91902,1,0,1:0:0:0:
285,157,92060,2,0,P|338:129|364:96,1,100,0|0,3:0|1:0,0:0:0:0:
442,37,92691,2,0,L|459:154,1,100,0|0,1:0|1:0,0:0:0:0:
497,165,93165,2,0,L|471:263,1,100,0|0,1:0|1:0,0:0:0:0:
385,313,93797,1,0,1:0:0:0:
308,248,94112,6,0,P|250:250|207:271,1,100,0|0,1:0|1:0,0:0:0:0:
170,294,94586,1,0,3:0:0:0:
112,211,94902,1,0,1:0:0:0:
173,132,95218,1,4,1:2:0:0:
457,38,96165,2,0,L|470:97,1,50,0|0,3:0|3:0,0:0:0:0:
475,136,96481,6,0,P|424:133|363:102,1,100,4|0,1:2|3:0,0:0:0:0:
355,70,96954,2,0,P|331:55|300:49,1,50,0|0,1:0|0:0,0:0:0:0:
210,35,97428,1,0,3:0:0:0:
113,61,97744,2,0,L|133:161,1,100,0|0,1:0|3:0,0:0:0:0:
148,206,98218,2,0,L|31:178,2,100,0|0|0,1:0|3:0|1:0,0:0:0:0:
235,157,99165,5,4,0:0:0:0:
336,185,99481,1,0,1:0:0:0:
336,185,99639,2,0,P|350:262|340:298,1,100,0|0,0:0|3:0,0:0:0:0:
444,299,100270,2,0,P|456:240|424:134,1,150,0|0,1:0|1:0,0:0:0:0:
370,77,101060,1,0,3:0:0:0:
273,49,101376,1,0,1:0:0:0:
174,66,101691,5,4,1:2:0:0:
88,114,102007,1,0,1:0:0:0:
88,114,102165,2,0,P|43:92|8:42,2,100,0|0|0,0:0|3:0|1:0,0:0:0:0:
184,157,103112,1,0,3:0:0:0:
184,157,103270,2,0,L|196:258,1,100,0|0,1:0|3:0,0:0:0:0:
290,288,103902,1,0,1:0:0:0:
369,227,104218,6,0,P|429:184|462:169,1,100,4|0,0:0|1:0,0:0:0:0:
501,162,104691,1,0,3:0:0:0:
496,62,105007,1,0,3:0:0:0:
401,29,105323,2,0,P|351:62|251:45,1,150,0|0,1:0|1:0,0:0:0:0:
167,29,106112,1,0,3:0:0:0:
181,127,106428,1,0,1:0:0:0:
86,95,106744,1,0,1:0:0:0:
300,114,111797,6,0,L|188:134,1,100,0|0,3:0|3:0,0:0:0:0:
102,148,112428,2,0,P|100:200|117:252,1,100,0|0,1:0|3:0,0:0:0:0:
150,280,112902,1,0,3:0:0:0:
150,280,113060,2,0,P|228:304|346:250,1,200,0|0,3:0|1:0,0:0:0:0:
379,172,114007,1,0,3:0:0:0:
353,75,114323,6,0,P|313:41|269:27,1,100,0|0,3:0|3:0,0:0:0:0:
168,30,114954,1,0,1:0:0:0:
78,73,115270,1,0,3:0:0:0:
32,161,115586,2,0,L|82:354,1,200,0|0,1:0|3:0,0:0:0:0:
278,317,116849,6,0,L|385:336,1,100,2|0,3:2|3:0,0:0:0:0:
381,234,117481,2,0,L|488:253,1,100,0|0,3:0|3:0,0:0:0:0:
470,151,118112,2,0,L|454:50,1,100,2|2,3:0|3:0,0:0:0:0:
367,102,118744,2,0,L|351:1,1,100,2|2,3:0|3:0,0:0:0:0:
257,39,119376,5,4,1:3:0:0:
239,137,119691,1,4,1:3:0:0:
221,235,120007,1,4,1:3:0:0:
203,333,120323,1,4,1:3:0:0:
302,323,120639,2,0,P|357:348|416:357,2,100,0|0|2,1:0|1:0|3:2,0:0:0:0:
275,231,121586,5,2,3:2:0:0:
275,231,121744,1,4,1:2:0:0:
317,142,122060,1,0,3:0:0:0:
317,142,122218,2,0,L|371:161,1,50,0|0,1:0|3:0,0:0:0:0:
412,175,122533,2,0,L|393:58,1,100,4|0,1:2|1:0,0:0:0:0:
386,26,123007,1,4,1:2:0:0:
285,34,123323,2,0,P|209:40|136:92,1,150,0|0,1:0|3:0,0:0:0:0:
102,167,124112,1,0,1:0:0:0:
126,264,124428,1,4,1:2:0:0:
209,319,124744,6,0,L|313:350,1,100,0|0,1:0|3:0,0:0:0:0:
377,278,125376,1,0,1:0:0:0:
377,278,125533,2,0,L|429:369,1,100,4|0,1:2|3:0,0:0:0:0:
504,301,126165,1,0,3:0:0:0:
504,301,126323,2,0,P|507:245|499:193,1,100,0|0,3:0|1:0,0:0:0:0:
478,104,126954,5,4,1:2:0:0:
396,46,127270,1,0,1:2:0:0:
314,104,127586,1,0,3:0:0:0:
314,104,127744,2,0,L|263:115,1,50,0|0,3:0|1:2,0:0:0:0:
216,103,128060,2,0,P|205:164|217:212,1,100,4|0,1:2|3:0,0:0:0:0:
242,240,128533,1,0,1:2:0:0:
224,338,128849,2,0,P|164:363|123:362,1,100,0|0,3:0|1:2,0:0:0:0:
49,303,129481,5,4,1:2:0:0:
93,213,129797,1,0,1:2:0:0:
37,130,130112,1,0,3:0:0:0:
107,58,130428,1,0,1:2:0:0:
107,58,130586,2,0,P|171:104|246:92,1,150,4|0,1:2|1:2,0:0:0:0:
320,39,131376,2,0,P|368:56|425:59,1,100,0|0,3:0|1:0,0:0:0:0:
503,108,132007,5,4,1:2:0:0:
470,202,132323,2,0,L|488:255,2,50,4|2|0,1:2|3:2|3:0,0:0:0:0:
380,169,132954,1,0,1:2:0:0:
380,169,133112,2,0,P|334:149|264:143,1,100,2|0,3:2|3:0,0:0:0:0:
234,144,133586,1,0,1:2:0:0:
199,238,133902,2,0,P|161:229|149:229,1,50,0|2,3:0|3:2,0:0:0:0:
100,233,134218,1,0,1:2:0:0:
23,296,134533,5,4,1:2:0:0:
111,364,134849,1,0,1:2:0:0:
111,364,135007,1,2,0:0:0:0:
111,364,135165,1,4,1:2:0:0:
204,324,135481,1,0,1:2:0:0:
204,324,135639,2,0,P|253:317|305:296,1,100,4|0,1:2|3:0,0:0:0:0:
337,266,136112,1,0,1:2:0:0:
435,284,136428,2,0,P|453:227|455:187,1,100,0|0,3:0|1:2,0:0:0:0:
432,89,137060,6,0,L|336:116,1,100,4|0,1:2|1:2,0:0:0:0:
260,50,137691,1,0,3:0:0:0:
177,104,138007,1,0,1:2:0:0:
177,104,138165,2,0,L|191:206,1,100,4|0,1:2|3:0,0:0:0:0:
214,247,138639,2,0,P|147:267|117:270,1,100,0|0,1:2|3:0,0:0:0:0:
39,207,139270,5,0,1:2:0:0:
26,107,139586,1,4,1:2:0:0:
100,40,139902,2,0,P|151:30|211:29,1,100,0|0,1:2|3:0,0:0:0:0:
205,128,140533,1,0,1:2:0:0:
205,128,140691,2,0,P|298:115|371:116,1,150,4|0,1:2|1:2,0:0:0:0:
444,157,141481,1,4,1:2:0:0:
471,253,141797,1,0,1:2:0:0:
441,348,142112,1,4,1:2:0:0:
195,275,152218,6,0,L|297:290,2,100,4|4|0,1:2|1:2|3:0,0:0:0:0:
135,194,153165,1,2,1:0:0:0:
135,194,153323,2,2,L|123:81,1,100,2|2,3:1|3:1,0:1:0:0:
146,49,153797,2,0,P|199:36|257:35,1,100,2|0,1:0|3:0,0:0:0:0:
341,59,154428,1,2,1:0:0:0:
389,146,154744,5,4,3:2:0:0:
313,211,155060,2,0,L|338:329,1,100,2|2,1:0|3:1,0:0:0:0:
242,349,155691,1,2,1:0:0:0:
242,349,155849,2,0,P|188:359|129:356,1,100,2|2,3:1|3:1,0:0:0:0:
94,344,156323,1,0,1:2:0:0:
99,244,156639,2,0,P|155:233|206:234,1,100,2|0,3:1|1:0,0:0:0:0:
296,248,157270,5,4,1:2:0:0:
366,176,157586,1,2,1:0:0:0:
353,76,157902,1,2,3:1:0:0:
259,102,158218,1,0,1:2:0:0:
259,102,158376,2,0,P|193:114|116:81,1,150,2|2,3:1|1:0,0:0:0:0:
28,38,159165,1,2,3:1:0:0:
16,137,159481,2,0,L|39:244,1,100,2|4,1:0|3:2,0:0:0:0:
124,294,160112,5,2,1:0:0:0:
124,294,160270,2,0,L|279:314,1,150,2|2,0:1|1:0,0:0:0:0:
322,317,160902,2,0,P|379:272|387:91,1,250,2|0,3:1|3:0,0:0:0:0:
324,35,162007,1,0,3:0:0:0:
224,30,162323,1,4,3:2:0:0:
240,287,167376,5,0,3:0:0:0:
439,272,168007,1,0,1:0:0:0:
360,87,168639,2,0,P|413:83|476:65,2,100,0|0|0,3:0|3:0|1:0,0:0:0:0:
166,35,169902,1,0,3:0:0:0:
28,180,170533,1,0,1:0:0:0:
213,255,171165,2,0,P|220:309|219:365,2,100,0|0|0,3:0|1:0|1:0,0:0:0:0:
181,159,172112,1,0,3:0:0:0:
125,75,172428,6,0,L|218:30,1,100,2|0,3:2|3:0,0:0:0:0:
302,79,173060,2,0,L|395:34,1,100,0|0,3:0|3:0,0:0:0:0:
482,77,173691,2,0,L|508:177,1,100,2|2,3:0|3:0,0:0:0:0:
443,251,174323,2,0,L|469:351,1,100,2|2,3:0|3:0,0:0:0:0:
372,378,174954,5,4,1:3:0:0:
341,282,175270,1,4,1:3:0:0:
310,186,175586,1,4,1:3:0:0:
280,90,175902,1,4,1:3:0:0:
197,145,176218,2,0,P|159:185|142:241,1,100,0|0,1:0|1:0,0:0:0:0:
180,319,176849,1,2,1:2:0:0:
277,359,177165,5,2,1:2:0:0:
277,359,177323,1,4,1:2:0:0:
376,331,177639,1,0,3:0:0:0:
376,331,177797,2,0,P|375:302|378:277,1,50,0|0,1:0|3:0,0:0:0:0:
390,233,178112,2,0,P|401:183|393:133,1,100,4|0,1:2|1:0,0:0:0:0:
379,87,178586,1,4,1:2:0:0:
289,41,178902,2,0,P|258:122|288:204,1,150,0|0,1:0|3:0,0:0:0:0:
313,272,179691,1,0,1:0:0:0:
253,352,180007,6,0,P|195:370|149:372,1,100,4|0,1:2|1:0,0:0:0:0:
72,317,180639,1,0,3:0:0:0:
69,221,180954,1,0,1:0:0:0:
69,221,181112,2,0,P|138:207|171:208,1,100,4|0,1:2|3:0,0:0:0:0:
260,165,181744,1,0,0:0:0:0:
260,165,181902,2,0,P|247:108|256:53,1,100,0|0,3:0|1:0,0:0:0:0:
344,29,182533,1,4,1:2:0:0:
438,60,182849,6,0,P|451:117|442:172,1,100,0|0,1:2|3:0,0:0:0:0:
411,193,183323,2,0,P|407:219|410:247,1,50,0|0,3:0|1:2,0:0:0:0:
444,277,183639,1,4,1:2:0:0:
389,362,183954,1,0,3:0:0:0:
389,362,184112,2,0,P|334:344|271:343,1,100,0|0,1:2|3:0,0:0:0:0:
191,340,184744,1,0,1:2:0:0:
195,240,185060,5,4,1:2:0:0:
292,217,185376,1,0,1:2:0:0:
275,118,185691,1,0,3:0:0:0:
181,145,186007,1,0,1:2:0:0:
181,145,186165,2,0,P|122:155|75:153,1,100,4|0,1:2|3:0,0:0:0:0:
36,132,186639,1,0,1:2:0:0:
71,38,186954,2,0,P|130:28|177:30,1,100,0|0,1:0|1:0,0:0:0:0:
263,65,187586,5,4,1:2:0:0:
361,46,187902,2,0,L|414:7,2,50,4|2|0,1:2|3:2|3:0,0:0:0:0:
363,146,188533,1,0,1:2:0:0:
363,146,188691,2,0,P|358:224|371:264,1,100,2|0,3:2|3:0,0:0:0:0:
390,286,189165,1,0,1:2:0:0:
332,367,189481,2,0,P|301:364|280:351,1,50,0|2,3:0|3:2,0:0:0:0:
259,311,189797,1,0,1:2:0:0:
255,211,190112,5,4,1:2:0:0:
175,171,190428,1,0,1:2:0:0:
175,171,190586,1,2,3:2:0:0:
175,171,190744,1,4,1:2:0:0:
100,237,191060,1,0,1:2:0:0:
100,237,191218,2,0,P|61:196|43:150,1,100,4|0,1:2|3:0,0:0:0:0:
44,106,191691,1,0,1:2:0:0:
112,32,192007,2,0,P|168:40|221:42,1,100,0|0,3:0|1:2,0:0:0:0:
310,28,192639,5,4,1:2:0:0:
333,125,192954,1,0,1:2:0:0:
234,144,193270,2,0,P|230:212|238:250,1,100,0|0,3:0|1:2,0:0:0:0:
272,277,193744,2,0,P|327:289|388:286,1,100,4|0,1:2|3:0,0:0:0:0:
418,272,194218,1,0,1:0:0:0:
474,189,194533,2,0,L|452:77,1,100,0|0,3:0|1:2,0:0:0:0:
372,33,195165,5,4,1:2:0:0:
292,93,195481,1,0,1:2:0:0:
209,37,195797,1,0,3:0:0:0:
122,83,196112,1,0,1:2:0:0:
122,83,196270,2,0,P|103:159|125:242,1,150,4|0,1:2|1:2,0:0:0:0:
204,278,197060,2,0,P|208:337|202:365,2,75,0|0|0,1:0|1:0|1:0,0:0:0:0:
213,228,197691,6,0,P|303:265|363:256,1,150,4|0,1:2|3:0,0:0:0:0:
400,242,198323,1,0,1:0:0:0:
462,52,198954,2,0,L|500:14,2,50,0|0|0,3:0|1:0|0:0,0:0:0:0:
362,39,199586,1,0,1:0:0:0:
161,33,200218,2,0,P|158:89|162:134,1,100,0|0,1:0|3:0,0:0:0:0:
196,226,200849,1,0,1:0:0:0:
164,320,201165,1,0,1:0:0:0:
254,362,201481,2,0,P|357:353|412:269,1,200,0|4,1:0|3:0,0:0:0:0:
417,179,202428,2,0,P|347:194|303:196,1,100,0|4,1:0|1:3,0:0:0:0:
319,196,203849,6,0,P|388:191|467:117,1,150,0|0,1:0|1:0,0:0:0:0:
469,45,204639,1,0,1:0:0:0:
371,23,204954,2,0,P|348:30|321:36,1,50,0|2,1:0|1:3,0:0:0:0:
120,226,206376,6,0,P|169:225|219:217,1,100,4|0,1:2|3:0,0:0:0:0:
266,201,206849,1,0,1:0:0:0:
328,123,207165,2,0,P|377:115|429:115,1,100,0|0,3:0|1:0,0:0:0:0:
471,138,207639,2,0,P|487:204|484:251,1,100,0|0,1:0|3:0,0:0:0:0:
434,321,208270,2,0,P|360:333|319:331,1,100,0|0,3:0|3:0,0:0:0:0:
288,313,208744,1,0,1:0:0:0:
197,355,209060,6,0,P|185:294|185:236,1,100,4|0,1:2|1:0,0:0:0:0:
239,173,209691,1,0,3:0:0:0:
338,181,210007,1,0,1:0:0:0:
338,181,210165,2,0,P|342:112|282:28,1,150,0|0,1:0|1:0,0:0:0:0:
205,68,210954,1,0,3:0:0:0:
111,33,211270,1,0,1:0:0:0:
30,92,211586,6,0,L|51:204,1,100,4|0,1:2|1:0,0:0:0:0:
145,214,212218,1,0,3:0:0:0:
117,309,212533,1,0,1:0:0:0:
117,309,212691,2,0,P|179:358|247:354,1,150,0|0,1:0|1:0,0:0:0:0:
346,349,213481,1,0,3:0:0:0:
394,261,213797,1,0,1:0:0:0:
317,197,214112,6,0,P|262:180|215:181,1,100,4|0,1:2|1:0,0:0:0:0:
171,192,214586,1,0,3:0:0:0:
102,118,214902,1,0,3:0:0:0:
167,42,215218,2,0,P|227:65|322:48,1,150,0|0,1:0|1:0,0:0:0:0:
408,32,216007,2,0,P|458:69|482:110,1,100,0|0,3:0|1:0,0:0:0:0:
468,200,216639,5,4,1:2:0:0:
384,255,216954,1,0,1:0:0:0:
308,188,217270,1,0,3:0:0:0:
212,178,217586,1,0,1:0:0:0:
212,178,217744,2,0,P|203:244|210:298,1,100,0|0,1:0|3:0,0:0:0:0:
216,326,218218,1,0,1:0:0:0:
312,351,218533,2,0,P|379:344|421:334,1,100,0|0,3:0|1:0,0:0:0:0:
490,276,219165,5,4,1:2:0:0:
419,205,219481,1,0,1:0:0:0:
495,141,219797,1,0,3:0:0:0:
482,46,220112,1,0,1:0:0:0:
482,46,220270,2,0,P|430:51|370:47,1,100,0|0,1:0|3:0,0:0:0:0:
332,47,220744,1,0,1:0:0:0:
301,142,221060,2,0,P|368:140|405:142,1,100,0|0,3:0|1:0,0:0:0:0:
408,241,221691,5,4,1:2:0:0:
330,304,222007,1,0,1:0:0:0:
252,240,222323,1,0,3:0:0:0:
159,219,222639,1,0,1:0:0:0:
159,219,222797,2,0,P|145:170|148:119,1,100,0|0,1:0|3:0,0:0:0:0:
164,74,223270,1,0,1:0:0:0:
262,93,223586,2,0,P|305:57|354:32,1,100,0|0,3:0|1:0,0:0:0:0:
430,86,224218,5,4,1:2:0:0:
475,174,224533,1,0,1:0:0:0:
445,269,224849,2,0,L|504:303,2,50,0|0|0,3:0|3:0|1:0,0:0:0:0:
400,292,225323,2,0,P|327:286|262:217,1,150,0|0,1:0|1:0,0:0:0:0:
299,140,226112,2,0,P|228:133|191:118,1,100,0|2,1:0|3:0,0:0:0:0:
171,83,226586,1,6,1:3:0:0:
