osu file format v14

[General]
AudioFilename: audio.mp3
AudioLeadIn: 0
PreviewTime: 54954
Countdown: 0
SampleSet: Soft
StackLeniency: 0.7
Mode: 0
LetterboxInBreaks: 0
WidescreenStoryboard: 0

[Editor]
DistanceSpacing: 0.8
BeatDivisor: 4
GridSize: 4
TimelineZoom: 1

[Metadata]
Title:Wolf
TitleUnicode:ウルフ
Artist:CHiCO with HoneyWorks
ArtistUnicode:CHiCO with HoneyWorks
Creator:CoLouRed GlaZeE
Version:Insane
Source:泡恋
Tags:japanese pop jpop rock jrock yoko delis smm shirohamymommy luscent djulus watashiwo someru aino uta 私を染めるiの歌 カヌレとウルフ full version
BeatmapID:2322554
BeatmapSetID:1111621

[Difficulty]
HPDrainRate:6
CircleSize:4
OverallDifficulty:7
ApproachRate:9
SliderMultiplier:1.6
SliderTickRate:1

[Events]
//Background and Video events
0,0,"bg.jpg",0,0
//Break Periods
2,76627,85618
2,163586,166112
//Storyboard Layer 0 (Background)
//Storyboard Layer 1 (Fail)
//Storyboard Layer 2 (Pass)
//Storyboard Layer 3 (Foreground)
//Storyboard Layer 4 (Overlay)
//Storyboard Sound Samples

[TimingPoints]
-624,315.789473684211,4,2,0,80,1,0
323,-133.333333333333,4,2,0,80,0,0
560,-133.333333333333,4,2,0,5,0,0
639,-133.333333333333,4,2,0,80,0,0
3165,-100,4,2,0,80,0,0
3481,-133.333333333333,4,2,0,80,0,0
4428,-100,4,2,0,80,0,0
4744,-133.333333333333,4,2,0,80,0,0
5060,-100,4,2,0,80,0,0
5376,-133.333333333333,4,2,0,80,0,0
5691,-100,4,2,0,80,0,0
10112,-133.333333333333,4,2,0,80,0,0
10586,-100,4,2,0,90,0,0
20849,-125,4,2,0,90,0,0
20928,-125,4,2,0,80,0,0
29849,-166.666666666667,4,2,0,70,0,0
30481,-166.666666666667,4,2,0,80,0,0
30797,-100,4,2,0,90,0,0
41060,-133.333333333333,4,2,0,80,0,0
46112,-100,4,2,0,90,0,0
51165,-166.666666666667,4,2,0,90,0,0
53691,-166.666666666667,4,2,0,90,0,0
56060,-100,4,2,0,100,0,1
75954,-166.666666666667,4,2,0,90,0,1
76428,-166.666666666667,4,2,0,90,0,0
86218,-100,4,2,0,80,0,0
91586,-100,4,2,0,90,0,0
106744,-125,4,2,0,80,0,0
111797,-100,4,2,0,90,0,0
116770,-166.666666666667,4,2,0,90,0,0
121744,-100,4,2,0,100,0,1
142112,-100,4,2,0,90,0,0
167376,-166.666666666667,4,2,0,80,0,0
172428,-133.333333333333,4,2,0,90,0,0
177323,-100,4,2,0,100,0,1
197691,-166.666666666667,4,2,0,90,0,0
203849,-100,4,2,0,100,0,0
205270,-100,4,2,0,90,0,0
208744,-133.333333333333,4,2,0,90,0,0
208902,-100,4,2,0,5,0,0
209060,-100,4,2,0,90,0,0
211270,-133.333333333333,4,2,0,90,0,0
211586,-100,4,2,0,90,0,0

[Colours]
Combo1 : 214,137,233
Combo2 : 206,222,201
Combo3 : 186,187,243
Combo4 : 160,235,120

[HitObjects]
344,303,323,6,0,L|253:322,1,90.0000034332277,0|0,0:0|0:0,0:0:0:0:
256,322,639,2,0,P|234:258|258:187,1,120.000004577637,4|0,0:0|0:0,0:0:0:0:
315,171,1112,1,0,0:0:0:0:
146,226,1428,1,0,0:0:0:0:
116,58,1744,2,0,L|249:73,1,120.000004577637,0|2,0:0|0:0,0:0:0:0:
305,29,2218,2,0,P|355:41|431:32,1,120.000004577637,0|0,0:0|0:0,0:0:0:0:
423,35,2849,2,0,L|407:112,1,60.0000022888184,0|0,0:0|0:0,0:0:0:0:
350,194,3165,6,0,L|436:173,1,80,0|0,3:0|3:0,0:0:0:0:
427,175,3481,1,0,0:0:0:0:
333,109,3639,2,0,P|276:115|210:94,2,120.000004577637,0|0|0,0:0|0:0|0:0,0:0:0:0:
417,72,4428,2,0,L|484:16,1,80,0|0,3:0|3:0,0:0:0:0:
417,72,4744,2,0,L|406:140,1,60.0000022888184,0|0,0:0|0:0,0:0:0:0:
472,198,5060,2,0,P|430:218|393:225,1,80,0|0,3:0|3:0,0:0:0:0:
321,192,5376,2,0,L|261:206,1,60.0000022888184,0|0,0:0|3:0,0:0:0:0:
239,187,5612,5,0,3:0:0:0:
239,187,5691,2,0,P|214:242|246:344,1,160,0|0,1:0|1:0,0:0:0:0:
334,298,6165,2,0,P|373:305|432:315,1,80,0|0,3:0|1:0,0:0:0:0:
497,221,6481,2,0,P|434:211|409:205,1,80,0|0,3:0|1:0,0:0:0:0:
352,107,6797,6,0,L|378:63,2,40,0|0|0,3:0|3:0|1:0,0:0:0:0:
272,133,7112,1,0,3:0:0:0:
196,98,7270,2,0,P|142:76|107:74,1,80,0|0,1:0|3:0,0:0:0:0:
215,229,7586,2,0,P|269:251|304:253,1,80,0|0,1:0|3:0,0:0:0:0:
452,177,7902,1,0,1:0:0:0:
365,156,8060,5,0,3:0:0:0:
365,156,8139,1,0,3:0:0:0:
365,156,8218,2,0,L|387:285,1,120,0|0,1:0|0:0,0:0:0:0:
388,294,8533,1,0,1:0:0:0:
480,328,8691,1,0,1:0:0:0:
305,274,8849,1,0,1:0:0:0:
344,363,9007,1,0,1:0:0:0:
259,184,9165,1,0,1:0:0:0:
230,347,9323,1,0,1:0:0:0:
259,184,10112,6,0,L|275:123,2,60.0000022888184,2|2|2,3:2|3:2|3:2,0:0:0:0:
185,139,10586,6,0,P|133:180|30:166,1,160,4|0,1:2|3:0,0:0:0:0:
101,62,11060,2,0,P|157:45|188:30,1,80,0|0,1:0|0:0,0:0:0:0:
185,139,11376,1,0,3:0:0:0:
119,227,11533,2,0,L|107:311,1,80,0|0,3:0|1:0,0:0:0:0:
269,221,11849,6,0,P|246:285|251:368,1,120,0|0,1:0|0:0,0:0:0:0:
267,354,12165,2,0,P|319:371|346:381,1,80,0|0,3:0|1:0,0:0:0:0:
441,332,12481,1,0,3:0:0:0:
441,332,12560,1,0,3:0:0:0:
441,332,12639,1,0,3:0:0:0:
360,240,12797,2,0,P|367:193|372:145,1,80,0|0,3:0|1:0,0:0:0:0:
245,107,13112,5,0,3:0:0:0:
245,107,13191,1,0,3:0:0:0:
245,107,13270,2,0,L|166:156,1,80,4|0,1:2|0:0,0:0:0:0:
319,35,13586,1,0,1:0:0:0:
370,160,13744,2,0,P|425:187|453:195,1,80,0|0,3:0|3:0,0:0:0:0:
282,248,14060,5,0,3:0:0:0:
354,323,14218,1,0,1:0:0:0:
222,333,14376,2,0,P|181:341|132:352,1,80,0|0,1:0|0:0,0:0:0:0:
292,169,14691,2,0,L|281:256,1,80,0|0,3:0|1:0,0:0:0:0:
406,107,15007,5,0,3:0:0:0:
406,107,15086,1,0,3:0:0:0:
406,107,15165,1,0,3:0:0:0:
329,39,15323,1,0,3:0:0:0:
369,189,15481,1,0,1:0:0:0:
229,102,15639,5,0,1:0:0:0:
229,102,15718,1,0,1:0:0:0:
229,102,15797,2,0,P|148:105|99:97,1,120,4|0,1:2|0:0,0:0:0:0:
99,75,16112,1,0,1:0:0:0:
180,194,16270,2,0,P|167:263|165:274,1,80,0|0,0:0|3:0,0:0:0:0:
295,241,16586,2,0,P|309:184|312:156,1,80,0|0,3:0|1:0,0:0:0:0:
440,284,16902,6,0,P|409:323|331:335,1,120,0|0,1:0|0:0,0:0:0:0:
324,328,17218,2,0,P|277:344|248:361,1,80,0|0,3:0|1:0,0:0:0:0:
402,212,17533,1,0,3:0:0:0:
402,212,17612,1,0,3:0:0:0:
402,212,17691,1,0,3:0:0:0:
273,210,17849,1,0,3:0:0:0:
370,106,18007,1,0,1:0:0:0:
402,212,18165,1,0,1:0:0:0:
274,102,18323,6,0,P|220:95|182:98,1,80,4|0,1:2|0:0,0:0:0:0:
156,233,18639,1,0,1:0:0:0:
125,152,18797,2,0,L|98:70,1,80,0|0,0:0|3:0,0:0:0:0:
248,198,19112,2,0,L|275:277,1,80,0|0,3:0|1:0,0:0:0:0:
418,188,19428,2,0,P|444:248|422:352,1,160,0|0,1:0|3:0,0:0:0:0:
260,366,19902,2,0,P|302:353|344:348,1,80,0|0,1:0|3:0,0:0:0:0:
337,348,20139,1,0,3:0:0:0:
337,348,20218,1,0,3:0:0:0:
380,256,20376,5,0,3:0:0:0:
380,256,20454,1,0,3:0:0:0:
380,256,20533,2,0,L|334:224,1,40,0|0,1:0|0:0,0:0:0:0:
253,202,20691,2,0,L|307:178,1,40,0|0,1:0|0:0,0:0:0:0:
360,105,20849,6,0,P|290:113|215:105,1,128,6|0,1:2|3:0,0:0:0:0:
82,33,21481,2,0,P|73:105|82:170,1,128,0|0,3:0|3:0,0:0:0:0:
187,294,22112,1,0,3:0:0:0:
335,223,22428,1,0,3:0:0:0:
244,80,22744,1,0,3:0:0:0:
139,177,23060,2,0,L|205:187,1,64,0|0,3:0|0:0,0:0:0:0:
293,148,23376,6,0,P|373:153|441:142,1,128,2|0,3:2|3:0,0:0:0:0:
276,305,24007,2,0,P|184:312|131:307,1,128,0|0,3:0|3:0,0:0:0:0:
16,200,24639,1,2,3:2:0:0:
176,102,24954,1,0,3:0:0:0:
94,250,25270,1,2,3:2:0:0:
99,116,25586,1,0,3:0:0:0:
262,214,25902,6,0,L|406:241,1,128,2|0,3:2|3:0,0:0:0:0:
388,238,26376,2,0,P|433:246|465:253,1,64,0|0,3:0|3:0,0:0:0:0:
358,141,26691,2,0,P|322:119|303:102,1,64,0|0,3:0|3:0,0:0:0:0:
203,135,27007,2,0,B|158:136|127:107|127:107|103:123|62:127,1,128,2|0,3:2|3:0,0:0:0:0:
154,239,27481,1,0,3:0:0:0:
154,239,27797,2,0,P|202:265|238:268,1,64,0|0,3:0|0:0,0:0:0:0:
315,189,28112,2,0,P|267:163|231:160,1,64,0|0,3:0|0:0,0:0:0:0:
322,314,28428,6,0,P|390:344|464:323,1,128,2|0,3:2|3:0,0:0:0:0:
500,236,28902,2,0,L|512:163,1,64,0|0,3:0|3:0,0:0:0:0:
372,193,29218,1,0,3:0:0:0:
500,236,29376,1,0,3:0:0:0:
372,193,29533,2,0,L|356:60,1,128,0|0,1:0|0:0,0:0:0:0:
284,128,30007,6,0,L|227:146,1,47.9999985351563,0|0,0:0|0:0,0:0:0:0:
225,42,30323,1,0,0:0:0:0:
225,42,30481,2,0,L|191:85,1,47.9999985351563,0|0,3:0|3:0,0:0:0:0:
50,138,30797,6,0,P|72:192|50:298,1,160,4|0,1:2|3:0,0:0:0:0:
161,300,31270,1,0,1:0:0:0:
268,278,31428,1,0,3:0:0:0:
268,278,31507,1,0,3:0:0:0:
268,278,31586,2,0,P|325:271|359:271,1,80,0|0,3:0|3:0,0:0:0:0:
265,172,31902,1,0,1:0:0:0:
371,191,32060,2,0,P|398:139|367:42,1,160,0|0,1:0|3:0,0:0:0:0:
207,80,32533,1,0,1:0:0:0:
286,25,32691,5,0,3:0:0:0:
286,25,32770,1,0,3:0:0:0:
286,25,32849,1,0,3:0:0:0:
308,131,33007,1,0,3:0:0:0:
182,101,33165,1,0,1:0:0:0:
308,131,33323,1,0,1:0:0:0:
209,204,33481,5,4,0:0:0:0:
317,225,33639,2,0,P|370:237|395:245,1,80,0|0,3:0|1:0,0:0:0:0:
455,140,33954,1,0,3:0:0:0:
455,140,34033,1,0,3:0:0:0:
455,140,34112,1,0,3:0:0:0:
308,131,34270,2,0,L|210:158,1,80,0|0,3:0|1:0,0:0:0:0:
196,69,34586,6,0,P|131:106|19:93,1,160,0|0,1:0|3:0,0:0:0:0:
161,206,35060,2,0,P|222:245|240:270,1,80,0|0,1:0|0:0,0:0:0:0:
370,225,35376,2,0,P|349:165|347:146,1,80,0|0,3:0|3:0,0:0:0:0:
443,159,35691,1,0,1:0:0:0:
431,299,35849,5,0,1:0:0:0:
431,299,35928,1,0,1:0:0:0:
431,299,36007,2,0,P|386:345|292:339,1,160,4|0,1:2|1:0,0:0:0:0:
234,272,36481,2,0,P|183:257|115:263,1,120,0|0,3:0|0:0,0:0:0:0:
94,242,36797,2,0,P|110:287|118:328,1,80,0|0,3:0|1:0,0:0:0:0:
206,184,37112,2,0,B|233:131|198:91|198:91|232:65|238:24,1,160,0|0,1:0|3:0,0:0:0:0:
118,96,37586,2,0,P|66:99|29:112,1,80,0|0,1:0|0:0,0:0:0:0:
126,194,37902,1,0,3:0:0:0:
206,184,38060,1,0,3:0:0:0:
221,314,38218,5,0,1:0:0:0:
126,194,38376,1,0,1:0:0:0:
280,238,38533,2,0,P|318:275|426:285,1,160,4|0,0:0|1:0,0:0:0:0:
468,220,39007,1,0,3:0:0:0:
468,220,39086,1,0,3:0:0:0:
468,220,39165,2,0,P|481:178|495:144,1,80,0|0,3:0|3:0,0:0:0:0:
402,141,39481,1,0,1:0:0:0:
284,199,39639,6,0,L|105:160,1,160,0|0,1:0|3:0,0:0:0:0:
228,98,40112,2,0,P|184:94|146:80,1,80,0|0,1:0|0:0,0:0:0:0:
284,199,40428,2,0,P|293:241|289:282,1,80,0|0,3:0|3:0,0:0:0:0:
107,244,40744,2,0,L|131:327,1,80,0|0,1:0|3:0,0:0:0:0:
216,346,41060,6,0,L|400:371,1,180.000006866455,0|0,1:0|3:0,0:0:0:0:
379,288,41691,2,0,L|402:152,1,120.000004577637,4|0,1:2|3:0,0:0:0:0:
473,216,42165,1,0,3:0:0:0:
473,216,42323,2,0,P|377:219|289:176,1,180.000006866455,0|0,3:0|0:0,0:0:0:0:
234,234,42954,1,4,1:2:0:0:
193,67,43270,1,0,3:0:0:0:
338,99,43586,5,0,1:0:0:0:
165,157,43902,1,0,3:0:0:0:
341,253,44218,1,4,1:2:0:0:
176,325,44533,1,4,1:2:0:0:
428,340,44849,6,0,P|439:268|410:200,1,120.000004577637,0|0,3:0|3:0,0:0:0:0:
191,126,45481,2,0,P|180:198|209:266,1,120.000004577637,0|0,3:0|1:0,0:0:0:0:
193,241,45954,1,0,3:0:0:0:
321,290,46112,6,0,P|333:337|344:368,1,80,0|0,3:0|3:0,0:0:0:0:
338,267,46428,2,0,P|284:282|260:291,1,80,0|0,3:0|3:0,0:0:0:0:
354,290,46744,2,0,P|362:199|312:139,1,160,0|0,1:0|3:0,0:0:0:0:
249,191,47218,1,0,3:0:0:0:
249,191,47297,1,0,3:0:0:0:
249,191,47376,2,0,P|195:213|80:199,1,160,0|0,3:0|3:0,0:0:0:0:
195,51,48007,2,0,P|249:29|364:43,1,160,0|0,1:0|1:0,0:0:0:0:
428,74,48481,5,0,3:0:0:0:
428,74,48560,1,0,3:0:0:0:
428,74,48639,2,0,P|436:140|439:162,1,80,0|0,3:0|3:0,0:0:0:0:
400,88,48954,2,0,P|466:82|491:78,1,80,0|0,3:0|3:0,0:0:0:0:
415,127,49270,2,0,P|319:134|265:141,1,120,0|0,1:0|0:0,0:0:0:0:
284,116,49586,2,0,P|237:125|201:125,1,80,0|0,3:0|3:0,0:0:0:0:
127,98,49902,5,4,1:2:0:0:
233,212,50060,1,0,3:0:0:0:
116,199,50218,1,0,1:0:0:0:
205,125,50376,1,0,3:0:0:0:
305,166,50533,6,0,L|367:181,2,53.3333333333333,0|0|0,3:0|3:0|3:0,0:0:0:0:
389,107,50849,2,0,L|442:83,2,53.3333333333333,0|0|0,1:0|3:0|3:0,0:0:0:0:
478,187,51165,6,0,P|474:236|481:295,1,95.9999970703126,2|0,3:2|3:0,0:0:0:0:
378,354,51797,1,0,3:0:0:0:
263,322,52112,1,0,3:0:0:0:
114,250,52428,6,0,P|118:187|113:146,1,95.9999970703126,2|2,3:0|3:0,0:0:0:0:
101,25,53060,1,2,3:0:0:0:
234,41,53376,1,2,3:0:0:0:
381,201,53691,5,4,1:3:0:0:
260,111,54007,1,4,1:3:0:0:
131,183,54323,1,4,1:3:0:0:
252,273,54639,1,4,1:3:0:0:
349,188,54954,5,0,1:0:0:0:
250,193,55112,2,0,L|203:197,1,47.9999985351563,0|0,3:0|3:0,0:0:0:0:
202,197,55428,5,0,1:0:0:0:
349,188,55586,2,0,L|411:180,1,47.9999985351563,2|2,3:2|3:2,0:0:0:0:
396,181,55902,1,2,3:2:0:0:
332,290,56060,6,0,P|282:318|173:299,1,160,4|0,1:2|3:0,0:0:0:0:
93,229,56533,1,0,1:0:0:0:
183,306,56691,2,0,P|193:256|193:218,1,80,0|4,3:0|1:2,0:0:0:0:
220,88,57007,1,0,3:0:0:0:
109,137,57165,1,0,1:0:0:0:
271,203,57323,6,0,P|369:221|439:171,1,160,4|0,1:2|3:0,0:0:0:0:
474,118,57797,2,0,P|460:64|457:23,1,80,0|0,1:0|0:0,0:0:0:0:
360,92,58112,1,0,3:0:0:0:
231,65,58270,2,0,P|241:112|243:157,1,80,0|0,3:0|1:0,0:0:0:0:
118,212,58586,5,0,3:0:0:0:
118,212,58665,1,0,3:0:0:0:
118,212,58744,2,0,P|193:219|244:297,1,160,4|0,1:2|1:0,0:0:0:0:
376,239,59218,2,0,L|357:329,1,80,0|0,0:0|3:0,0:0:0:0:
261,187,59533,1,0,3:0:0:0:
408,202,59691,1,0,1:0:0:0:
286,116,59849,6,0,P|348:117|396:112,1,80,4|0,1:2|0:0,0:0:0:0:
319,262,60165,2,0,P|257:261|209:266,1,80,0|0,3:0|1:0,0:0:0:0:
77,155,60481,1,0,3:0:0:0:
77,155,60560,1,0,3:0:0:0:
77,155,60639,2,0,P|139:123|232:158,1,160,0|0,3:0|1:0,0:0:0:0:
290,208,61112,1,0,3:0:0:0:
409,134,61270,6,0,P|416:85|404:46,1,80,4|0,1:2|0:0,0:0:0:0:
324,96,61586,1,0,1:2:0:0:
362,205,61744,1,0,0:0:0:0:
324,96,61902,1,0,3:0:0:0:
440,142,62060,2,0,P|471:169|505:201,1,80,0|0,3:0|1:2,0:0:0:0:
433,296,62376,6,0,P|398:328|283:311,1,160,4|0,1:2|3:0,0:0:0:0:
215,243,62849,2,0,P|219:200|218:161,1,80,0|0,1:2|0:0,0:0:0:0:
377,233,63165,2,0,P|320:227|284:227,1,80,0|0,3:0|3:0,0:0:0:0:
134,234,63481,2,0,L|60:189,1,80,0|0,1:2|0:0,0:0:0:0:
65,192,63797,1,4,1:2:0:0:
160,121,63954,6,0,P|218:114|263:103,1,80,0|0,3:0|1:2,0:0:0:0:
250,281,64270,1,0,3:0:0:0:
250,281,64349,1,0,3:0:0:0:
250,281,64428,2,0,P|240:228|236:193,1,80,0|0,3:0|3:0,0:0:0:0:
338,232,64744,1,0,1:2:0:0:
266,353,64902,2,0,P|340:354|401:272,1,160,4|0,1:2|3:0,0:0:0:0:
417,205,65376,1,0,1:2:0:0:
396,294,65533,1,0,3:0:0:0:
301,151,65691,6,0,L|257:136,3,40,0|0|0|0,1:0|3:0|3:0|3:0,0:0:0:0:
383,104,66007,2,0,L|396:55,3,40,0|0|0|0,1:0|3:0|3:0|3:0,0:0:0:0:
345,225,66323,2,0,P|307:243|273:265,1,80,4|0,1:2|0:0,0:0:0:0:
148,201,66639,1,4,1:2:0:0:
204,276,66797,1,2,0:0:0:0:
236,177,66954,1,0,3:0:0:0:
135,232,67112,2,0,P|75:235|35:232,1,80,2|0,3:2|1:2,0:0:0:0:
158,98,67428,2,0,P|218:95|258:98,1,80,2|0,3:2|0:0,0:0:0:0:
321,118,67744,1,0,3:0:0:0:
267,212,67902,5,0,1:2:0:0:
356,238,68060,1,2,0:0:0:0:
238,177,68218,1,0,3:0:0:0:
264,296,68376,2,0,L|289:372,1,80,2|0,3:2|1:2,0:0:0:0:
411,299,68691,2,0,P|383:236|369:166,1,120,2|0,3:2|0:0,0:0:0:0:
380,156,69007,1,2,3:2:0:0:
487,177,69165,6,0,L|478:91,1,80,0|2,1:2|0:0,0:0:0:0:
487,177,69481,1,4,1:2:0:0:
308,103,69639,2,0,P|324:64|333:21,1,80,2|0,3:2|1:2,0:0:0:0:
448,248,69954,2,0,B|421:246|392:256|392:256|332:225|261:223,1,160,4|0,1:2|3:0,0:0:0:0:
196,241,70428,2,0,P|153:258|111:259,1,80,0|0,1:2|0:0,0:0:0:0:
283,348,70744,2,0,P|337:335|366:323,1,80,0|0,3:0|0:0,0:0:0:0:
327,142,71060,5,0,1:2:0:0:
232,178,71218,1,0,1:2:0:0:
232,178,71297,1,0,1:2:0:0:
232,178,71376,2,0,P|147:191|67:146,1,160,4|0,1:2|1:2,0:0:0:0:
37,77,71849,1,0,3:0:0:0:
128,32,72007,6,0,P|135:87|135:118,1,80,0|0,3:0|3:0,0:0:0:0:
54,186,72323,1,0,1:2:0:0:
145,254,72481,2,0,P|231:269|320:225,1,160,4|0,1:2|3:0,0:0:0:0:
360,144,72954,2,0,P|304:148|272:148,1,80,0|0,1:2|0:0,0:0:0:0:
338,272,73270,2,0,P|394:268|426:268,1,80,0|0,3:0|3:0,0:0:0:0:
497,125,73586,6,0,L|473:209,1,80,0|0,1:2|0:0,0:0:0:0:
387,70,73902,1,4,1:2:0:0:
399,171,74060,2,0,L|316:191,1,80,0|0,3:0|1:2,0:0:0:0:
227,130,74376,1,0,3:0:0:0:
227,130,74454,1,0,3:0:0:0:
227,130,74533,2,0,P|237:181|235:211,1,80,0|0,3:0|3:0,0:0:0:0:
206,286,74849,1,0,1:2:0:0:
74,209,75007,6,0,P|50:166|74:60,1,160,4|8,1:2|3:0,0:0:0:0:
149,23,75481,1,4,1:3:0:0:
156,26,75560,1,0,1:0:0:0:
163,29,75639,1,0,1:2:0:0:
170,32,75718,1,0,1:2:0:0:
176,35,75797,1,4,1:2:0:0:
278,58,75954,2,0,B|334:69|370:40|370:40|380:65|403:79,1,143.999995605469,0|4,0:0|1:2,0:0:0:0:
393,200,86218,6,0,L|308:219,1,80,0|0,1:0|1:0,0:0:0:0:
246,172,86533,2,0,P|193:210|89:177,1,160,4|0,1:2|1:0,0:0:0:0:
160,113,87007,2,0,P|213:75|317:108,1,160,0|0,3:0|3:0,0:0:0:0:
385,128,87481,1,0,1:0:0:0:
427,45,87639,1,0,3:0:0:0:
427,45,87718,1,0,3:0:0:0:
427,45,87797,1,0,3:0:0:0:
496,111,87954,2,0,L|480:203,1,80,0|0,3:0|1:0,0:0:0:0:
380,308,88270,2,0,P|407:236|394:152,1,160,0|0,3:0|3:0,0:0:0:0:
311,179,88744,6,0,L|294:268,1,80,0|0,1:0|3:0,0:0:0:0:
221,298,89060,1,0,3:0:0:0:
158,165,89218,2,0,P|196:150|235:130,1,80,0|0,3:0|1:0,0:0:0:0:
320,75,89533,1,0,3:0:0:0:
320,75,89612,1,0,3:0:0:0:
320,75,89691,2,0,P|276:57|242:39,1,80,0|0,3:0|3:0,0:0:0:0:
231,132,90007,1,0,1:0:0:0:
371,141,90165,1,0,3:0:0:0:
271,243,90323,6,0,P|328:294|395:292,1,120,0|0,3:0|0:0,0:0:0:0:
390,286,90639,2,0,P|420:254|450:234,1,80,0|0,1:0|3:0,0:0:0:0:
512,94,90954,2,0,P|489:135|457:159,1,80,0|0,3:0|3:0,0:0:0:0:
305,165,91270,2,0,P|382:169|404:177,1,80,0|0,1:0|3:0,0:0:0:0:
393,63,91586,5,0,1:0:0:0:
269,45,91744,2,0,P|213:38|185:32,1,80,0|0,1:0|1:0,0:0:0:0:
213,138,92060,1,0,3:0:0:0:
213,138,92139,1,0,3:0:0:0:
213,138,92218,1,0,1:0:0:0:
305,165,92376,2,0,L|286:263,1,80,0|0,1:0|1:0,0:0:0:0:
200,329,92691,6,0,L|360:307,1,160,0|0,1:0|1:0,0:0:0:0:
433,257,93165,2,0,L|458:165,1,80,0|0,1:0|3:0,0:0:0:0:
355,73,93481,2,0,P|362:121|362:160,1,80,0|0,1:0|1:0,0:0:0:0:
283,228,93797,5,0,1:0:0:0:
304,310,93954,1,0,1:0:0:0:
193,200,94112,2,0,P|133:186|45:240,1,160,0|0,1:0|1:0,0:0:0:0:
83,310,94586,2,0,P|150:316|179:326,1,80,0|0,3:0|1:0,0:0:0:0:
247,309,94902,2,0,P|311:304|338:296,1,80,0|0,1:0|1:0,0:0:0:0:
440,259,95218,1,4,1:2:0:0:
248,134,96165,6,0,L|234:215,1,80,0|0,3:0|3:0,0:0:0:0:
349,113,96481,2,0,P|328:189|323:281,1,160,4|0,1:2|3:0,0:0:0:0:
407,235,96954,1,0,1:0:0:0:
308,311,97112,2,0,P|253:317|220:330,1,80,0|0,0:0|3:0,0:0:0:0:
140,221,97428,2,0,P|195:215|228:202,1,80,0|0,3:0|1:0,0:0:0:0:
289,105,97744,2,0,P|217:91|139:134,1,160,0|0,1:0|3:0,0:0:0:0:
218,206,98218,2,0,P|290:220|368:177,1,160,0|0,1:0|3:0,0:0:0:0:
473,169,98691,5,0,3:0:0:0:
473,169,98770,1,0,3:0:0:0:
473,169,98849,2,0,P|465:224|449:273,1,80,0|0,1:0|1:0,0:0:0:0:
411,332,99165,2,0,P|320:318|245:373,1,160,4|0,0:0|1:0,0:0:0:0:
205,277,99639,2,0,P|148:305|119:312,1,80,0|0,0:0|3:0,0:0:0:0:
252,171,99954,1,0,3:0:0:0:
161,201,100112,1,0,1:0:0:0:
316,234,100270,6,0,P|365:176|464:174,1,160,0|0,1:0|3:0,0:0:0:0:
512,231,100744,2,0,P|488:294|485:323,1,80,0|0,1:0|3:0,0:0:0:0:
486,306,100981,1,0,3:0:0:0:
486,306,101060,1,0,3:0:0:0:
391,298,101218,1,0,3:0:0:0:
294,373,101376,2,0,P|302:332|307:273,1,80,0|0,1:0|0:0,0:0:0:0:
197,157,101691,6,0,P|176:236|169:322,1,160,4|0,1:2|1:0,0:0:0:0:
335,177,102165,2,0,L|264:228,1,80,0|0,3:0|3:0,0:0:0:0:
270,223,102481,1,0,3:0:0:0:
305,88,102639,1,0,1:0:0:0:
436,154,102797,2,0,P|471:238|442:322,1,160,0|0,1:0|3:0,0:0:0:0:
363,277,103270,2,0,L|202:332,1,160,0|0,1:0|3:0,0:0:0:0:
160,250,103744,1,0,3:0:0:0:
249,218,103902,5,0,1:0:0:0:
173,155,104060,1,0,1:0:0:0:
314,108,104218,1,4,0:0:0:0:
231,30,104376,2,0,P|230:76|234:120,1,80,0|0,3:0|1:0,0:0:0:0:
393,204,104691,1,0,3:0:0:0:
393,204,104770,1,0,3:0:0:0:
393,204,104849,2,0,P|394:163|390:121,1,80,0|0,3:0|3:0,0:0:0:0:
280,184,105165,1,0,1:0:0:0:
317,291,105323,2,0,P|390:319|482:284,1,160,0|0,1:0|3:0,0:0:0:0:
313,382,105797,6,0,L|219:332,1,80,0|0,1:0|3:0,0:0:0:0:
180,290,106112,2,0,L|159:192,1,80,0|0,3:0|3:0,0:0:0:0:
157,129,106428,2,0,L|173:43,1,80,0|0,1:0|3:0,0:0:0:0:
294,106,106744,6,0,L|279:186,1,64,0|0,1:0|1:0,0:0:0:0:
294,106,107218,1,0,3:0:0:0:
294,106,107297,1,0,3:0:0:0:
294,106,107376,2,0,P|397:78|508:165,1,256,4|0,1:2|1:0,0:0:0:0:
477,243,108165,1,0,1:0:0:0:
390,365,108481,1,0,3:0:0:0:
390,365,108560,1,0,3:0:0:0:
390,365,108639,2,0,P|332:370|251:331,1,128,4|0,1:2|0:0,0:0:0:0:
281,213,109270,6,0,L|343:245,1,64,0|0,1:0|1:0,0:0:0:0:
198,212,109744,1,0,3:0:0:0:
198,212,109823,1,0,3:0:0:0:
198,212,109902,2,0,L|126:176,1,64,4|0,1:2|0:0,0:0:0:0:
281,213,110218,2,0,L|298:280,1,64,4|0,1:2|0:0,0:0:0:0:
393,181,110533,6,0,L|384:254,1,64,0|0,3:0|3:0,0:0:0:0:
385,244,110849,2,0,L|452:237,1,64,0|0,0:0|1:0,0:0:0:0:
314,100,111165,2,0,P|311:133|307:164,1,64,0|0,0:0|3:0,0:0:0:0:
464,116,111481,2,0,P|430:110|395:104,1,64,0|0,1:0|0:0,0:0:0:0:
248,46,111797,6,0,P|207:118|230:195,1,160,0|0,3:0|3:0,0:0:0:0:
225,188,112270,1,0,3:0:0:0:
307,242,112428,2,0,P|247:286|153:274,1,160,0|0,1:0|3:0,0:0:0:0:
120,216,112902,1,0,3:0:0:0:
120,216,112981,1,0,3:0:0:0:
120,216,113060,2,0,P|104:168|101:138,1,80,0|0,3:0|3:0,0:0:0:0:
225,188,113376,2,0,P|241:236|244:266,1,80,0|0,3:0|3:0,0:0:0:0:
372,227,113691,1,0,1:0:0:0:
372,227,114007,2,0,P|421:237|455:239,1,80,0|0,3:0|3:0,0:0:0:0:
455,136,114323,6,0,P|378:99|290:130,1,160,0|0,3:0|3:0,0:0:0:0:
308,115,114797,1,0,3:0:0:0:
218,162,114954,2,0,P|295:199|383:168,2,160,0|0|0,1:0|3:0|1:0,0:0:0:0:
184,82,115744,1,0,3:0:0:0:
252,35,115902,2,0,P|296:25|331:23,1,80,0|0,1:0|3:0,0:0:0:0:
112,109,116218,2,0,P|118:57|127:25,1,80,0|0,3:0|3:0,0:0:0:0:
246,123,116533,1,0,1:0:0:0:
452,214,116849,6,0,P|456:134|451:96,1,95.9999970703126,2|0,3:2|3:0,0:0:0:0:
306,195,117481,1,0,3:0:0:0:
388,60,117797,1,0,3:0:0:0:
399,271,118112,6,0,P|343:289|287:289,1,95.9999970703126,2|2,3:0|3:0,0:0:0:0:
175,201,118744,1,2,3:0:0:0:
199,44,119060,1,2,3:0:0:0:
364,151,119376,5,4,1:3:0:0:
150,120,119691,1,4,1:3:0:0:
318,247,120007,1,4,1:3:0:0:
339,33,120323,1,4,1:3:0:0:
475,179,120639,6,0,L|422:197,1,47.9999985351563,0|0,1:0|3:0,0:0:0:0:
333,145,120954,2,0,L|297:194,1,47.9999985351563,0|0,3:0|1:0,0:0:0:0:
199,186,121270,2,0,L|177:249,2,47.9999985351563,2|2|2,3:2|3:2|3:2,0:0:0:0:
252,77,121744,6,0,P|295:34|404:33,1,160,4|0,1:2|3:0,0:0:0:0:
469,96,122218,2,0,P|499:58|514:27,1,80,0|0,1:0|0:0,0:0:0:0:
345,238,122533,1,4,1:2:0:0:
376,148,122691,2,0,P|376:104|372:67,1,80,0|0,3:0|1:0,0:0:0:0:
257,158,123007,2,0,P|198:113|85:131,1,160,4|0,1:2|3:0,0:0:0:0:
47,179,123481,1,0,1:0:0:0:
30,89,123639,1,0,3:0:0:0:
150,185,123797,1,0,3:0:0:0:
47,179,123954,5,0,3:0:0:0:
138,261,124112,1,0,1:0:0:0:
244,178,124270,1,0,3:0:0:0:
244,178,124349,1,0,3:0:0:0:
244,178,124428,2,0,P|321:161|401:204,1,160,4|0,1:2|1:0,0:0:0:0:
440,114,124902,2,0,P|469:89|496:57,1,80,0|0,3:0|3:0,0:0:0:0:
468,215,125218,2,0,P|426:206|381:189,1,80,0|0,3:0|1:0,0:0:0:0:
256,306,125533,2,0,P|293:269|309:201,1,120,4|0,1:2|0:0,0:0:0:0:
317,176,125849,2,0,P|312:116|303:95,1,80,0|0,3:0|1:0,0:0:0:0:
209,192,126165,5,0,3:0:0:0:
209,192,126244,1,0,3:0:0:0:
209,192,126323,1,0,3:0:0:0:
228,94,126481,1,0,3:0:0:0:
129,206,126639,1,0,1:0:0:0:
138,114,126797,1,0,3:0:0:0:
193,268,126954,6,0,P|137:315|125:327,1,80,4|0,1:2|0:0,0:0:0:0:
67,251,127270,1,0,1:2:0:0:
242,332,127428,2,0,P|299:341|351:343,1,80,0|0,3:0|3:0,0:0:0:0:
375,261,127744,2,0,P|318:252|266:250,1,80,0|0,3:0|1:2,0:0:0:0:
183,178,128060,2,0,P|160:137|194:27,1,160,4|0,1:2|3:0,0:0:0:0:
336,85,128533,1,0,1:2:0:0:
252,75,128691,1,0,3:0:0:0:
317,132,128849,5,0,3:0:0:0:
322,30,129007,1,0,3:0:0:0:
419,86,129165,2,0,P|423:136|420:191,1,80,0|0,1:2|0:0,0:0:0:0:
409,256,129481,5,4,1:2:0:0:
457,185,129639,1,0,3:0:0:0:
431,297,129797,1,0,1:2:0:0:
349,194,129954,2,0,P|309:218|262:228,1,80,0|0,3:0|3:0,0:0:0:0:
301,315,130270,2,0,L|199:306,1,80,0|0,3:0|1:2,0:0:0:0:
96,203,130586,2,0,P|170:232|249:205,1,160,4|0,1:2|3:0,0:0:0:0:
293,92,131060,6,0,P|248:88|204:93,1,80,0|0,1:2|0:0,0:0:0:0:
389,165,131376,2,0,L|427:70,1,80,0|0,3:0|3:0,0:0:0:0:
282,232,131691,2,0,L|252:306,1,80,0|0,1:0|1:0,0:0:0:0:
87,182,132007,6,0,L|199:155,1,80,4|0,1:2|0:0,0:0:0:0:
249,139,132323,1,4,1:2:0:0:
339,117,132481,1,2,3:2:0:0:
339,117,132560,1,0,3:0:0:0:
339,117,132639,1,0,3:0:0:0:
213,161,132797,2,0,L|233:52,1,80,2|0,3:2|1:2,0:0:0:0:
396,183,133112,2,0,P|441:180|478:171,1,80,2|0,3:2|3:0,0:0:0:0:
512,100,133428,1,2,3:2:0:0:
502,254,133586,6,0,P|432:270|397:270,1,80,0|2,1:2|3:2,0:0:0:0:
408,267,133823,1,0,3:0:0:0:
393,260,133902,1,0,3:0:0:0:
312,206,134060,1,2,3:2:0:0:
385,117,134218,1,0,1:2:0:0:
469,147,134376,1,2,3:2:0:0:
291,125,134533,2,0,P|241:125|208:127,1,80,4|2,1:2|3:2,0:0:0:0:
289,287,134849,6,0,P|339:287|372:285,1,80,0|2,1:2|0:0,0:0:0:0:
424,208,135165,1,4,1:2:0:0:
254,200,135323,2,0,P|204:200|171:202,1,80,2|0,3:2|1:2,0:0:0:0:
79,85,135639,2,0,B|125:113|176:119|176:119|209:90|254:76,1,160,4|0,1:2|3:0,0:0:0:0:
363,114,136112,2,0,P|422:124|453:133,1,80,0|0,1:2|3:0,0:0:0:0:
314,30,136428,1,0,3:0:0:0:
223,88,136586,1,0,3:0:0:0:
363,114,136744,1,0,1:2:0:0:
262,207,136902,5,0,1:2:0:0:
262,207,136981,1,0,1:0:0:0:
262,207,137060,2,0,P|207:239|111:212,1,160,4|0,1:2|1:2,0:0:0:0:
83,132,137533,2,0,P|73:83|69:50,1,80,0|0,3:0|3:0,0:0:0:0:
4,204,137849,2,0,P|14:253|18:286,1,80,0|0,3:0|1:2,0:0:0:0:
123,327,138165,6,0,P|183:340|252:286,1,120,4|0,1:2|0:0,0:0:0:0:
247,292,138481,1,0,3:0:0:0:
345,338,138639,2,0,P|404:321|429:319,1,80,0|0,1:2|0:0,0:0:0:0:
285,205,138954,2,0,P|340:214|376:229,1,80,0|0,3:0|3:0,0:0:0:0:
475,92,139270,2,0,P|471:138|461:181,1,80,0|0,1:2|0:0,0:0:0:0:
383,125,139586,5,4,1:2:0:0:
296,97,139744,2,0,P|255:92|217:91,1,80,0|0,3:0|1:2,0:0:0:0:
132,156,140060,1,0,3:0:0:0:
132,156,140139,1,0,3:0:0:0:
132,156,140218,2,0,L|89:84,2,80,0|0|0,3:0|3:0|1:2,0:0:0:0:
246,208,140691,2,0,P|326:179|411:237,1,160,4|0,1:2|3:0,0:0:0:0:
499,143,141165,2,0,P|490:201|479:238,1,80,0|0,1:2|1:2,0:0:0:0:
419,299,141481,6,0,L|456:342,3,40,4|0|0|0,1:2|1:0|1:2|1:2,0:0:0:0:
333,329,141797,2,0,L|324:374,3,40,0|0|0|0,1:2|1:2|1:2|1:2,0:0:0:0:
250,290,142112,2,0,P|203:281|170:280,1,80,4|0,1:2|0:0,0:0:0:0:
278,198,142428,2,0,P|199:203|120:148,1,160,0|0,1:2|3:0,0:0:0:0:
104,78,142902,1,0,3:0:0:0:
37,141,143060,1,0,1:2:0:0:
190,98,143218,6,0,L|357:54,1,160,0|0,3:0|3:0,0:0:0:0:
429,85,143691,1,0,1:2:0:0:
400,215,143849,2,0,P|340:160|253:176,1,160,0|0,3:0|3:0,0:0:0:0:
175,149,144323,2,0,P|126:159|88:161,1,80,0|0,1:2|0:0,0:0:0:0:
196,283,144639,5,0,3:0:0:0:
280,264,144797,2,0,L|375:278,1,80,0|0,3:0|1:2,0:0:0:0:
485,219,145112,2,0,P|416:218|337:127,1,160,0|0,3:0|3:0,0:0:0:0:
388,80,145586,1,0,1:2:0:0:
270,172,145744,2,0,P|246:117|276:23,1,160,0|0,3:0|3:0,0:0:0:0:
163,74,146218,2,0,L|69:52,1,80,0|0,1:2|0:0,0:0:0:0:
124,161,146533,2,0,L|27:183,1,80,0|0,3:0|3:0,0:0:0:0:
144,259,146849,2,0,L|90:333,1,80,0|0,1:2|0:0,0:0:0:0:
244,335,147165,6,0,L|417:298,1,160,4|0,3:2|1:2,0:0:0:0:
454,225,147639,2,0,L|479:132,2,80,0|0|0,3:0|3:0|3:0,0:0:0:0:
362,191,148112,1,0,1:2:0:0:
280,251,148270,2,0,P|181:262|105:227,1,160,0|0,3:0|3:0,0:0:0:0:
88,150,148744,2,0,P|129:156|171:174,1,80,0|0,1:2|0:0,0:0:0:0:
259,120,149060,2,0,P|218:74|207:55,1,80,0|0,3:0|3:0,0:0:0:0:
360,37,149376,2,0,P|375:90|379:117,1,80,0|0,1:2|0:0,0:0:0:0:
409,243,149691,5,0,3:0:0:0:
487,193,149849,2,0,P|495:153|489:107,1,80,0|0,3:0|1:2,0:0:0:0:
338,170,150165,2,0,P|272:150|193:158,1,120,0|0,3:0|0:0,0:0:0:0:
200,138,150481,2,0,P|145:134|116:122,1,80,0|0,3:0|1:2,0:0:0:0:
300,258,150797,2,0,P|216:239|131:287,1,160,0|0,3:0|3:0,0:0:0:0:
73,196,151270,6,0,L|22:154,2,53.3333333333333,2|2|2,1:2|3:2|3:2,0:0:0:0:
71,287,151586,2,0,L|7:286,2,53.3333333333333,0|0|0,1:0|1:0|1:0,0:0:0:0:
156,336,151902,2,0,L|118:374,2,53.3333333333333,0|0|0,1:0|1:0|1:0,0:0:0:0:
243,294,152218,2,0,P|291:286|342:266,1,80,4|0,1:2|0:0,0:0:0:0:
473,169,152533,2,0,P|391:180|316:139,1,160,4|0,1:2|3:0,0:0:0:0:
188,149,153007,5,0,3:0:0:0:
261,251,153165,1,2,1:0:0:0:
324,147,153323,2,2,P|265:82|162:70,1,160,2|2,3:1|3:1,0:1:0:0:
94,117,153797,2,0,L|120:35,1,80,2|0,1:0|0:0,0:0:0:0:
98,209,154112,1,0,3:0:0:0:
94,117,154270,5,2,3:1:0:0:
168,181,154428,1,2,1:0:0:0:
61,242,154586,1,2,3:1:0:0:
168,287,154744,1,4,3:2:0:0:
260,240,154902,2,0,L|273:191,2,40,0|0|2,3:0|3:0|1:0,0:0:0:0:
368,273,155218,1,0,3:0:0:0:
368,273,155297,1,0,3:0:0:0:
368,273,155376,1,2,3:1:0:0:
462,221,155533,2,0,P|471:162|471:133,1,80,0|2,3:0|1:0,0:0:0:0:
353,90,155849,6,0,P|395:41|498:43,1,160,2|2,3:1|3:1,0:0:0:0:
353,90,156323,2,0,L|276:70,1,80,0|2,1:2|3:1,0:0:0:0:
264,57,156560,1,0,3:0:0:0:
253,45,156639,2,0,P|206:48|149:52,1,80,2|0,3:1|3:0,0:0:0:0:
271,171,156954,2,0,P|318:168|375:164,1,80,0|0,1:0|0:0,0:0:0:0:
141,130,157270,5,4,1:2:0:0:
186,224,157428,1,0,3:0:0:0:
141,130,157586,2,0,P|96:101|58:83,1,80,2|0,1:0|3:0,0:0:0:0:
53,194,157902,1,2,3:1:0:0:
186,224,158060,2,0,P|245:206|267:197,1,80,0|0,3:0|1:2,0:0:0:0:
373,254,158376,5,2,3:1:0:0:
373,254,158454,1,2,3:1:0:0:
373,254,158533,2,0,P|425:269|451:281,2,80,2|0|2,3:1|3:0|1:0,0:0:0:0:
271,296,159007,1,0,3:0:0:0:
262,199,159165,1,2,3:1:0:0:
373,254,159323,1,0,3:0:0:0:
302,363,159481,2,2,P|238:376|212:377,1,80,2|0,1:0|0:0,0:1:0:0:
149,278,159797,6,0,P|128:213|171:118,1,160,4|2,3:2|1:0,0:0:0:0:
261,105,160270,2,0,P|251:154|234:195,1,80,2|0,3:1|3:0,0:0:0:0:
100,67,160586,2,2,P|145:45|179:36,2,80,2|2|2,3:1|1:0|3:1,0:1:0:0:
34,137,161060,2,0,L|9:186,2,53.3333333333333,0|0|0,3:0|3:0|3:0,0:0:0:0:
122,177,161376,2,0,L|157:224,2,53.3333333333333,0|0|0,3:0|3:0|3:0,0:0:0:0:
57,254,161691,6,0,L|66:337,1,80,0|0,3:0|0:0,0:0:0:0:
176,298,162007,2,0,L|185:381,1,80,0|0,3:0|0:0,0:0:0:0:
293,336,162323,1,4,3:2:0:0:
320,237,167376,6,0,L|340:294,1,47.9999985351563,0|0,3:0|0:0,0:0:0:0:
350,250,167691,2,0,L|295:272,1,47.9999985351563,0|0,0:0|3:0,0:0:0:0:
419,283,168007,2,0,P|433:223|419:171,2,95.9999970703126,0|0|0,1:0|0:0|3:0,0:0:0:0:
370,352,168797,2,0,L|268:360,1,95.9999970703126,0|0,3:0|3:0,0:0:0:0:
203,310,169270,2,0,P|162:299|93:304,1,95.9999970703126,0|0,1:0|3:0,0:0:0:0:
196,172,169902,6,0,L|223:123,1,47.9999985351563,0|0,3:0|0:0,0:0:0:0:
243,160,170218,2,0,L|187:174,1,47.9999985351563,0|0,0:0|3:0,0:0:0:0:
256,232,170533,2,0,P|302:235|361:261,2,95.9999970703126,0|0|0,1:0|3:0|3:0,0:0:0:0:
179,270,171323,2,0,P|152:268|115:257,1,47.9999985351563,0|0,0:0|1:0,0:0:0:0:
75,197,171639,1,0,3:0:0:0:
75,197,171718,1,0,3:0:0:0:
75,197,171797,2,0,L|70:132,1,47.9999985351563,0|0,1:0|0:0,0:0:0:0:
64,65,172112,1,0,3:0:0:0:
223,79,172428,6,0,L|342:99,1,120.000004577637,2|0,3:2|3:0,0:0:0:0:
504,69,173060,1,0,3:0:0:0:
449,224,173376,1,0,3:0:0:0:
288,175,173691,6,0,L|157:204,1,120.000004577637,2|2,3:0|3:0,0:0:0:0:
6,153,174323,1,2,3:0:0:0:
55,312,174639,1,2,3:0:0:0:
254,333,174954,5,4,1:3:0:0:
257,50,175270,1,4,1:3:0:0:
397,193,175586,1,4,1:3:0:0:
114,190,175902,1,4,1:3:0:0:
342,286,176218,5,0,1:0:0:0:
225,166,176376,2,0,L|189:114,1,60.0000022888184,0|0,3:0|3:0,0:0:0:0:
189,252,176691,5,0,1:0:0:0:
311,178,176849,2,0,L|351:132,1,60.0000022888184,2|2,1:2|1:2,0:0:0:0:
366,124,177086,1,0,1:0:0:0:
382,116,177165,1,2,1:2:0:0:
398,108,177244,1,0,1:0:0:0:
414,100,177323,1,4,1:2:0:0:
462,252,177639,5,0,3:0:0:0:
435,337,177797,2,0,P|491:334|519:322,2,80,0|0|4,1:0|3:0|1:2,0:0:0:0:
335,244,178270,1,0,3:0:0:0:
353,361,178428,1,0,1:0:0:0:
462,252,178586,2,0,P|484:192|447:94,1,160,4|0,1:2|3:0,0:0:0:0:
379,67,179060,2,0,L|288:87,1,80,0|0,1:0|3:0,0:0:0:0:
192,109,179376,5,0,3:0:0:0:
200,224,179533,1,0,3:0:0:0:
261,150,179691,1,0,1:0:0:0:
124,81,179849,1,0,3:0:0:0:
124,81,179928,1,0,3:0:0:0:
124,81,180007,2,0,P|96:137|138:243,1,160,4|0,1:2|1:0,0:0:0:0:
294,260,180481,2,0,P|300:205|288:152,1,80,0|0,3:0|3:0,0:0:0:0:
262,97,180797,2,0,L|309:28,1,80,0|0,3:0|1:0,0:0:0:0:
425,141,181112,6,0,P|441:185|435:277,1,120,4|0,1:2|0:0,0:0:0:0:
461,274,181428,2,0,P|429:313|400:326,1,80,0|0,3:0|1:0,0:0:0:0:
245,245,181744,1,0,0:0:0:0:
314,338,181902,2,0,P|331:260|309:181,1,160,0|0,3:0|1:0,0:0:0:0:
185,108,182376,1,0,3:0:0:0:
185,108,182454,1,0,3:0:0:0:
185,108,182533,2,0,P|178:161|192:203,1,80,4|0,1:2|0:0,0:0:0:0:
328,26,182849,5,0,1:2:0:0:
242,43,183007,2,0,L|165:16,1,80,0|0,3:0|3:0,0:0:0:0:
351,102,183323,2,0,P|414:90|436:81,1,80,0|0,3:0|1:2,0:0:0:0:
254,176,183639,2,0,P|192:186|130:266,1,160,4|0,1:2|3:0,0:0:0:0:
278,298,184112,6,0,P|328:279|357:263,1,80,0|0,1:2|0:0,0:0:0:0:
442,181,184428,2,0,P|448:227|444:277,1,80,0|0,3:0|3:0,0:0:0:0:
299,157,184744,2,0,P|286:97|295:34,1,120,0|0,1:2|0:0,0:0:0:0:
302,24,185060,1,4,1:2:0:0:
439,73,185218,6,0,P|384:81|351:83,1,80,0|0,3:0|1:2,0:0:0:0:
210,41,185533,1,0,3:0:0:0:
210,41,185612,1,0,3:0:0:0:
210,41,185691,2,0,P|210:92|215:126,1,80,0|0,3:0|3:0,0:0:0:0:
266,195,186007,1,0,1:2:0:0:
131,108,186165,2,0,P|113:179|158:265,1,160,4|0,1:2|3:0,0:0:0:0:
264,304,186639,6,0,L|329:354,1,80,0|0,1:2|1:0,0:0:0:0:
394,165,186954,2,0,L|320:207,1,80,0|0,1:0|1:0,0:0:0:0:
210,61,187270,2,0,L|324:83,1,80,0|0,1:0|1:0,0:0:0:0:
404,54,187586,5,4,1:2:0:0:
396,209,187744,1,0,3:0:0:0:
251,149,187902,1,4,1:2:0:0:
360,135,188060,1,2,3:2:0:0:
360,135,188139,1,0,3:0:0:0:
360,135,188218,2,0,P|433:127|451:122,1,80,0|2,3:0|3:2,1:2:0:0:
328,248,188533,1,0,1:0:0:0:
456,203,188691,2,0,P|476:257|471:339,1,120,2|0,3:2|0:0,0:0:0:0:
472,344,189007,1,2,3:2:0:0:
311,293,189165,5,0,1:2:0:0:
340,374,189323,1,2,3:2:0:0:
377,233,189481,1,0,3:2:0:0:
402,315,189639,1,2,3:2:0:0:
417,123,189797,5,0,1:2:0:0:
303,202,189954,1,2,3:2:0:0:
303,202,190033,1,0,3:0:0:0:
303,202,190112,2,0,P|225:200|206:193,1,80,4|2,1:2|3:2,0:0:0:0:
258,56,190428,5,0,1:2:0:0:
343,27,190586,1,2,3:2:0:0:
355,37,190665,1,0,3:0:0:0:
367,47,190744,1,4,1:2:0:0:
379,56,190823,1,0,1:0:0:0:
391,66,190902,1,2,1:2:0:0:
476,25,191060,1,0,1:2:0:0:
365,152,191218,6,0,B|336:152|311:163|311:163|279:148|266:115|266:115|276:96|272:77,1,160,4|0,1:2|3:0,0:0:0:0:
355,239,191691,2,0,P|373:281|381:318,1,80,0|0,1:2|3:0,0:0:0:0:
502,186,192007,2,0,P|458:219|430:235,1,80,0|0,3:0|3:0,0:0:0:0:
243,205,192323,5,0,1:2:0:0:
228,196,192402,1,0,3:0:0:0:
214,187,192481,1,0,1:2:0:0:
199,179,192560,1,0,1:2:0:0:
185,170,192639,2,0,P|159:108|189:19,1,160,4|0,1:2|1:2,0:0:0:0:
332,60,193112,2,0,P|277:66|243:66,1,80,0|0,3:0|3:0,0:0:0:0:
411,118,193428,1,0,3:0:0:0:
332,60,193586,1,0,1:2:0:0:
335,199,193744,2,0,P|369:247|347:353,1,160,4|0,1:2|3:0,0:0:0:0:
467,247,194218,6,0,L|451:341,1,80,0|0,1:0|0:0,0:0:0:0:
265,268,194533,2,0,L|286:370,1,80,0|0,3:0|3:0,0:0:0:0:
375,144,194849,2,0,L|286:183,1,80,0|0,1:2|0:0,0:0:0:0:
220,202,195165,1,4,1:2:0:0:
375,144,195323,2,0,P|410:162|458:183,1,80,0|0,3:0|1:2,0:0:0:0:
468,89,195639,5,0,3:0:0:0:
468,89,195718,1,0,3:0:0:0:
468,89,195797,2,0,P|432:70|385:50,1,80,0|0,3:0|3:0,0:0:0:0:
311,28,196112,1,0,1:2:0:0:
272,120,196270,2,0,P|206:93|170:12,1,160,4|0,1:2|3:0,0:0:0:0:
102,124,196744,2,0,P|96:75|94:41,1,80,0|0,1:2|1:2,0:0:0:0:
0,202,197060,2,0,P|7:145|19:71,2,120,0|0|0,1:0|1:0|1:0,0:0:0:0:
58,279,197691,6,0,L|207:309,1,143.999995605469,4|0,1:2|3:0,0:0:0:0:
127,205,198323,2,0,P|181:219|271:227,1,143.999995605469,0|0,1:0|3:0,0:0:0:0:
275,148,198954,2,0,P|278:117|278:96,1,47.9999985351563,0|0,3:0|1:0,0:0:0:0:
266,307,199270,2,0,P|263:338|263:359,1,47.9999985351563,0|0,3:0|1:0,0:0:0:0:
347,225,199586,1,0,1:0:0:0:
127,205,199902,1,0,1:0:0:0:
347,225,200218,6,0,P|420:226|460:232,1,95.9999970703126,0|0,1:0|3:0,0:0:0:0:
512,250,200691,1,0,1:0:0:0:
347,225,200849,2,0,P|274:224|234:218,1,95.9999970703126,0|0,1:0|1:0,0:0:0:0:
310,116,201323,2,0,P|369:107|459:121,1,143.999995605469,0|8,1:0|3:0,0:0:0:0:
512,177,201954,1,8,3:0:0:0:
512,177,202112,2,0,L|498:246,1,47.9999985351563,4|2,3:0|3:0,0:0:0:0:
367,266,202428,2,0,L|381:197,1,47.9999985351563,0|4,1:0|0:0,0:0:0:0:
408,80,202744,5,4,1:3:0:0:
408,80,203849,2,0,P|353:102|254:67,1,160,0|0,1:0|1:0,0:0:0:0:
172,32,204323,1,0,1:0:0:0:
61,46,204481,1,0,1:0:0:0:
128,156,204639,1,0,1:0:0:0:
240,146,204797,1,0,1:0:0:0:
319,248,204954,1,0,1:0:0:0:
208,262,205112,1,2,1:3:0:0:
208,262,206376,6,0,L|174:98,1,160,4|0,1:2|3:0,0:0:0:0:
285,150,206849,2,0,L|319:314,1,160,0|0,1:0|3:0,0:0:0:0:
410,192,207323,2,0,L|401:272,1,80,0|0,3:0|1:0,0:0:0:0:
493,139,207639,2,0,P|508:205|498:305,1,160,0|0,1:0|3:0,0:0:0:0:
441,358,208112,2,0,L|357:343,1,80,0|0,1:0|0:0,0:0:0:0:
299,249,208428,1,0,3:0:0:0:
401,271,208586,1,0,3:0:0:0:
332,160,208744,6,0,L|270:148,1,60.0000022888184,0|0,1:0|0:0,0:0:0:0:
357,75,209060,6,0,P|268:68|192:4,1,160,4|0,1:2|1:0,0:0:0:0:
95,37,209533,2,0,P|132:61|157:93,1,80,0|0,3:0|3:0,0:0:0:0:
191,166,209849,1,0,3:0:0:0:
181,251,210007,1,0,1:0:0:0:
279,191,210165,2,0,P|349:161|432:159,1,160,0|0,1:0|3:0,0:0:0:0:
500,234,210639,2,0,P|458:242|411:239,1,80,0|0,1:0|0:0,0:0:0:0:
338,264,210954,1,0,3:0:0:0:
257,293,211112,1,0,3:0:0:0:
216,138,211270,6,0,P|258:124|274:120,1,60.0000022888184,0|0,1:0|1:0,0:0:0:0:
124,233,211586,6,0,P|107:144|151:61,1,160,4|0,1:2|1:0,0:0:0:0:
213,221,212060,2,0,L|218:305,1,80,0|0,3:0|3:0,0:0:0:0:
343,191,212376,1,0,3:0:0:0:
327,278,212533,1,0,1:0:0:0:
447,193,212691,2,0,P|471:270|462:354,1,160,0|0,1:0|3:0,0:0:0:0:
373,337,213165,2,0,P|320:326|287:321,1,80,0|0,1:0|0:0,0:0:0:0:
219,183,213481,2,0,P|257:221|281:236,1,80,0|0,3:0|3:0,0:0:0:0:
440,122,213797,2,0,L|351:140,1,80,0|0,1:0|1:0,0:0:0:0:
294,61,214112,6,0,P|213:18|137:40,1,160,4|0,1:2|1:0,0:0:0:0:
55,72,214586,2,0,L|75:156,1,80,0|0,3:0|3:0,0:0:0:0:
217,182,214902,2,0,L|197:98,1,80,0|0,3:0|1:0,0:0:0:0:
98,263,215218,1,0,1:0:0:0:
98,263,215533,1,0,3:0:0:0:
216,298,215691,2,0,P|273:309|308:312,1,80,0|0,1:0|3:0,0:0:0:0:
310,308,215928,1,0,3:0:0:0:
325,304,216007,1,0,3:0:0:0:
377,225,216165,5,0,3:0:0:0:
440,315,216323,1,0,1:0:0:0:
470,174,216481,1,0,1:0:0:0:
392,112,216639,6,0,P|344:102|304:101,1,80,4|0,1:2|3:0,0:0:0:0:
230,107,216954,1,0,1:0:0:0:
174,41,217112,1,0,3:0:0:0:
138,124,217270,1,0,3:0:0:0:
217,194,217428,2,0,P|178:218|147:235,1,80,0|0,3:0|1:0,0:0:0:0:
315,174,217744,6,0,P|324:248|293:320,1,120,0|0,1:0|0:0,0:0:0:0:
298,311,218060,2,0,P|248:314|205:312,1,80,0|0,3:0|1:0,0:0:0:0:
401,299,218376,1,0,3:0:0:0:
401,299,218454,1,0,3:0:0:0:
401,299,218533,2,0,L|426:212,1,80,0|0,3:0|3:0,0:0:0:0:
468,124,218849,2,0,L|389:158,1,80,0|0,1:0|1:0,0:0:0:0:
282,195,219165,5,4,1:2:0:0:
312,111,219323,2,0,L|342:16,1,80,0|0,3:0|1:0,0:0:0:0:
211,148,219639,1,0,3:0:0:0:
211,148,219718,1,0,3:0:0:0:
211,148,219797,1,0,3:0:0:0:
234,60,219954,2,0,P|196:34|158:22,1,80,0|0,3:0|1:0,0:0:0:0:
77,67,220270,6,0,P|16:99|8:169,1,120,0|0,1:0|0:0,0:0:0:0:
14,166,220586,1,0,3:0:0:0:
133,226,220744,2,0,L|118:139,1,80,0|0,1:0|3:0,0:0:0:0:
119,147,220981,1,0,3:0:0:0:
119,147,221060,1,0,3:0:0:0:
223,179,221218,1,0,3:0:0:0:
307,201,221376,2,0,L|347:215,3,40,0|0|0|0,1:0|1:0|1:0|1:0,0:0:0:0:
283,122,221691,6,0,L|262:40,1,80,4|0,1:2|3:0,0:0:0:0:
408,148,222007,2,0,L|429:230,1,80,0|0,1:0|0:0,0:0:0:0:
380,52,222323,1,0,3:0:0:0:
283,122,222481,2,0,P|246:119|203:109,1,80,0|0,3:0|1:0,0:0:0:0:
187,192,222797,6,0,P|110:164|71:80,1,160,0|0,1:0|3:0,0:0:0:0:
15,185,223270,2,0,L|29:275,1,80,0|0,1:0|3:0,0:0:0:0:
27,264,223507,1,0,3:0:0:0:
27,264,223586,1,0,3:0:0:0:
124,305,223744,1,0,3:0:0:0:
237,249,223902,2,0,P|232:300|224:340,1,80,0|0,1:0|1:0,0:0:0:0:
140,199,224218,6,0,P|127:132|181:42,1,160,4|0,1:2|1:0,0:0:0:0:
254,100,224691,2,0,P|269:55|279:0,1,80,0|0,3:0|0:0,0:0:0:0:
356,76,225007,1,0,3:0:0:0:
442,140,225165,1,0,1:0:0:0:
355,204,225323,2,0,P|307:219|207:155,1,160,0|0,1:0|3:0,0:0:0:0:
176,93,225797,6,0,P|123:84|78:84,1,80,0|0,1:0|3:0,0:0:0:0:
96,83,226033,1,0,3:0:0:0:
96,83,226112,1,0,1:0:0:0:
3,163,226270,2,0,P|56:172|101:172,1,80,2|2,3:0|3:0,0:0:0:0:
215,171,226586,1,6,1:3:0:0:
