osu file format v14

[General]
AudioFilename: audio.mp3
AudioLeadIn: 0
PreviewTime: -1
Countdown: 0
SampleSet: Normal
StackLeniency: 0.4
Mode: 0
LetterboxInBreaks: 0
WidescreenStoryboard: 0

[Editor]
DistanceSpacing: 1
BeatDivisor: 4
GridSize: 8
TimelineZoom: 2.2

[Metadata]
Title:Watashi, Aidoru Sengen
TitleUnicode:┗|∵|┓私、アイドル宣言
Artist:CHiCO with HoneyWorks
ArtistUnicode:CHiCO with HoneyWorks
Creator:P4ndemonium
Version:1-2 1-2
Source:
Tags:
BeatmapID:1746590
BeatmapSetID:833808

[Difficulty]
HPDrainRate:3
CircleSize:3.8
OverallDifficulty:8.8
ApproachRate:9.4
SliderMultiplier:2
SliderTickRate:1

[Events]
//Background and Video events
0,0,"1-2idol.png",0,0
//Break Periods
2,60586,64679
2,75086,75846
//Storyboard Layer 0 (Background)
//Storyboard Layer 1 (Fail)
//Storyboard Layer 2 (Pass)
//Storyboard Layer 3 (Foreground)
//Storyboard Sound Samples

[TimingPoints]
17720,333.333333333333,4,1,0,50,1,0
23053,-200,4,1,0,50,0,0
25720,-100,4,1,0,50,0,0
28053,-200,4,1,0,50,0,0
28386,-100,4,1,0,50,0,0
39053,-153.846153846153,4,1,0,50,0,0
65719,-200,4,1,0,50,0,0
70386,-133.333333333333,4,1,0,50,0,0
76386,-100,4,1,0,50,0,1
97719,-200,4,1,0,50,0,0
99053,-100,4,1,0,50,0,0
100386,-133.333333333333,4,1,0,50,0,0
102719,-200,4,1,0,50,0,0

[HitObjects]
312,23,17720,6,0,P|276:57|229:75,1,100
84,100,18053,2,0,P|131:113|170:144,1,100
272,327,18386,1,0,0:0:0:0:
261,140,18553,2,0,P|268:189|256:237,1,100
186,358,18886,1,0,0:0:0:0:
358,212,19053,5,0,0:0:0:0:
415,355,19220,1,0,0:0:0:0:
415,142,19386,5,0,0:0:0:0:
292,338,19553,1,0,0:0:0:0:
490,267,19720,6,0,P|440:261|397:237,1,100
335,48,20053,2,0,P|378:23|427:18,1,100
270,167,20386,6,0,P|264:117|240:74,1,100
298,289,20720,2,0,P|319:244|357:211,1,100
137,384,21053,1,0,0:0:0:0:
168,247,21220,2,0,P|199:285|212:333,1,100
23,222,21553,1,0,0:0:0:0:
199,162,21720,5,0,0:0:0:0:
93,354,21886,1,0,0:0:0:0:
43,132,22053,5,0,0:0:0:0:
199,286,22220,1,0,0:0:0:0:
199,286,22303,1,0,0:0:0:0:
199,286,22386,1,0,0:0:0:0:
201,33,22553,1,0,0:0:0:0:
88,302,22720,1,0,0:0:0:0:
351,183,22886,1,0,0:0:0:0:
90,119,23053,6,0,P|133:142|182:146,1,100
239,202,23553,2,0,P|282:178|331:174,1,100
492,253,24386,6,0,P|448:276|399:280,1,100
343,336,24886,2,0,P|299:312|250:308,1,100
133,231,25386,1,0,0:0:0:0:
179,361,25553,1,0,0:0:0:0:
217,194,25720,6,0,P|230:146|261:107,1,100
406,285,26053,1,0,0:0:0:0:
380,141,26220,2,0,P|366:93|335:54,1,100
457,201,26553,2,0,P|470:153|501:114,1,100
503,347,26886,6,0,P|464:315|416:302,1,100
188,334,27220,5,0,0:0:0:0:
475,214,27386,1,0,0:0:0:0:
225,60,27553,5,0,0:0:0:0:
347,364,27720,1,0,0:0:0:0:
346,150,28053,6,0,P|366:118|373:82,1,75
331,166,28386,6,0,P|303:207|293:256,1,100
79,114,28720,1,0,0:0:0:0:
174,242,28886,2,0,P|201:283|211:332,1,100
103,103,29220,2,0,P|112:54|140:12,1,100
64,269,29553,6,0,P|105:241|154:231,1,100
360,104,29886,1,0,0:0:0:0:
275,296,30053,1,0,0:0:0:0:
151,126,30220,1,0,0:0:0:0:
421,171,30386,5,0,0:0:0:0:
171,216,30553,1,0,0:0:0:0:
453,277,30720,5,0,0:0:0:0:
251,142,30886,1,0,0:0:0:0:
492,42,31053,6,0,P|464:83|454:132,1,100
305,221,31386,1,0,0:0:0:0:
453,277,31553,2,0,P|431:232|393:199,1,100
268,125,31886,2,0,P|317:128|364:112,1,100
301,344,32220,6,0,P|268:306|224:285,1,100
148,133,32553,1,0,0:0:0:0:
305,221,32720,1,0,0:0:0:0:
94,323,32886,1,0,0:0:0:0:
137,86,33053,5,0,0:0:0:0:
224,285,33220,1,0,0:0:0:0:
267,66,33386,5,0,0:0:0:0:
141,242,33553,1,0,0:0:0:0:
348,134,33720,6,0,P|389:106|438:96,1,100
248,49,34053,1,0,0:0:0:0:
382,219,34220,2,0,P|423:246|472:256,1,100
267,66,34553,2,0,P|218:75|176:103,1,100
65,216,34886,1,0,0:0:0:0:
231,252,35053,6,0,P|198:214|154:193,1,100
256,370,35386,1,0,0:0:0:0:
101,384,35553,2,0,P|133:346|178:324,1,100
330,304,35886,2,0,P|285:282|252:244,1,100
219,76,36220,1,0,0:0:0:0:
437,198,36386,5,0,0:0:0:0:
160,142,36553,1,0,0:0:0:0:
362,0,36720,5,0,0:0:0:0:
211,231,36886,1,0,0:0:0:0:
211,231,36970,1,0,0:0:0:0:
211,231,37053,1,0,0:0:0:0:
235,37,37220,5,0,0:0:0:0:
352,218,37386,1,0,0:0:0:0:
114,122,37553,1,0,0:0:0:0:
256,192,37636,12,0,38720,0:0:0:0:
70,99,39053,6,0,B|138:92|117:138|192:127,1,129.999994049073
267,80,39553,1,0,0:0:0:0:
327,145,39720,2,0,P|310:172|300:203,1,64.9999970245363
226,252,40053,2,0,P|242:279|252:310,1,64.9999970245363
385,335,40386,6,0,B|378:266|424:287|413:212,1,129.999994049073
349,152,40886,1,0,0:0:0:0:
449,48,41053,2,0,P|421:64|390:74,1,64.9999970245363
271,132,41386,2,0,P|302:142|330:159,1,64.9999970245363
137,49,41720,6,0,P|150:78|160:109,1,64.9999970245363
205,169,42053,2,0,P|191:198|181:229,1,64.9999970245363
229,288,42386,6,0,P|258:274|289:264,1,64.9999970245363
349,220,42719,2,0,P|378:233|409:243,1,64.9999970245363
509,337,43053,6,0,B|440:330|461:376|386:365,1,129.999994049073
276,326,43553,2,0,P|292:353|302:384,1,64.9999970245363
211,268,43886,6,0,P|220:237|237:209,2,64.9999970245363
135,308,44386,1,0,0:0:0:0:
26,188,44553,2,0,P|16:157|0:129,2,64.9999970245363
102,228,45053,1,0,0:0:0:0:
140,86,45219,6,0,P|110:99|79:109,2,64.9999970245363
209,137,45719,1,0,0:0:0:0:
322,11,45886,2,0,P|351:24|382:34,2,64.9999970245363
253,62,46386,1,0,0:0:0:0:
419,222,46719,6,0,P|428:191|445:163,1,64.9999970245363
341,286,47053,6,0,P|326:223|289:169,1,129.999994049073
170,347,47553,2,0,P|184:284|221:230,1,129.999994049073
94,281,48053,2,0,P|84:250|67:222,1,64.9999970245363
0,116,48386,6,0,B|110:93|79:169|185:147,1,194.999991073609
274,69,49053,2,0,P|283:38|300:10,1,64.9999970245363
197,129,49386,2,0,P|187:98|171:71,1,64.9999970245363
306,185,49719,6,0,B|246:174|247:224|183:213,1,129.999994049073
294,268,50219,1,0,0:0:0:0:
228,319,50386,2,0,P|200:302|169:292,1,64.9999970245363
113,355,50719,2,0,P|85:371|54:381,1,64.9999970245363
58,151,51053,6,0,B|47:211|97:210|87:274,1,129.999994049073
141,165,51553,1,0,0:0:0:0:
198,228,51719,2,0,P|225:244|256:254,1,64.9999970245363
359,155,52053,2,0,P|331:172|301:182,1,64.9999970245363
498,228,52386,6,0,P|484:198|474:167,1,64.9999970245363
430,108,52719,2,0,P|443:78|453:47,1,64.9999970245363
291,275,53053,6,0,P|304:245|314:214,1,64.9999970245363
359,155,53386,2,0,P|345:125|335:94,1,64.9999970245363
276,292,53719,6,0,B|216:281|217:331|153:320,1,129.999994049073
82,266,54219,2,0,P|72:235|55:207,1,64.9999970245363
177,96,54553,6,0,P|160:123|150:154,2,64.9999970245363
74,194,55053,1,0,0:0:0:0:
265,73,55219,6,0,P|281:100|291:131,2,64.9999970245363
368,171,55719,1,0,0:0:0:0:
262,269,55886,6,0,P|291:255|322:245,2,64.9999970245363
387,301,56386,1,0,0:0:0:0:
207,200,56553,6,0,P|177:186|146:176,2,64.9999970245363
82,232,57053,1,0,0:0:0:0:
286,163,57386,6,0,P|295:132|312:104,1,64.9999970245363
172,55,57719,6,0,P|195:90|210:131,1,86.6666626993817
130,216,58053,2,0,P|137:195|147:176,2,43.3333313496908
155,288,58386,6,0,P|190:311|231:326,1,86.6666626993817
316,247,58720,2,0,P|295:253|275:263,2,43.3333313496908
382,287,59053,5,0,0:0:0:0:
396,305,59386,6,0,P|417:311|437:321,2,43.3333313496908
512,233,59719,6,0,P|491:239|471:249,2,43.3333313496908
423,150,60053,6,0,P|444:156|464:166,2,43.3333313496908
474,82,60386,5,0,0:0:0:0:
109,74,65219,6,0,P|101:88|95:103,1,32.4999985122681
77,115,65386,6,0,P|97:159|107:206,1,97.4999955368044
86,282,65719,6,0,L|135:290,1,50
189,347,66053,2,0,L|238:338,1,50
294,283,66386,2,0,L|343:291,1,50
397,348,66720,2,0,L|446:339,1,50
352,242,67053,6,0,L|343:291,1,50
432,202,67386,2,0,L|441:252,1,50
324,111,67719,2,0,L|315:160,1,50
404,71,68052,2,0,L|412:120,1,50
441,252,68386,6,0,L|391:260,1,50
338,317,68720,2,0,L|288:308,1,50
233,253,69053,2,0,L|183:261,1,50
130,318,69387,2,0,L|80:309,1,50
175,212,69720,6,0,L|183:261,1,50
94,172,70053,2,0,L|85:221,1,50
181,91,70386,6,0,P|217:82|250:65,1,75.0000028610231
368,165,70719,2,0,P|334:148|298:139,1,75.0000028610231
512,105,71053,6,0,P|464:161|446:234,1,150.000005722046
512,293,71553,1,0,0:0:0:0:
409,359,71719,2,0,P|375:375|339:384,1,75.0000028610231
235,276,72053,2,0,P|271:284|304:301,1,75.0000028610231
128,344,72386,6,0,P|119:307|102:274,1,75.0000028610231
174,216,72719,1,0,0:0:0:0:
174,216,72886,2,0,P|182:179|199:146,1,75.0000028610231
72,84,73219,1,0,0:0:0:0:
72,84,73303,1,0,0:0:0:0:
72,84,73386,2,0,P|109:82|145:71,1,75.0000028610231
426,269,73719,5,0,0:0:0:0:
203,151,73886,1,0,0:0:0:0:
467,113,74053,5,0,0:0:0:0:
235,236,74219,1,0,0:0:0:0:
424,31,74386,5,0,0:0:0:0:
410,355,74553,1,0,0:0:0:0:
145,221,74719,5,0,0:0:0:0:
499,117,74886,1,0,0:0:0:0:
115,42,76386,6,0,P|156:69|205:78,1,100
334,130,76719,2,0,P|285:139|243:166,1,100
127,287,77053,1,0,0:0:0:0:
383,208,77219,2,0,P|431:217|473:244,1,100
205,78,77553,5,0,0:0:0:0:
301,253,77719,2,0,P|273:294|264:343,1,100
459,133,78053,2,0,P|449:84|422:42,1,100
176,271,78386,5,0,0:0:0:0:
383,208,78553,1,0,0:0:0:0:
110,212,78719,5,0,0:0:0:0:
339,322,78886,1,0,0:0:0:0:
281,114,79053,6,0,P|247:150|228:196,1,100
142,310,79386,2,0,P|124:263|90:227,1,100
201,381,79719,1,0,0:0:0:0:
245,211,79886,2,0,P|262:164|296:128,1,100
352,304,80219,5,0,0:0:0:0:
183,122,80386,2,0,P|141:94|92:85,1,100
365,286,80719,2,0,P|406:258|455:249,1,100
265,84,81053,5,0,0:0:0:0:
148,314,81219,1,0,0:0:0:0:
183,122,81386,5,0,0:0:0:0:
266,330,81553,1,0,0:0:0:0:
366,84,81719,6,0,P|407:56|456:47,1,100
195,24,82053,1,0,0:0:0:0:
341,169,82219,2,0,P|343:218|327:265,1,100
80,284,82553,2,0,B|198:266|155:347|266:329,1,200
117,192,83053,6,0,P|75:164|26:155,1,100
282,316,83386,1,0,0:0:0:0:
274,90,83553,2,0,P|232:117|183:126,1,100
489,221,83886,2,0,B|370:238|413:157|302:175,1,200
162,290,84386,5,0,0:0:0:0:
376,147,84553,1,0,0:0:0:0:
141,53,84719,5,0,0:0:0:0:
248,339,84886,1,0,0:0:0:0:
393,133,85053,5,0,0:0:0:0:
61,96,85219,1,0,0:0:0:0:
61,96,85303,1,0,0:0:0:0:
61,96,85386,1,0,0:0:0:0:
264,355,85553,6,0,P|305:327|354:318,1,100
350,154,85886,5,0,0:0:0:0:
432,364,86053,1,0,0:0:0:0:
477,95,86219,5,0,0:0:0:0:
354,318,86386,1,0,0:0:0:0:
333,291,86469,1,0,0:0:0:0:
306,272,86552,1,0,0:0:0:0:
275,261,86635,1,0,0:0:0:0:
242,260,86719,1,0,0:0:0:0:
210,269,86802,1,0,0:0:0:0:
182,287,86886,2,0,P|160:299|136:306,1,50
0,147,87053,5,0,0:0:0:0:
65,354,87219,1,0,0:0:0:0:
123,116,87386,5,0,0:0:0:0:
0,299,87553,1,0,0:0:0:0:
141,131,87719,5,0,0:0:0:0:
206,338,87885,1,0,0:0:0:0:
264,100,88052,5,0,0:0:0:0:
141,283,88219,1,0,0:0:0:0:
362,255,88386,5,0,0:0:0:0:
123,116,88553,1,0,0:0:0:0:
374,92,88719,5,0,0:0:0:0:
79,197,88886,1,0,0:0:0:0:
373,348,89053,6,0,P|414:375|463:384,1,100
232,228,89386,2,0,P|183:237|141:264,1,100
390,122,89719,5,0,0:0:0:0:
271,311,89886,1,0,0:0:0:0:
273,84,90053,5,0,0:0:0:0:
360,333,90219,1,0,0:0:0:0:
190,124,90386,5,0,0:0:0:0:
71,313,90553,1,0,0:0:0:0:
73,86,90720,5,0,0:0:0:0:
160,335,90886,1,0,0:0:0:0:
280,64,91053,5,0,0:0:0:0:
1,241,91219,1,0,0:0:0:0:
321,254,91386,5,0,0:0:0:0:
51,98,91553,1,0,0:0:0:0:
322,37,91719,6,0,P|363:9|412:0,1,100
201,203,92053,2,0,P|152:193|110:166,1,100
400,299,92386,5,0,0:0:0:0:
305,22,92553,1,0,0:0:0:0:
194,294,92719,5,0,0:0:0:0:
427,64,92886,1,0,0:0:0:0:
111,166,93053,5,0,0:0:0:0:
420,309,93219,1,0,0:0:0:0:
293,5,93386,5,0,0:0:0:0:
127,350,93553,1,0,0:0:0:0:
464,342,93719,5,0,0:0:0:0:
61,295,93886,1,0,0:0:0:0:
474,250,94053,5,0,0:0:0:0:
71,203,94220,1,0,0:0:0:0:
484,158,94386,5,0,0:0:0:0:
81,111,94553,1,0,0:0:0:0:
494,66,94719,5,0,0:0:0:0:
91,19,94886,1,0,0:0:0:0:
372,317,95053,5,0,0:0:0:0:
223,53,95219,1,0,0:0:0:0:
223,53,95303,1,0,0:0:0:0:
223,53,95386,1,0,0:0:0:0:
185,294,95553,1,0,0:0:0:0:
379,137,95719,1,0,0:0:0:0:
249,180,95886,1,0,0:0:0:0:
249,180,95969,1,0,0:0:0:0:
249,180,96053,1,0,0:0:0:0:
386,337,96219,6,0,P|427:309|476:300,1,100
357,94,96553,1,0,0:0:0:0:
309,294,96719,1,0,0:0:0:0:
203,66,96886,1,0,0:0:0:0:
155,266,97053,6,0,L|146:216,1,50
342,112,97219,2,0,L|333:161,1,50
105,0,97386,1,0,0:0:0:0:
342,112,97719,6,0,P|383:84|432:75,1,100
344,224,98219,2,0,P|303:196|254:187,1,100
398,341,99053,6,0,L|406:291,1,50
256,192,99386,5,0,0:0:0:0:
114,341,99553,2,0,L|105:291,1,50
350,147,99886,5,0,0:0:0:0:
246,295,100053,1,0,0:0:0:0:
169,132,100219,1,0,0:0:0:0:
287,378,100386,6,0,P|318:356|354:346,1,75.0000028610231
360,241,100719,1,0,0:0:0:0:
360,241,100886,2,0,P|390:262|426:272,1,75.0000028610231
429,177,101219,2,0,P|459:155|495:145,1,75.0000028610231
256,40,101553,1,0,0:0:0:0:
160,280,101886,5,0,0:0:0:0:
112,104,102053,1,0,0:0:0:0:
352,280,102219,1,0,0:0:0:0:
400,104,102386,1,0,0:0:0:0:
256,160,102719,6,0,L|256:85,1,75
256,192,103053,1,0,0:0:0:0:
