osu file format v14

[General]
AudioFilename: 04 Track 4.mp3
AudioLeadIn: 0
PreviewTime: 761
Countdown: 0
SampleSet: Normal
StackLeniency: 0.7
Mode: 1
LetterboxInBreaks: 0
WidescreenStoryboard: 0

[Editor]
DistanceSpacing: 0.9
BeatDivisor: 4
GridSize: 32
TimelineZoom: 1.1

[Metadata]
Title:Sekai wa Koi ni Ochiteiru
TitleUnicode:世界は恋に落ちている
Artist:CHiCO with HoneyWorks
ArtistUnicode:CHiCO with HoneyWorks
Creator:newyams99
Version:Oni
Source:アオハライド
Tags:sekai ha wa ai ni michiteiru aoha ride aoharu op opening
BeatmapID:861612
BeatmapSetID:395976

[Difficulty]
HPDrainRate:5
CircleSize:2
OverallDifficulty:5
ApproachRate:5
SliderMultiplier:1.4
SliderTickRate:1

[Events]
//Background and Video events
0,0,"BG.jpg",0,50
//Break Periods
//Storyboard Layer 0 (Background)
//Storyboard Layer 1 (Fail)
//Storyboard Layer 2 (Pass)
//Storyboard Layer 3 (Foreground)
//Storyboard Sound Samples

[TimingPoints]
761,461.538461538462,4,1,0,40,1,0
761,-133.333333333333,4,1,0,40,0,0
15530,-100,4,1,0,80,0,0
30299,-100,4,1,0,60,0,0
67222,-90.9090909090909,4,1,0,80,0,1
81530,-90.9090909090909,4,1,0,80,0,0
81991,-90.9090909090909,4,1,0,80,0,1
94914,-90.9090909090909,4,1,0,50,0,0
96761,-100,4,1,0,80,0,0
111530,-100,4,1,0,60,0,0
146607,-90.9090909090909,4,1,0,80,0,1
160914,-90.9090909090909,4,1,0,80,0,0
161376,-90.9090909090909,4,1,0,80,0,1
174299,-90.9090909090909,4,1,0,50,0,0
176145,-200,4,1,0,30,0,0
177991,-200,4,1,0,30,0,0
189068,-133.333333333333,4,1,0,30,0,0
203837,-111.111111111111,4,1,0,50,0,0
218607,-90.9090909090909,4,1,0,80,0,1
233376,-100,4,1,0,60,0,0
248145,-100,4,1,0,50,0,0
260837,-200,4,1,0,30,0,0
261991,-200,4,1,0,40,0,0
262107,-83.3333333333333,4,1,0,50,0,0
262914,-83.3333333333333,4,1,0,80,0,1
277222,-83.3333333333333,4,1,0,80,0,0
277684,-83.3333333333333,4,1,0,80,0,1
290607,-83.3333333333333,4,1,0,50,0,0
292453,-100,4,1,0,80,0,1
307107,-100,4,1,0,80,0,0

[HitObjects]
256,192,761,5,2,0:0:0:0:
256,192,2145,1,2,0:0:0:0:
256,192,2607,1,2,0:0:0:0:
256,192,3530,1,0,0:0:0:0:
256,192,4453,1,2,0:0:0:0:
256,192,5145,1,0,0:0:0:0:
256,192,5376,1,2,0:0:0:0:
256,192,5837,1,0,0:0:0:0:
256,192,6299,1,2,0:0:0:0:
256,192,7222,1,2,0:0:0:0:
256,192,7453,1,2,0:0:0:0:
256,192,7684,1,0,0:0:0:0:
256,192,8145,1,2,0:0:0:0:
256,192,9068,1,0,0:0:0:0:
256,192,9530,1,2,0:0:0:0:
256,192,9991,1,0,0:0:0:0:
256,192,10914,1,2,0:0:0:0:
256,192,11376,1,0,0:0:0:0:
256,192,11837,1,2,0:0:0:0:
256,192,13684,1,2,0:0:0:0:
256,192,15530,1,4,0:0:0:0:
256,192,15876,1,0,0:0:0:0:
256,192,15991,1,2,0:0:0:0:
256,192,16222,1,0,0:0:0:0:
256,192,16684,1,0,0:0:0:0:
256,192,16914,1,2,0:0:0:0:
256,192,17376,1,0,0:0:0:0:
256,192,17722,1,0,0:0:0:0:
256,192,17837,1,2,0:0:0:0:
256,192,18068,1,0,0:0:0:0:
256,192,18299,1,2,0:0:0:0:
256,192,18414,1,2,0:0:0:0:
256,192,18530,1,0,0:0:0:0:
256,192,18761,1,2,0:0:0:0:
256,192,19222,1,0,0:0:0:0:
256,192,19568,1,0,0:0:0:0:
256,192,19684,1,2,0:0:0:0:
256,192,19914,1,0,0:0:0:0:
256,192,20145,1,2,0:0:0:0:
256,192,20261,1,2,0:0:0:0:
256,192,20376,1,0,0:0:0:0:
256,192,20607,1,2,0:0:0:0:
256,192,20722,1,0,0:0:0:0:
256,192,21068,1,0,0:0:0:0:
256,192,21414,1,0,0:0:0:0:
256,192,21530,1,2,0:0:0:0:
256,192,21761,1,0,0:0:0:0:
256,192,21991,1,0,0:0:0:0:
256,192,22107,1,2,0:0:0:0:
256,192,22222,1,0,0:0:0:0:
256,192,22453,1,2,0:0:0:0:
256,192,22568,1,2,0:0:0:0:
256,192,22799,1,0,0:0:0:0:
256,192,22914,1,2,0:0:0:0:
256,192,23261,1,0,0:0:0:0:
256,192,23376,1,2,0:0:0:0:
256,192,23607,1,0,0:0:0:0:
256,192,23837,1,2,0:0:0:0:
256,192,23953,1,2,0:0:0:0:
256,192,24068,1,0,0:0:0:0:
256,192,24299,1,2,0:0:0:0:
256,192,24761,1,0,0:0:0:0:
256,192,25107,1,0,0:0:0:0:
256,192,25222,1,2,0:0:0:0:
256,192,25453,1,0,0:0:0:0:
256,192,25684,1,0,0:0:0:0:
256,192,25799,1,0,0:0:0:0:
256,192,25914,1,0,0:0:0:0:
256,192,26145,1,2,0:0:0:0:
256,192,26607,1,0,0:0:0:0:
256,192,26953,1,0,0:0:0:0:
256,192,27068,1,2,0:0:0:0:
256,192,27299,1,0,0:0:0:0:
256,192,27530,1,2,0:0:0:0:
256,192,27645,1,2,0:0:0:0:
256,192,27761,1,0,0:0:0:0:
256,192,27991,1,2,0:0:0:0:
256,192,28453,1,0,0:0:0:0:
256,192,28799,1,0,0:0:0:0:
256,192,28914,1,2,0:0:0:0:
256,192,29145,1,2,0:0:0:0:
256,192,29222,1,2,0:0:0:0:
256,192,29299,1,2,0:0:0:0:
256,192,29376,1,0,0:0:0:0:
256,192,29491,1,0,0:0:0:0:
256,192,29607,1,0,0:0:0:0:
256,192,29722,1,2,0:0:0:0:
256,192,29837,1,0,0:0:0:0:
256,192,30068,1,0,0:0:0:0:
256,192,30299,1,4,0:0:0:0:
256,192,30530,1,0,0:0:0:0:
256,192,30645,1,2,0:0:0:0:
256,192,30876,1,2,0:0:0:0:
256,192,30991,1,0,0:0:0:0:
256,192,31222,1,0,0:0:0:0:
256,192,31453,1,0,0:0:0:0:
256,192,31684,1,2,0:0:0:0:
256,192,31914,1,0,0:0:0:0:
256,192,32145,1,2,0:0:0:0:
256,192,32376,1,0,0:0:0:0:
256,192,32491,1,2,0:0:0:0:
256,192,32607,1,0,0:0:0:0:
256,192,32837,1,0,0:0:0:0:
256,192,33068,1,2,0:0:0:0:
256,192,33299,1,0,0:0:0:0:
256,192,33530,1,2,0:0:0:0:
256,192,33761,1,2,0:0:0:0:
256,192,33991,1,0,0:0:0:0:
256,192,34453,1,2,0:0:0:0:
256,192,34684,1,0,0:0:0:0:
256,192,34799,1,0,0:0:0:0:
256,192,34914,1,0,0:0:0:0:
256,192,35030,1,0,0:0:0:0:
256,192,35145,1,0,0:0:0:0:
256,192,35376,1,2,0:0:0:0:
256,192,35607,1,2,0:0:0:0:
256,192,35722,1,0,0:0:0:0:
256,192,35837,1,0,0:0:0:0:
256,192,36068,1,0,0:0:0:0:
256,192,36299,1,2,0:0:0:0:
256,192,36530,1,0,0:0:0:0:
256,192,36645,1,0,0:0:0:0:
256,192,36761,1,0,0:0:0:0:
256,192,36876,1,0,0:0:0:0:
256,192,36991,1,2,0:0:0:0:
256,192,37222,1,2,0:0:0:0:
256,192,37684,1,2,0:0:0:0:
256,192,37914,1,0,0:0:0:0:
256,192,38030,1,2,0:0:0:0:
256,192,38261,1,2,0:0:0:0:
256,192,38376,1,0,0:0:0:0:
256,192,38607,1,0,0:0:0:0:
256,192,38837,1,0,0:0:0:0:
256,192,39068,1,2,0:0:0:0:
256,192,39299,1,0,0:0:0:0:
256,192,39530,1,2,0:0:0:0:
256,192,39761,1,0,0:0:0:0:
256,192,39876,1,2,0:0:0:0:
256,192,39991,1,0,0:0:0:0:
256,192,40222,1,2,0:0:0:0:
256,192,40453,1,2,0:0:0:0:
256,192,40684,1,0,0:0:0:0:
256,192,40914,1,2,0:0:0:0:
256,192,41145,1,2,0:0:0:0:
256,192,41376,1,0,0:0:0:0:
256,192,41607,1,0,0:0:0:0:
256,192,41837,1,2,0:0:0:0:
256,192,42068,1,0,0:0:0:0:
256,192,42530,1,2,0:0:0:0:
256,192,42645,1,0,0:0:0:0:
256,192,42761,1,2,0:0:0:0:
256,192,42876,1,2,0:0:0:0:
256,192,42991,1,0,0:0:0:0:
256,192,43107,1,0,0:0:0:0:
256,192,43222,1,2,0:0:0:0:
256,192,43453,1,0,0:0:0:0:
256,192,43684,1,2,0:0:0:0:
256,192,43914,1,0,0:0:0:0:
256,192,44030,1,0,0:0:0:0:
256,192,44145,1,0,0:0:0:0:
256,192,44261,1,2,0:0:0:0:
256,192,44376,1,0,0:0:0:0:
256,192,44607,1,2,0:0:0:0:
256,192,44837,1,0,0:0:0:0:
256,192,44953,1,0,0:0:0:0:
256,192,45068,1,2,0:0:0:0:
256,192,45299,1,0,0:0:0:0:
256,192,45530,1,2,0:0:0:0:
256,192,45761,1,2,0:0:0:0:
256,192,45876,1,2,0:0:0:0:
256,192,45991,1,0,0:0:0:0:
256,192,46107,1,0,0:0:0:0:
256,192,46222,1,0,0:0:0:0:
256,192,46453,1,2,0:0:0:0:
256,192,46684,1,0,0:0:0:0:
256,192,46799,1,0,0:0:0:0:
256,192,46914,1,2,0:0:0:0:
256,192,47145,1,0,0:0:0:0:
256,192,47376,1,2,0:0:0:0:
256,192,47607,1,2,0:0:0:0:
256,192,47722,1,2,0:0:0:0:
256,192,47837,1,0,0:0:0:0:
256,192,47953,1,0,0:0:0:0:
256,192,48068,1,0,0:0:0:0:
256,192,48299,1,2,0:0:0:0:
256,192,48530,1,2,0:0:0:0:
256,192,48645,1,2,0:0:0:0:
256,192,48761,1,0,0:0:0:0:
256,192,48991,1,0,0:0:0:0:
256,192,49222,1,2,0:0:0:0:
256,192,49453,1,0,0:0:0:0:
256,192,49914,1,0,0:0:0:0:
256,192,50145,1,2,0:0:0:0:
256,192,50376,1,0,0:0:0:0:
256,192,50837,1,0,0:0:0:0:
256,192,51068,1,2,0:0:0:0:
256,192,51299,1,2,0:0:0:0:
256,192,51530,1,0,0:0:0:0:
256,192,51645,1,0,0:0:0:0:
256,192,51761,1,0,0:0:0:0:
256,192,51991,1,2,0:0:0:0:
256,192,52222,1,2,0:0:0:0:
256,192,52337,1,2,0:0:0:0:
256,192,52453,1,0,0:0:0:0:
256,192,52684,1,0,0:0:0:0:
256,192,52914,1,2,0:0:0:0:
256,192,53145,1,0,0:0:0:0:
256,192,53376,1,2,0:0:0:0:
256,192,53837,1,2,0:0:0:0:
256,192,54068,1,0,0:0:0:0:
256,192,54299,1,2,0:0:0:0:
256,192,54530,1,0,0:0:0:0:
256,192,54761,1,2,0:0:0:0:
256,192,54991,1,2,0:0:0:0:
256,192,55107,1,0,0:0:0:0:
256,192,55222,1,2,0:0:0:0:
256,192,55453,1,0,0:0:0:0:
256,192,55684,1,2,0:0:0:0:
256,192,56145,1,2,0:0:0:0:
256,192,56376,1,0,0:0:0:0:
256,192,56607,1,2,0:0:0:0:
256,192,56837,1,2,0:0:0:0:
256,192,56953,1,0,0:0:0:0:
256,192,57068,1,2,0:0:0:0:
256,192,57299,1,0,0:0:0:0:
256,192,57530,1,2,0:0:0:0:
256,192,57761,1,0,0:0:0:0:
256,192,57876,1,0,0:0:0:0:
256,192,57991,1,2,0:0:0:0:
256,192,58222,1,2,0:0:0:0:
256,192,58453,1,2,0:0:0:0:
256,192,58684,1,0,0:0:0:0:
256,192,58799,1,0,0:0:0:0:
256,192,58914,1,2,0:0:0:0:
256,192,59145,1,0,0:0:0:0:
256,192,59376,1,2,0:0:0:0:
256,192,59607,1,0,0:0:0:0:
256,192,59722,1,0,0:0:0:0:
256,192,59837,1,0,0:0:0:0:
256,192,60068,1,0,0:0:0:0:
256,192,60299,1,2,0:0:0:0:
256,192,60530,1,2,0:0:0:0:
256,192,60991,1,0,0:0:0:0:
256,192,61222,1,2,0:0:0:0:
256,192,61453,1,0,0:0:0:0:
256,192,61568,1,0,0:0:0:0:
256,192,61684,1,0,0:0:0:0:
256,192,61914,1,0,0:0:0:0:
256,192,62145,1,2,0:0:0:0:
256,192,62376,1,2,0:0:0:0:
256,192,62491,1,2,0:0:0:0:
256,192,62607,1,0,0:0:0:0:
256,192,62837,1,0,0:0:0:0:
256,192,62953,1,0,0:0:0:0:
256,192,63068,1,2,0:0:0:0:
256,192,63184,1,2,0:0:0:0:
256,192,63299,1,0,0:0:0:0:
256,192,63530,1,2,0:0:0:0:
256,192,65376,12,0,66991,0:0:0:0:
256,192,67222,5,4,0:0:0:0:
256,192,67568,1,0,0:0:0:0:
256,192,67684,1,2,0:0:0:0:
256,192,67914,1,0,0:0:0:0:
256,192,68030,1,0,0:0:0:0:
256,192,68145,1,2,0:0:0:0:
256,192,68261,1,0,0:0:0:0:
256,192,68491,1,2,0:0:0:0:
256,192,68607,1,0,0:0:0:0:
256,192,68837,1,0,0:0:0:0:
256,192,69068,1,2,0:0:0:0:
256,192,69414,1,0,0:0:0:0:
256,192,69530,1,2,0:0:0:0:
256,192,69761,1,0,0:0:0:0:
256,192,69876,1,0,0:0:0:0:
256,192,69991,1,2,0:0:0:0:
256,192,70107,1,0,0:0:0:0:
256,192,70337,1,2,0:0:0:0:
256,192,70453,1,0,0:0:0:0:
256,192,70684,1,0,0:0:0:0:
256,192,70914,1,2,0:0:0:0:
256,192,71261,1,0,0:0:0:0:
256,192,71376,1,2,0:0:0:0:
256,192,71607,1,0,0:0:0:0:
256,192,71722,1,0,0:0:0:0:
256,192,71837,1,2,0:0:0:0:
256,192,71953,1,2,0:0:0:0:
256,192,72184,1,0,0:0:0:0:
256,192,72299,1,2,0:0:0:0:
256,192,72530,1,0,0:0:0:0:
256,192,72645,1,0,0:0:0:0:
256,192,72761,1,0,0:0:0:0:
256,192,72991,1,0,0:0:0:0:
256,192,73107,1,0,0:0:0:0:
256,192,73222,1,2,0:0:0:0:
256,192,73453,1,0,0:0:0:0:
256,192,73684,1,2,0:0:0:0:
256,192,73799,1,2,0:0:0:0:
256,192,73914,1,0,0:0:0:0:
256,192,74145,1,2,0:0:0:0:
256,192,74261,1,0,0:0:0:0:
256,192,74491,1,0,0:0:0:0:
256,192,74607,1,2,0:0:0:0:
256,192,74953,1,0,0:0:0:0:
256,192,75068,1,2,0:0:0:0:
256,192,75299,1,0,0:0:0:0:
256,192,75414,1,0,0:0:0:0:
256,192,75530,1,2,0:0:0:0:
256,192,75645,1,0,0:0:0:0:
256,192,75876,1,2,0:0:0:0:
256,192,75991,1,0,0:0:0:0:
256,192,76222,1,0,0:0:0:0:
256,192,76453,1,2,0:0:0:0:
256,192,76799,1,2,0:0:0:0:
256,192,76914,1,0,0:0:0:0:
256,192,77145,1,2,0:0:0:0:
256,192,77376,1,0,0:0:0:0:
256,192,77491,1,2,0:0:0:0:
256,192,77607,1,0,0:0:0:0:
256,192,77722,1,0,0:0:0:0:
256,192,77837,1,2,0:0:0:0:
256,192,78299,1,0,0:0:0:0:
256,192,78645,1,0,0:0:0:0:
256,192,78761,1,2,0:0:0:0:
256,192,78991,1,0,0:0:0:0:
256,192,79107,1,0,0:0:0:0:
256,192,79222,1,2,0:0:0:0:
256,192,79337,1,0,0:0:0:0:
256,192,79453,1,0,0:0:0:0:
256,192,79568,1,0,0:0:0:0:
256,192,79684,1,2,0:0:0:0:
256,192,79799,1,0,0:0:0:0:
256,192,79914,1,2,0:0:0:0:
256,192,80030,1,2,0:0:0:0:
256,192,80145,1,0,0:0:0:0:
256,192,80607,1,4,0:0:0:0:
256,192,81068,1,4,0:0:0:0:
256,192,81530,1,4,0:0:0:0:
256,192,81991,1,6,0:0:0:0:
256,192,82222,1,0,0:0:0:0:
256,192,82453,1,2,0:0:0:0:
256,192,82684,1,2,0:0:0:0:
256,192,82799,1,0,0:0:0:0:
256,192,82914,1,2,0:0:0:0:
256,192,83145,1,2,0:0:0:0:
256,192,83376,1,2,0:0:0:0:
256,192,83607,1,0,0:0:0:0:
256,192,83722,1,0,0:0:0:0:
256,192,83837,1,2,0:0:0:0:
256,192,84068,1,0,0:0:0:0:
256,192,84299,1,2,0:0:0:0:
256,192,84645,1,0,0:0:0:0:
256,192,84761,1,2,0:0:0:0:
256,192,84991,1,2,0:0:0:0:
256,192,85222,1,0,0:0:0:0:
256,192,85684,1,6,0:0:0:0:
256,192,85914,1,0,0:0:0:0:
256,192,86145,1,2,0:0:0:0:
256,192,86376,1,2,0:0:0:0:
256,192,86491,1,0,0:0:0:0:
256,192,86607,1,2,0:0:0:0:
256,192,86837,1,0,0:0:0:0:
256,192,87068,1,2,0:0:0:0:
256,192,87299,1,2,0:0:0:0:
256,192,87530,1,0,0:0:0:0:
256,192,87645,1,0,0:0:0:0:
256,192,87761,1,2,0:0:0:0:
256,192,87876,1,0,0:0:0:0:
256,192,87991,1,0,0:0:0:0:
256,192,88107,1,2,0:0:0:0:
256,192,88337,1,0,0:0:0:0:
256,192,88453,1,2,0:0:0:0:
256,192,88568,1,0,0:0:0:0:
256,192,88684,1,0,0:0:0:0:
256,192,88799,1,2,0:0:0:0:
256,192,88914,1,2,0:0:0:0:
256,192,89030,1,2,0:0:0:0:
256,192,89145,1,0,0:0:0:0:
256,192,89261,1,0,0:0:0:0:
256,192,89376,1,2,0:0:0:0:
256,192,89607,1,0,0:0:0:0:
256,192,89837,1,2,0:0:0:0:
256,192,90068,1,2,0:0:0:0:
256,192,90184,1,0,0:0:0:0:
256,192,90299,1,2,0:0:0:0:
256,192,90530,1,2,0:0:0:0:
256,192,90761,1,2,0:0:0:0:
256,192,90991,1,0,0:0:0:0:
256,192,91107,1,0,0:0:0:0:
256,192,91222,1,2,0:0:0:0:
256,192,91453,1,0,0:0:0:0:
256,192,91684,1,2,0:0:0:0:
256,192,92030,1,0,0:0:0:0:
256,192,92145,1,2,0:0:0:0:
256,192,92376,1,0,0:0:0:0:
256,192,92607,1,2,0:0:0:0:
256,192,92837,1,0,0:0:0:0:
256,192,92953,1,0,0:0:0:0:
256,192,93068,1,2,0:0:0:0:
256,192,93299,1,0,0:0:0:0:
256,192,93530,1,2,0:0:0:0:
256,192,93645,1,0,0:0:0:0:
256,192,93761,1,0,0:0:0:0:
256,192,93991,1,2,0:0:0:0:
256,192,94222,1,0,0:0:0:0:
256,192,94337,1,2,0:0:0:0:
256,192,94453,1,0,0:0:0:0:
256,192,94568,1,2,0:0:0:0:
256,192,94684,1,0,0:0:0:0:
256,192,94914,1,4,0:0:0:0:
256,192,96761,1,4,0:0:0:0:
256,192,97107,1,0,0:0:0:0:
256,192,97222,1,2,0:0:0:0:
256,192,97453,1,0,0:0:0:0:
256,192,97914,1,0,0:0:0:0:
256,192,98145,1,2,0:0:0:0:
256,192,98607,1,0,0:0:0:0:
256,192,98953,1,0,0:0:0:0:
256,192,99068,1,2,0:0:0:0:
256,192,99299,1,0,0:0:0:0:
256,192,99530,1,2,0:0:0:0:
256,192,99645,1,2,0:0:0:0:
256,192,99761,1,0,0:0:0:0:
256,192,99991,1,2,0:0:0:0:
256,192,100222,1,0,0:0:0:0:
256,192,100337,1,0,0:0:0:0:
256,192,100453,1,2,0:0:0:0:
256,192,100799,1,0,0:0:0:0:
256,192,100914,1,2,0:0:0:0:
256,192,101145,1,0,0:0:0:0:
256,192,101376,1,2,0:0:0:0:
256,192,101491,1,2,0:0:0:0:
256,192,101607,1,0,0:0:0:0:
256,192,101837,1,2,0:0:0:0:
256,192,101953,1,0,0:0:0:0:
256,192,102299,1,0,0:0:0:0:
256,192,102530,1,2,0:0:0:0:
256,192,102645,1,0,0:0:0:0:
256,192,102761,1,2,0:0:0:0:
256,192,102991,1,2,0:0:0:0:
256,192,103222,1,0,0:0:0:0:
256,192,103337,1,2,0:0:0:0:
256,192,103453,1,0,0:0:0:0:
256,192,103684,1,2,0:0:0:0:
256,192,103799,1,2,0:0:0:0:
256,192,104030,1,0,0:0:0:0:
256,192,104145,1,2,0:0:0:0:
256,192,104491,1,0,0:0:0:0:
256,192,104607,1,2,0:0:0:0:
256,192,104837,1,0,0:0:0:0:
256,192,105068,1,2,0:0:0:0:
256,192,105184,1,2,0:0:0:0:
256,192,105299,1,0,0:0:0:0:
256,192,105530,1,2,0:0:0:0:
256,192,105645,1,0,0:0:0:0:
256,192,105991,1,0,0:0:0:0:
256,192,106337,1,0,0:0:0:0:
256,192,106453,1,2,0:0:0:0:
256,192,106684,1,0,0:0:0:0:
256,192,106914,1,0,0:0:0:0:
256,192,107145,1,0,0:0:0:0:
256,192,107261,1,0,0:0:0:0:
256,192,107376,1,2,0:0:0:0:
256,192,107607,1,0,0:0:0:0:
256,192,107837,1,2,0:0:0:0:
256,192,108184,1,0,0:0:0:0:
256,192,108299,1,2,0:0:0:0:
256,192,108530,1,0,0:0:0:0:
256,192,108761,1,2,0:0:0:0:
256,192,108876,1,2,0:0:0:0:
256,192,108991,1,0,0:0:0:0:
256,192,109222,1,2,0:0:0:0:
256,192,109453,1,0,0:0:0:0:
256,192,109684,1,0,0:0:0:0:
256,192,110030,1,0,0:0:0:0:
256,192,110145,1,2,0:0:0:0:
256,192,110376,1,0,0:0:0:0:
256,192,110491,1,2,0:0:0:0:
256,192,110607,1,0,0:0:0:0:
256,192,110722,1,2,0:0:0:0:
256,192,110837,1,0,0:0:0:0:
256,192,110953,1,0,0:0:0:0:
256,192,111068,1,0,0:0:0:0:
256,192,111184,1,0,0:0:0:0:
256,192,111299,1,0,0:0:0:0:
256,192,111530,1,6,0:0:0:0:
256,192,111761,1,0,0:0:0:0:
256,192,111991,1,2,0:0:0:0:
256,192,112453,1,0,0:0:0:0:
256,192,112684,1,0,0:0:0:0:
256,192,112914,1,2,0:0:0:0:
256,192,113145,1,2,0:0:0:0:
256,192,113376,1,4,0:0:0:0:
256,192,113607,1,4,0:0:0:0:
256,192,113837,1,2,0:0:0:0:
256,192,114299,1,0,0:0:0:0:
256,192,114530,1,0,0:0:0:0:
256,192,114761,1,2,0:0:0:0:
256,192,114991,1,2,0:0:0:0:
256,192,115107,1,2,0:0:0:0:
256,192,115222,1,0,0:0:0:0:
256,192,115453,1,0,0:0:0:0:
256,192,115684,1,2,0:0:0:0:
256,192,115914,1,0,0:0:0:0:
256,192,116030,1,0,0:0:0:0:
256,192,116145,1,0,0:0:0:0:
256,192,116261,1,0,0:0:0:0:
256,192,116376,1,0,0:0:0:0:
256,192,116607,1,2,0:0:0:0:
256,192,116837,1,0,0:0:0:0:
256,192,117068,1,2,0:0:0:0:
256,192,118914,1,4,0:0:0:0:
256,192,119145,1,0,0:0:0:0:
256,192,119261,1,2,0:0:0:0:
256,192,119491,1,2,0:0:0:0:
256,192,119607,1,0,0:0:0:0:
256,192,119837,1,2,0:0:0:0:
256,192,120068,1,0,0:0:0:0:
256,192,120299,1,2,0:0:0:0:
256,192,120530,1,0,0:0:0:0:
256,192,120761,1,2,0:0:0:0:
256,192,120991,1,0,0:0:0:0:
256,192,121107,1,2,0:0:0:0:
256,192,121222,1,0,0:0:0:0:
256,192,121453,1,2,0:0:0:0:
256,192,121684,1,2,0:0:0:0:
256,192,121914,1,0,0:0:0:0:
256,192,122145,1,2,0:0:0:0:
256,192,122376,1,2,0:0:0:0:
256,192,122491,1,2,0:0:0:0:
256,192,122607,1,0,0:0:0:0:
256,192,122837,1,0,0:0:0:0:
256,192,123068,1,2,0:0:0:0:
256,192,123299,1,0,0:0:0:0:
256,192,123414,1,0,0:0:0:0:
256,192,123530,1,0,0:0:0:0:
256,192,123645,1,0,0:0:0:0:
256,192,123761,1,0,0:0:0:0:
256,192,123991,1,2,0:0:0:0:
256,192,124222,1,0,0:0:0:0:
256,192,124337,1,0,0:0:0:0:
256,192,124453,1,2,0:0:0:0:
256,192,124684,1,0,0:0:0:0:
256,192,124914,1,2,0:0:0:0:
256,192,125145,1,0,0:0:0:0:
256,192,125261,1,0,0:0:0:0:
256,192,125376,1,2,0:0:0:0:
256,192,125607,1,0,0:0:0:0:
256,192,125722,1,2,0:0:0:0:
256,192,125837,1,2,0:0:0:0:
256,192,126068,1,2,0:0:0:0:
256,192,126184,1,2,0:0:0:0:
256,192,126299,1,0,0:0:0:0:
256,192,126530,1,0,0:0:0:0:
256,192,126761,1,2,0:0:0:0:
256,192,126991,1,2,0:0:0:0:
256,192,127107,1,2,0:0:0:0:
256,192,127222,1,0,0:0:0:0:
256,192,127337,1,0,0:0:0:0:
256,192,127453,1,0,0:0:0:0:
256,192,127684,1,2,0:0:0:0:
256,192,127914,1,0,0:0:0:0:
256,192,128030,1,0,0:0:0:0:
256,192,128145,1,2,0:0:0:0:
256,192,128376,1,0,0:0:0:0:
256,192,128607,1,2,0:0:0:0:
256,192,128837,1,2,0:0:0:0:
256,192,128953,1,2,0:0:0:0:
256,192,129068,1,0,0:0:0:0:
256,192,129184,1,0,0:0:0:0:
256,192,129299,1,0,0:0:0:0:
256,192,129530,1,2,0:0:0:0:
256,192,129761,1,0,0:0:0:0:
256,192,129876,1,0,0:0:0:0:
256,192,129991,1,2,0:0:0:0:
256,192,130222,1,0,0:0:0:0:
256,192,130453,1,2,0:0:0:0:
256,192,130684,1,0,0:0:0:0:
256,192,131145,1,0,0:0:0:0:
256,192,131376,1,2,0:0:0:0:
256,192,131607,1,0,0:0:0:0:
256,192,131837,1,0,0:0:0:0:
256,192,131953,1,0,0:0:0:0:
256,192,132068,1,0,0:0:0:0:
256,192,132299,1,2,0:0:0:0:
256,192,132530,1,0,0:0:0:0:
256,192,132761,1,0,0:0:0:0:
256,192,132876,1,0,0:0:0:0:
256,192,132991,1,0,0:0:0:0:
256,192,133107,1,2,0:0:0:0:
256,192,133222,1,2,0:0:0:0:
256,192,133453,1,0,0:0:0:0:
256,192,133568,1,0,0:0:0:0:
256,192,133684,1,2,0:0:0:0:
256,192,133914,1,0,0:0:0:0:
256,192,134145,1,2,0:0:0:0:
256,192,134376,1,2,0:0:0:0:
256,192,134607,1,2,0:0:0:0:
256,192,134837,1,0,0:0:0:0:
256,192,135068,1,2,0:0:0:0:
256,192,135299,1,0,0:0:0:0:
256,192,135414,1,0,0:0:0:0:
256,192,135530,1,2,0:0:0:0:
256,192,135761,1,0,0:0:0:0:
256,192,135991,1,2,0:0:0:0:
256,192,136222,1,2,0:0:0:0:
256,192,136453,1,2,0:0:0:0:
256,192,136568,1,0,0:0:0:0:
256,192,136684,1,0,0:0:0:0:
256,192,136914,1,2,0:0:0:0:
256,192,137376,1,0,0:0:0:0:
256,192,137607,1,0,0:0:0:0:
256,192,137837,1,2,0:0:0:0:
256,192,138068,1,0,0:0:0:0:
256,192,138184,1,0,0:0:0:0:
256,192,138299,1,2,0:0:0:0:
256,192,138530,1,0,0:0:0:0:
256,192,138761,1,2,0:0:0:0:
256,192,138991,1,0,0:0:0:0:
256,192,139222,1,2,0:0:0:0:
256,192,139453,1,2,0:0:0:0:
256,192,139684,1,2,0:0:0:0:
256,192,139914,1,0,0:0:0:0:
256,192,140030,1,0,0:0:0:0:
256,192,140145,1,2,0:0:0:0:
256,192,140261,1,0,0:0:0:0:
256,192,140376,1,0,0:0:0:0:
256,192,140607,1,2,0:0:0:0:
256,192,141068,1,6,0:0:0:0:
256,192,141299,1,0,0:0:0:0:
256,192,141530,1,2,0:0:0:0:
256,192,141761,1,0,0:0:0:0:
256,192,141876,1,0,0:0:0:0:
256,192,141991,1,0,0:0:0:0:
256,192,142107,1,0,0:0:0:0:
256,192,142222,1,0,0:0:0:0:
256,192,142453,1,2,0:0:0:0:
256,192,142684,1,0,0:0:0:0:
256,192,142799,1,0,0:0:0:0:
256,192,142914,1,2,0:0:0:0:
256,192,143145,1,0,0:0:0:0:
256,192,143376,1,2,0:0:0:0:
256,192,143607,1,0,0:0:0:0:
256,192,143722,1,0,0:0:0:0:
256,192,143837,1,0,0:0:0:0:
256,192,144068,1,0,0:0:0:0:
256,192,144184,1,0,0:0:0:0:
256,192,144299,1,2,0:0:0:0:
256,192,144530,1,0,0:0:0:0:
256,192,144761,12,0,146376,0:0:0:0:
256,192,146607,5,4,0:0:0:0:
256,192,146953,1,0,0:0:0:0:
256,192,147068,1,2,0:0:0:0:
256,192,147299,1,0,0:0:0:0:
256,192,147414,1,0,0:0:0:0:
256,192,147530,1,2,0:0:0:0:
256,192,147645,1,0,0:0:0:0:
256,192,147876,1,2,0:0:0:0:
256,192,147991,1,0,0:0:0:0:
256,192,148222,1,0,0:0:0:0:
256,192,148337,1,0,0:0:0:0:
256,192,148453,1,2,0:0:0:0:
256,192,148799,1,0,0:0:0:0:
256,192,148914,1,2,0:0:0:0:
256,192,149145,1,0,0:0:0:0:
256,192,149261,1,0,0:0:0:0:
256,192,149376,1,2,0:0:0:0:
256,192,149491,1,0,0:0:0:0:
256,192,149722,1,2,0:0:0:0:
256,192,149837,1,0,0:0:0:0:
256,192,150068,1,0,0:0:0:0:
256,192,150184,1,0,0:0:0:0:
256,192,150299,1,2,0:0:0:0:
256,192,150645,1,0,0:0:0:0:
256,192,150761,1,2,0:0:0:0:
256,192,150991,1,0,0:0:0:0:
256,192,151107,1,0,0:0:0:0:
256,192,151222,1,2,0:0:0:0:
256,192,151337,1,2,0:0:0:0:
256,192,151453,1,0,0:0:0:0:
256,192,151568,1,0,0:0:0:0:
256,192,151684,1,2,0:0:0:0:
256,192,151914,1,2,0:0:0:0:
256,192,152030,1,0,0:0:0:0:
256,192,152145,1,0,0:0:0:0:
256,192,152376,1,0,0:0:0:0:
256,192,152491,1,0,0:0:0:0:
256,192,152607,1,2,0:0:0:0:
256,192,152837,1,0,0:0:0:0:
256,192,153068,1,2,0:0:0:0:
256,192,153184,1,0,0:0:0:0:
256,192,153299,1,0,0:0:0:0:
256,192,153414,1,0,0:0:0:0:
256,192,153530,1,2,0:0:0:0:
256,192,153761,1,2,0:0:0:0:
256,192,153876,1,2,0:0:0:0:
256,192,153991,1,0,0:0:0:0:
256,192,154337,1,0,0:0:0:0:
256,192,154453,1,2,0:0:0:0:
256,192,154684,1,0,0:0:0:0:
256,192,154799,1,0,0:0:0:0:
256,192,154914,1,2,0:0:0:0:
256,192,155030,1,0,0:0:0:0:
256,192,155261,1,2,0:0:0:0:
256,192,155376,1,0,0:0:0:0:
256,192,155607,1,0,0:0:0:0:
256,192,155722,1,0,0:0:0:0:
256,192,155837,1,2,0:0:0:0:
256,192,156184,1,2,0:0:0:0:
256,192,156299,1,0,0:0:0:0:
256,192,156530,1,2,0:0:0:0:
256,192,156761,1,0,0:0:0:0:
256,192,156876,1,2,0:0:0:0:
256,192,156991,1,2,0:0:0:0:
256,192,157107,1,0,0:0:0:0:
256,192,157222,1,2,0:0:0:0:
256,192,157337,1,0,0:0:0:0:
256,192,157568,1,0,0:0:0:0:
256,192,157684,1,2,0:0:0:0:
256,192,158030,1,0,0:0:0:0:
256,192,158145,1,2,0:0:0:0:
256,192,158376,1,0,0:0:0:0:
256,192,158607,1,2,0:0:0:0:
256,192,158722,1,0,0:0:0:0:
256,192,158837,1,0,0:0:0:0:
256,192,158953,1,2,0:0:0:0:
256,192,159068,1,0,0:0:0:0:
256,192,159184,1,2,0:0:0:0:
256,192,159299,1,0,0:0:0:0:
256,192,159530,1,4,0:0:0:0:
256,192,159991,1,4,0:0:0:0:
256,192,160453,1,4,0:0:0:0:
256,192,160799,1,2,0:0:0:0:
256,192,160914,1,0,0:0:0:0:
256,192,161145,1,0,0:0:0:0:
256,192,161376,1,6,0:0:0:0:
256,192,161607,1,0,0:0:0:0:
256,192,161837,1,2,0:0:0:0:
256,192,162068,1,2,0:0:0:0:
256,192,162184,1,0,0:0:0:0:
256,192,162299,1,2,0:0:0:0:
256,192,162530,1,2,0:0:0:0:
256,192,162761,1,2,0:0:0:0:
256,192,162991,1,0,0:0:0:0:
256,192,163107,1,0,0:0:0:0:
256,192,163222,1,2,0:0:0:0:
256,192,163453,1,0,0:0:0:0:
256,192,163684,1,2,0:0:0:0:
256,192,164030,1,2,0:0:0:0:
256,192,164145,1,0,0:0:0:0:
256,192,164376,1,0,0:0:0:0:
256,192,164607,1,2,0:0:0:0:
256,192,165068,1,6,0:0:0:0:
256,192,165299,1,0,0:0:0:0:
256,192,165530,1,2,0:0:0:0:
256,192,165761,1,0,0:0:0:0:
256,192,165876,1,0,0:0:0:0:
256,192,165991,1,2,0:0:0:0:
256,192,166222,1,0,0:0:0:0:
256,192,166453,1,2,0:0:0:0:
256,192,166684,1,2,0:0:0:0:
256,192,166914,1,0,0:0:0:0:
256,192,167145,1,0,0:0:0:0:
256,192,167261,1,0,0:0:0:0:
256,192,167376,1,2,0:0:0:0:
256,192,167491,1,0,0:0:0:0:
256,192,167722,1,2,0:0:0:0:
256,192,167837,1,0,0:0:0:0:
256,192,168068,1,0,0:0:0:0:
256,192,168184,1,0,0:0:0:0:
256,192,168299,1,2,0:0:0:0:
256,192,168530,1,2,0:0:0:0:
256,192,168761,1,4,0:0:0:0:
256,192,168991,1,0,0:0:0:0:
256,192,169222,1,2,0:0:0:0:
256,192,169453,1,0,0:0:0:0:
256,192,169568,1,2,0:0:0:0:
256,192,169684,1,0,0:0:0:0:
256,192,169914,1,0,0:0:0:0:
256,192,170145,1,2,0:0:0:0:
256,192,170376,1,0,0:0:0:0:
256,192,170491,1,0,0:0:0:0:
256,192,170607,1,2,0:0:0:0:
256,192,170837,1,0,0:0:0:0:
256,192,171068,1,2,0:0:0:0:
256,192,171414,1,2,0:0:0:0:
256,192,171530,1,0,0:0:0:0:
256,192,171761,1,2,0:0:0:0:
256,192,171991,1,2,0:0:0:0:
256,192,172222,1,0,0:0:0:0:
256,192,172453,1,6,0:0:0:0:
256,192,172684,1,0,0:0:0:0:
256,192,172799,1,0,0:0:0:0:
256,192,172914,1,2,0:0:0:0:
256,192,173030,1,0,0:0:0:0:
256,192,173145,1,0,0:0:0:0:
256,192,173261,1,0,0:0:0:0:
256,192,173376,1,2,0:0:0:0:
256,192,173607,1,0,0:0:0:0:
256,192,173722,1,0,0:0:0:0:
256,192,173837,1,2,0:0:0:0:
256,192,174068,1,0,0:0:0:0:
256,192,174299,1,4,0:0:0:0:
256,192,176145,1,2,0:0:0:0:
256,192,177991,1,2,0:0:0:0:
256,192,178914,1,0,0:0:0:0:
256,192,179837,1,2,0:0:0:0:
256,192,180761,1,2,0:0:0:0:
256,192,180991,1,2,0:0:0:0:
256,192,181222,1,0,0:0:0:0:
256,192,181684,1,2,0:0:0:0:
256,192,183530,1,0,0:0:0:0:
256,192,185376,1,2,0:0:0:0:
256,192,187222,1,0,0:0:0:0:
256,192,187914,1,0,0:0:0:0:
256,192,188145,1,2,0:0:0:0:
256,192,188607,1,0,0:0:0:0:
256,192,189068,1,2,0:0:0:0:
256,192,189761,1,2,0:0:0:0:
256,192,190453,1,2,0:0:0:0:
256,192,190914,1,0,0:0:0:0:
256,192,191607,1,2,0:0:0:0:
256,192,192299,1,2,0:0:0:0:
256,192,192761,1,0,0:0:0:0:
256,192,193453,1,2,0:0:0:0:
256,192,194145,1,0,0:0:0:0:
256,192,194607,1,0,0:0:0:0:
256,192,195299,1,2,0:0:0:0:
256,192,195991,1,0,0:0:0:0:
256,192,196453,1,2,0:0:0:0:
256,192,197145,1,2,0:0:0:0:
256,192,197837,1,0,0:0:0:0:
256,192,198299,1,0,0:0:0:0:
256,192,198991,1,2,0:0:0:0:
256,192,199684,1,0,0:0:0:0:
256,192,200145,1,2,0:0:0:0:
256,192,200837,1,2,0:0:0:0:
256,192,201530,1,0,0:0:0:0:
256,192,201991,1,2,0:0:0:0:
256,192,203837,1,0,0:0:0:0:
256,192,204184,1,2,0:0:0:0:
256,192,204530,1,0,0:0:0:0:
256,192,205222,1,2,0:0:0:0:
256,192,205684,1,0,0:0:0:0:
256,192,206030,1,2,0:0:0:0:
256,192,206376,1,0,0:0:0:0:
256,192,207068,1,2,0:0:0:0:
256,192,207299,1,0,0:0:0:0:
256,192,207530,1,0,0:0:0:0:
256,192,207876,1,2,0:0:0:0:
256,192,208222,1,0,0:0:0:0:
256,192,208914,1,0,0:0:0:0:
256,192,209145,1,0,0:0:0:0:
256,192,209376,1,2,0:0:0:0:
256,192,209722,1,0,0:0:0:0:
256,192,210068,1,0,0:0:0:0:
256,192,210299,1,2,0:0:0:0:
256,192,210761,1,0,0:0:0:0:
256,192,211222,1,0,0:0:0:0:
256,192,211568,1,2,0:0:0:0:
256,192,211914,1,0,0:0:0:0:
256,192,212607,1,2,0:0:0:0:
256,192,213068,1,0,0:0:0:0:
256,192,213414,1,2,0:0:0:0:
256,192,213761,1,0,0:0:0:0:
256,192,214222,1,2,0:0:0:0:
256,192,214453,1,2,0:0:0:0:
256,192,214684,1,0,0:0:0:0:
256,192,214914,1,0,0:0:0:0:
256,192,215261,1,0,0:0:0:0:
256,192,215607,1,2,0:0:0:0:
256,192,217684,1,2,0:0:0:0:
256,192,217799,1,2,0:0:0:0:
256,192,218145,1,0,0:0:0:0:
256,192,218607,1,6,0:0:0:0:
256,192,218953,1,2,0:0:0:0:
256,192,219068,1,0,0:0:0:0:
256,192,219299,1,2,0:0:0:0:
256,192,219414,1,2,0:0:0:0:
256,192,219530,1,2,0:0:0:0:
256,192,219761,1,0,0:0:0:0:
256,192,219991,1,2,0:0:0:0:
256,192,220222,1,0,0:0:0:0:
256,192,220337,1,0,0:0:0:0:
256,192,220453,1,2,0:0:0:0:
256,192,220799,1,0,0:0:0:0:
256,192,220914,1,2,0:0:0:0:
256,192,221145,1,0,0:0:0:0:
256,192,221376,1,0,0:0:0:0:
256,192,221491,1,0,0:0:0:0:
256,192,221722,1,0,0:0:0:0:
256,192,221837,1,2,0:0:0:0:
256,192,222068,1,0,0:0:0:0:
256,192,222184,1,0,0:0:0:0:
256,192,222299,1,2,0:0:0:0:
256,192,222645,1,0,0:0:0:0:
256,192,222761,1,2,0:0:0:0:
256,192,222991,1,2,0:0:0:0:
256,192,223107,1,2,0:0:0:0:
256,192,223222,1,2,0:0:0:0:
256,192,223453,1,0,0:0:0:0:
256,192,223684,1,2,0:0:0:0:
256,192,223914,1,0,0:0:0:0:
256,192,224030,1,0,0:0:0:0:
256,192,224145,1,2,0:0:0:0:
256,192,224491,1,0,0:0:0:0:
256,192,224607,1,2,0:0:0:0:
256,192,224837,1,2,0:0:0:0:
256,192,224953,1,0,0:0:0:0:
256,192,225068,1,2,0:0:0:0:
256,192,225299,1,0,0:0:0:0:
256,192,225414,1,0,0:0:0:0:
256,192,225530,1,2,0:0:0:0:
256,192,225645,1,0,0:0:0:0:
256,192,225761,1,0,0:0:0:0:
256,192,225991,1,2,0:0:0:0:
256,192,226107,1,2,0:0:0:0:
256,192,226222,1,0,0:0:0:0:
256,192,226337,1,0,0:0:0:0:
256,192,226453,1,2,0:0:0:0:
256,192,226684,1,0,0:0:0:0:
256,192,226799,1,0,0:0:0:0:
256,192,226914,1,2,0:0:0:0:
256,192,227145,1,0,0:0:0:0:
256,192,227376,1,2,0:0:0:0:
256,192,227607,1,2,0:0:0:0:
256,192,227837,1,0,0:0:0:0:
256,192,227953,1,2,0:0:0:0:
256,192,228068,1,0,0:0:0:0:
256,192,228184,1,2,0:0:0:0:
256,192,228299,1,2,0:0:0:0:
256,192,228414,1,0,0:0:0:0:
256,192,228530,1,2,0:0:0:0:
256,192,228645,1,2,0:0:0:0:
256,192,228761,1,2,0:0:0:0:
256,192,229107,1,0,0:0:0:0:
256,192,229222,1,2,0:0:0:0:
256,192,229453,1,2,0:0:0:0:
256,192,229684,1,0,0:0:0:0:
256,192,229914,1,0,0:0:0:0:
256,192,230145,1,2,0:0:0:0:
256,192,230261,1,0,0:0:0:0:
256,192,230376,1,2,0:0:0:0:
256,192,230453,1,2,0:0:0:0:
256,192,230530,1,2,0:0:0:0:
256,192,230607,1,0,0:0:0:0:
256,192,230722,1,2,0:0:0:0:
256,192,230837,1,0,0:0:0:0:
256,192,230953,1,0,0:0:0:0:
256,192,231068,1,2,0:0:0:0:
256,192,231299,1,0,0:0:0:0:
256,192,231530,1,6,0:0:0:0:
256,192,231991,1,6,0:0:0:0:
256,192,232453,1,6,0:0:0:0:
256,192,232914,1,6,0:0:0:0:
256,192,233376,1,4,0:0:0:0:
256,192,233607,1,0,0:0:0:0:
256,192,233837,1,2,0:0:0:0:
256,192,234068,1,2,0:0:0:0:
256,192,234299,1,2,0:0:0:0:
256,192,234530,1,0,0:0:0:0:
256,192,234761,1,2,0:0:0:0:
256,192,234991,1,0,0:0:0:0:
256,192,235107,1,0,0:0:0:0:
256,192,235222,1,2,0:0:0:0:
256,192,235453,1,0,0:0:0:0:
256,192,235684,1,2,0:0:0:0:
256,192,235914,1,2,0:0:0:0:
256,192,236145,1,2,0:0:0:0:
256,192,236376,1,0,0:0:0:0:
256,192,236607,1,2,0:0:0:0:
256,192,237068,1,6,0:0:0:0:
256,192,237299,1,0,0:0:0:0:
256,192,237530,1,2,0:0:0:0:
256,192,237761,1,0,0:0:0:0:
256,192,237876,1,0,0:0:0:0:
256,192,237991,1,2,0:0:0:0:
256,192,238222,1,2,0:0:0:0:
256,192,238453,1,0,0:0:0:0:
256,192,238684,1,0,0:0:0:0:
256,192,238799,1,0,0:0:0:0:
256,192,238914,1,2,0:0:0:0:
256,192,239376,1,2,0:0:0:0:
256,192,239607,1,0,0:0:0:0:
256,192,239722,1,0,0:0:0:0:
256,192,239837,1,2,0:0:0:0:
256,192,240068,1,0,0:0:0:0:
256,192,240184,1,0,0:0:0:0:
256,192,240299,1,2,0:0:0:0:
256,192,240414,1,2,0:0:0:0:
256,192,240530,1,0,0:0:0:0:
256,192,240761,1,6,0:0:0:0:
256,192,240991,1,0,0:0:0:0:
256,192,241222,1,2,0:0:0:0:
256,192,241453,1,0,0:0:0:0:
256,192,241568,1,0,0:0:0:0:
256,192,241684,1,2,0:0:0:0:
256,192,241914,1,0,0:0:0:0:
256,192,242030,1,0,0:0:0:0:
256,192,242145,1,2,0:0:0:0:
256,192,242376,1,0,0:0:0:0:
256,192,242607,1,2,0:0:0:0:
256,192,242837,1,0,0:0:0:0:
256,192,242953,1,0,0:0:0:0:
256,192,243068,1,2,0:0:0:0:
256,192,243299,1,0,0:0:0:0:
256,192,243414,1,0,0:0:0:0:
256,192,243530,1,2,0:0:0:0:
256,192,243645,1,2,0:0:0:0:
256,192,243761,1,0,0:0:0:0:
256,192,243876,1,0,0:0:0:0:
256,192,243991,1,2,0:0:0:0:
256,192,244222,1,0,0:0:0:0:
256,192,244453,12,0,246068,0:0:0:0:
256,192,246299,5,2,0:0:0:0:
256,192,248145,1,2,0:0:0:0:
256,192,248607,1,0,0:0:0:0:
256,192,248837,1,0,0:0:0:0:
256,192,248953,1,0,0:0:0:0:
256,192,249184,1,0,0:0:0:0:
256,192,249299,1,0,0:0:0:0:
256,192,249530,1,2,0:0:0:0:
256,192,249761,1,0,0:0:0:0:
256,192,249991,1,2,0:0:0:0:
256,192,250453,1,0,0:0:0:0:
256,192,250684,1,0,0:0:0:0:
256,192,250799,1,2,0:0:0:0:
256,192,251030,1,2,0:0:0:0:
256,192,251145,1,0,0:0:0:0:
256,192,251376,1,2,0:0:0:0:
256,192,251837,1,2,0:0:0:0:
256,192,252299,1,0,0:0:0:0:
256,192,252530,1,0,0:0:0:0:
256,192,252645,1,0,0:0:0:0:
256,192,252876,1,0,0:0:0:0:
256,192,252991,1,0,0:0:0:0:
256,192,253222,1,2,0:0:0:0:
256,192,253453,1,0,0:0:0:0:
256,192,253684,1,2,0:0:0:0:
256,192,254145,1,0,0:0:0:0:
256,192,254376,1,0,0:0:0:0:
256,192,254491,1,2,0:0:0:0:
256,192,254722,1,2,0:0:0:0:
256,192,254837,1,0,0:0:0:0:
256,192,255068,1,2,0:0:0:0:
256,192,255530,1,2,0:0:0:0:
256,192,255991,1,0,0:0:0:0:
256,192,256222,1,0,0:0:0:0:
256,192,256337,1,0,0:0:0:0:
256,192,256568,1,0,0:0:0:0:
256,192,256684,1,0,0:0:0:0:
256,192,256914,1,2,0:0:0:0:
256,192,257145,1,0,0:0:0:0:
256,192,257376,1,2,0:0:0:0:
256,192,257837,1,0,0:0:0:0:
256,192,258068,1,0,0:0:0:0:
256,192,258184,1,2,0:0:0:0:
256,192,258414,1,2,0:0:0:0:
256,192,258530,1,0,0:0:0:0:
256,192,258761,1,2,0:0:0:0:
256,192,259222,12,0,260837,0:0:0:0:
256,192,261068,5,0,0:0:0:0:
256,192,261530,1,2,0:0:0:0:
256,192,261991,1,6,0:0:0:0:
256,192,262222,12,0,262684,0:0:0:0:
256,192,262914,5,4,0:0:0:0:
256,192,263261,1,0,0:0:0:0:
256,192,263376,1,2,0:0:0:0:
256,192,263607,1,0,0:0:0:0:
256,192,263722,1,0,0:0:0:0:
256,192,263837,1,2,0:0:0:0:
256,192,263953,1,0,0:0:0:0:
256,192,264184,1,2,0:0:0:0:
256,192,264299,1,0,0:0:0:0:
256,192,264414,1,2,0:0:0:0:
256,192,264530,1,0,0:0:0:0:
256,192,264645,1,0,0:0:0:0:
256,192,264761,1,2,0:0:0:0:
256,192,265107,1,0,0:0:0:0:
256,192,265222,1,2,0:0:0:0:
256,192,265453,1,0,0:0:0:0:
256,192,265568,1,0,0:0:0:0:
256,192,265684,1,2,0:0:0:0:
256,192,265799,1,0,0:0:0:0:
256,192,266030,1,2,0:0:0:0:
256,192,266145,1,0,0:0:0:0:
256,192,266261,1,2,0:0:0:0:
256,192,266376,1,0,0:0:0:0:
256,192,266491,1,0,0:0:0:0:
256,192,266607,1,2,0:0:0:0:
256,192,266953,1,0,0:0:0:0:
256,192,267068,1,2,0:0:0:0:
256,192,267299,1,0,0:0:0:0:
256,192,267414,1,0,0:0:0:0:
256,192,267530,1,2,0:0:0:0:
256,192,267645,1,2,0:0:0:0:
256,192,267761,1,0,0:0:0:0:
256,192,267876,1,0,0:0:0:0:
256,192,267991,1,2,0:0:0:0:
256,192,268222,1,2,0:0:0:0:
256,192,268337,1,0,0:0:0:0:
256,192,268453,1,0,0:0:0:0:
256,192,268684,1,0,0:0:0:0:
256,192,268799,1,0,0:0:0:0:
256,192,268914,1,2,0:0:0:0:
256,192,269030,1,2,0:0:0:0:
256,192,269145,1,0,0:0:0:0:
256,192,269376,1,2,0:0:0:0:
256,192,269491,1,2,0:0:0:0:
256,192,269607,1,0,0:0:0:0:
256,192,269722,1,0,0:0:0:0:
256,192,269837,1,2,0:0:0:0:
256,192,269953,1,0,0:0:0:0:
256,192,270184,1,0,0:0:0:0:
256,192,270299,1,2,0:0:0:0:
256,192,270645,1,0,0:0:0:0:
256,192,270761,1,2,0:0:0:0:
256,192,270991,1,0,0:0:0:0:
256,192,271107,1,0,0:0:0:0:
256,192,271222,1,2,0:0:0:0:
256,192,271337,1,0,0:0:0:0:
256,192,271568,1,2,0:0:0:0:
256,192,271684,1,0,0:0:0:0:
256,192,271799,1,2,0:0:0:0:
256,192,271914,1,0,0:0:0:0:
256,192,272030,1,0,0:0:0:0:
256,192,272145,1,2,0:0:0:0:
256,192,272491,1,0,0:0:0:0:
256,192,272607,1,2,0:0:0:0:
256,192,272837,1,2,0:0:0:0:
256,192,272953,1,2,0:0:0:0:
256,192,273068,1,0,0:0:0:0:
256,192,273184,1,2,0:0:0:0:
256,192,273299,1,2,0:0:0:0:
256,192,273414,1,0,0:0:0:0:
256,192,273530,1,2,0:0:0:0:
256,192,273645,1,0,0:0:0:0:
256,192,273876,1,0,0:0:0:0:
256,192,273991,1,2,0:0:0:0:
256,192,274222,1,0,0:0:0:0:
256,192,274337,1,0,0:0:0:0:
256,192,274453,1,2,0:0:0:0:
256,192,274568,1,2,0:0:0:0:
256,192,274684,1,0,0:0:0:0:
256,192,274799,1,0,0:0:0:0:
256,192,274914,1,2,0:0:0:0:
256,192,275030,1,0,0:0:0:0:
256,192,275145,1,0,0:0:0:0:
256,192,275261,1,0,0:0:0:0:
256,192,275376,1,2,0:0:0:0:
256,192,275491,1,0,0:0:0:0:
256,192,275607,1,2,0:0:0:0:
256,192,275722,1,2,0:0:0:0:
256,192,275837,1,0,0:0:0:0:
256,192,276299,1,4,0:0:0:0:
256,192,276761,1,4,0:0:0:0:
256,192,277107,1,2,0:0:0:0:
256,192,277222,1,0,0:0:0:0:
256,192,277453,1,0,0:0:0:0:
256,192,277568,1,0,0:0:0:0:
256,192,277684,1,2,0:0:0:0:
256,192,277914,1,0,0:0:0:0:
256,192,278030,1,0,0:0:0:0:
256,192,278145,1,2,0:0:0:0:
256,192,278376,1,2,0:0:0:0:
256,192,278491,1,0,0:0:0:0:
256,192,278607,1,2,0:0:0:0:
256,192,278837,1,2,0:0:0:0:
256,192,279068,1,2,0:0:0:0:
256,192,279299,1,0,0:0:0:0:
256,192,279414,1,0,0:0:0:0:
256,192,279530,1,2,0:0:0:0:
256,192,279761,1,0,0:0:0:0:
256,192,279991,1,2,0:0:0:0:
256,192,280337,1,0,0:0:0:0:
256,192,280453,1,2,0:0:0:0:
256,192,280684,1,0,0:0:0:0:
256,192,280914,1,2,0:0:0:0:
256,192,281376,1,6,0:0:0:0:
256,192,281607,1,0,0:0:0:0:
256,192,281837,1,2,0:0:0:0:
256,192,282068,1,0,0:0:0:0:
256,192,282184,1,0,0:0:0:0:
256,192,282299,1,2,0:0:0:0:
256,192,282530,1,0,0:0:0:0:
256,192,282761,1,2,0:0:0:0:
256,192,282991,1,2,0:0:0:0:
256,192,283222,1,0,0:0:0:0:
256,192,283453,1,0,0:0:0:0:
256,192,283568,1,0,0:0:0:0:
256,192,283684,1,2,0:0:0:0:
256,192,283914,1,2,0:0:0:0:
256,192,284030,1,2,0:0:0:0:
256,192,284145,1,0,0:0:0:0:
256,192,284376,1,0,0:0:0:0:
256,192,284491,1,0,0:0:0:0:
256,192,284607,1,2,0:0:0:0:
256,192,284837,1,2,0:0:0:0:
256,192,285068,1,4,0:0:0:0:
256,192,285299,1,0,0:0:0:0:
256,192,285530,1,2,0:0:0:0:
256,192,285761,1,0,0:0:0:0:
256,192,285876,1,2,0:0:0:0:
256,192,285991,1,0,0:0:0:0:
256,192,286222,1,0,0:0:0:0:
256,192,286453,1,2,0:0:0:0:
256,192,286684,1,0,0:0:0:0:
256,192,286799,1,0,0:0:0:0:
256,192,286914,1,2,0:0:0:0:
256,192,287145,1,0,0:0:0:0:
256,192,287376,1,2,0:0:0:0:
256,192,287722,1,2,0:0:0:0:
256,192,287837,1,0,0:0:0:0:
256,192,288068,1,2,0:0:0:0:
256,192,288299,1,2,0:0:0:0:
256,192,288414,1,0,0:0:0:0:
256,192,288530,1,0,0:0:0:0:
256,192,288761,1,6,0:0:0:0:
256,192,288991,1,0,0:0:0:0:
256,192,289222,1,2,0:0:0:0:
256,192,289453,1,0,0:0:0:0:
256,192,289568,1,0,0:0:0:0:
256,192,289684,1,2,0:0:0:0:
256,192,289914,1,0,0:0:0:0:
256,192,290030,1,2,0:0:0:0:
256,192,290145,1,0,0:0:0:0:
256,192,290261,1,2,0:0:0:0:
256,192,290376,1,0,0:0:0:0:
256,192,290607,1,4,0:0:0:0:
256,192,292453,1,4,0:0:0:0:
256,192,292799,1,0,0:0:0:0:
256,192,292914,1,2,0:0:0:0:
256,192,293145,1,0,0:0:0:0:
256,192,293607,1,0,0:0:0:0:
256,192,293837,1,2,0:0:0:0:
256,192,294068,1,0,0:0:0:0:
256,192,294299,1,0,0:0:0:0:
256,192,294645,1,0,0:0:0:0:
256,192,294761,1,2,0:0:0:0:
256,192,294991,1,0,0:0:0:0:
256,192,295222,1,2,0:0:0:0:
256,192,295337,1,2,0:0:0:0:
256,192,295453,1,0,0:0:0:0:
256,192,295684,1,2,0:0:0:0:
256,192,295914,1,0,0:0:0:0:
256,192,296030,1,0,0:0:0:0:
256,192,296145,1,0,0:0:0:0:
256,192,296491,1,0,0:0:0:0:
256,192,296607,1,2,0:0:0:0:
256,192,296837,1,0,0:0:0:0:
256,192,297068,1,2,0:0:0:0:
256,192,297184,1,2,0:0:0:0:
256,192,297299,1,0,0:0:0:0:
256,192,297530,1,2,0:0:0:0:
256,192,297645,1,0,0:0:0:0:
256,192,297991,1,0,0:0:0:0:
256,192,298337,1,0,0:0:0:0:
256,192,298453,1,2,0:0:0:0:
256,192,298684,1,0,0:0:0:0:
256,192,298914,1,0,0:0:0:0:
256,192,299030,1,2,0:0:0:0:
256,192,299145,1,0,0:0:0:0:
256,192,299261,1,0,0:0:0:0:
256,192,299376,1,2,0:0:0:0:
256,192,299491,1,2,0:0:0:0:
256,192,299722,1,0,0:0:0:0:
256,192,299837,1,2,0:0:0:0:
256,192,300184,1,0,0:0:0:0:
256,192,300299,1,2,0:0:0:0:
256,192,300530,1,0,0:0:0:0:
256,192,300761,1,2,0:0:0:0:
256,192,300876,1,2,0:0:0:0:
256,192,300991,1,0,0:0:0:0:
256,192,301222,1,2,0:0:0:0:
256,192,301684,1,0,0:0:0:0:
256,192,302030,1,0,0:0:0:0:
256,192,302145,1,2,0:0:0:0:
256,192,302376,1,0,0:0:0:0:
256,192,302607,1,0,0:0:0:0:
256,192,302722,1,0,0:0:0:0:
256,192,302837,1,0,0:0:0:0:
256,192,303068,1,2,0:0:0:0:
256,192,303299,1,0,0:0:0:0:
256,192,303414,1,0,0:0:0:0:
256,192,303530,1,2,0:0:0:0:
256,192,303876,1,0,0:0:0:0:
256,192,303991,1,2,0:0:0:0:
256,192,304222,1,2,0:0:0:0:
256,192,304453,1,2,0:0:0:0:
256,192,304568,1,2,0:0:0:0:
256,192,304684,1,0,0:0:0:0:
256,192,304914,1,2,0:0:0:0:
256,192,305145,1,0,0:0:0:0:
256,192,305261,1,2,0:0:0:0:
256,192,305376,1,0,0:0:0:0:
256,192,305722,1,0,0:0:0:0:
256,192,305837,1,2,0:0:0:0:
256,192,305953,1,2,0:0:0:0:
256,192,306068,1,0,0:0:0:0:
256,192,306184,1,2,0:0:0:0:
256,192,306299,1,0,0:0:0:0:
256,192,306414,1,0,0:0:0:0:
256,192,306530,1,2,0:0:0:0:
256,192,306645,1,0,0:0:0:0:
256,192,306761,1,2,0:0:0:0:
256,192,306876,1,2,0:0:0:0:
256,192,306991,1,2,0:0:0:0:
256,192,307107,1,0,0:0:0:0:
