osu file format v14

[General]
AudioFilename: audio.mp3
AudioLeadIn: 0
PreviewTime: 63378
Countdown: 0
SampleSet: Soft
StackLeniency: 0.7
Mode: 2
LetterboxInBreaks: 0
WidescreenStoryboard: 1

[Editor]
Bookmarks: 12540,25513,35892,46270,56648,67027,87783,98162,108540,118919,129297,165621,176000,198054,222540,226594,227729
DistanceSpacing: 1.1
BeatDivisor: 4
GridSize: 4
TimelineZoom: 1.7

[Metadata]
Title:Pride Kakumei
TitleUnicode:プライド革命
Artist:CHiCO with HoneyWorks
ArtistUnicode:CHiCO with HoneyWorks
Creator:rew0825
Version:Revolution
Source:銀魂°
Tags:Gintama Gintama° Season 4 anime op opening Gintoki Sakata 坂田 銀時 Kagura 神楽 Shinpachi Shimura 志村 新八 japanese pop j-pop jpop rock j-rock jrock female vocal
BeatmapID:2879326
BeatmapSetID:1394916

[Difficulty]
HPDrainRate:6
CircleSize:5
OverallDifficulty:9.4
ApproachRate:9.4
SliderMultiplier:2.2
SliderTickRate:2

[Events]
//Background and Video events
0,0,"BG.jpg",0,0
//Break Periods
2,160632,165081
//Storyboard Layer 0 (Background)
//Storyboard Layer 1 (Fail)
//Storyboard Layer 2 (Pass)
//Storyboard Layer 3 (Foreground)
//Storyboard Layer 4 (Overlay)
//Storyboard Sound Samples

[TimingPoints]
865,324.324324324324,4,2,1,50,1,0
12540,-100,4,2,1,70,0,0
22919,-100,4,2,1,40,0,0
25513,-100,4,2,1,60,0,0
25837,-100,4,2,2,50,0,0
25919,-100,4,2,1,60,0,0
26486,-100,4,2,2,50,0,0
26568,-100,4,2,1,60,0,0
31675,-100,4,2,2,50,0,0
31757,-100,4,2,1,60,0,0
32973,-100,4,2,2,50,0,0
33055,-100,4,2,1,60,0,0
35892,-100,4,2,1,70,0,0
36216,-100,4,2,2,60,0,0
36297,-100,4,2,1,70,0,0
36864,-100,4,2,2,60,0,0
36945,-100,4,2,1,70,0,0
46270,-100,4,2,1,60,0,0
56648,-100,4,2,1,65,0,0
65405,-100,4,2,1,40,0,0
67027,-100,4,2,1,80,0,1
85189,-100,4,2,1,70,0,1
86324,-100,4,2,1,80,0,1
87783,-100,4,2,1,70,0,0
98162,-100,4,2,1,60,0,0
105621,-100,4,2,2,50,0,0
105703,-100,4,2,1,60,0,0
108540,-100,4,2,1,70,0,0
109513,-100,4,2,2,60,0,0
109594,-100,4,2,1,70,0,0
118919,-100,4,2,1,60,0,0
129297,-100,4,2,1,65,0,0
138054,-100,4,2,1,40,0,0
139675,-100,4,2,1,80,0,1
159135,-100,4,2,1,70,0,1
160432,-100,4,2,1,60,0,0
165621,-100,4,2,1,50,0,0
170810,-100,4,2,1,60,0,0
176000,-100,4,2,1,70,0,0
197567,-100,4,2,1,60,0,0
206162,-100,4,2,1,70,0,0
208756,-100,4,2,1,80,0,1
218810,-100,4,2,1,70,0,0
228054,-100,4,2,1,60,0,0
229189,-100,4,2,1,50,0,0
229513,-100,4,2,1,40,0,0

[Colours]
Combo1 : 192,162,148
Combo2 : 170,170,170
Combo3 : 248,92,97

[HitObjects]
200,312,865,5,2,0:0:0:0:
56,312,1027,2,0,P|78:210|180:193,1,220,2|2,0:0|0:0,0:0:0:0:
324,192,1513,1,2,0:0:0:0:
180,193,1675,2,0,P|77:175|55:74,1,220,2|2,0:0|0:0,0:0:0:0:
208,72,2162,6,0,L|432:72,1,220,2|2,0:0|0:0,0:0:0:0:
308,72,2648,1,0,0:0:0:0:
164,72,2810,2,0,L|160:184,1,110,2|0,0:0|0:0,0:0:0:0:
304,180,3135,2,0,L|308:296,1,110,2|0,0:0|0:0,0:0:0:0:
152,292,3459,6,0,L|388:292,2,220,2|2|2,0:0|0:0|0:0,0:0:0:0:
148,236,4270,1,0,0:0:0:0:
292,236,4432,1,2,0:0:0:0:
148,236,4594,6,0,P|84:216|148:124,1,220,2|2,0:0|0:0,0:0:0:0:
292,124,5081,2,0,L|296:236,1,110,2|0,0:0|0:0,0:0:0:0:
140,236,5405,1,2,0:0:0:0:
284,236,5567,1,2,0:0:0:0:
140,236,5729,2,0,L|136:348,1,110,2|0,0:0|0:0,0:0:0:0:
292,344,6054,5,2,0:0:0:0:
432,344,6216,1,2,0:0:0:0:
292,344,6378,1,2,0:0:0:0:
140,348,6540,2,0,L|136:236,1,110,2|0,0:0|0:0,0:0:0:0:
288,236,6864,2,0,P|372:232|424:120,1,220,2|0,0:0|0:0,0:0:0:0:
268,120,7351,5,2,0:0:0:0:
128,116,7513,1,2,0:0:0:0:
268,120,7675,1,2,0:0:0:0:
420,120,7837,2,0,L|424:232,1,110,2|0,0:0|0:0,0:0:0:0:
268,228,8162,2,0,P|184:232|132:348,1,220,2|2,0:0|0:0,0:0:0:0:
284,344,8648,5,2,0:0:0:0:
428,344,8810,2,0,L|432:232,1,110,2|0,0:0|0:0,0:0:0:0:
276,236,9135,1,2,0:0:0:0:
132,236,9297,1,2,0:0:0:0:
276,236,9459,2,0,L|392:236,1,110,2|0,0:0|0:0,0:0:0:0:
232,236,9783,6,0,L|228:120,1,110,2|0,0:0|0:0,0:0:0:0:
372,128,10108,2,0,L|376:240,1,110,2|0,0:0|0:0,0:0:0:0:
224,236,10432,2,0,P|92:160|252:16,1,440,2|0,0:0|0:0,0:0:0:0:
256,192,11243,12,0,12216,0:0:0:0:
332,192,12540,5,6,1:2:0:0:
180,192,12702,2,0,L|176:304,1,110,2|8,0:0|0:0,0:0:0:0:
396,304,13027,2,0,L|400:248,1,55,2|8,0:0|0:0,0:0:0:0:
308,248,13189,2,0,L|196:248,1,110,0|0,1:0|1:0,0:0:0:0:
352,248,13513,1,10,0:0:0:0:
112,248,13675,6,0,L|108:132,1,110,6|0,1:2|0:0,0:0:0:0:
328,140,14000,2,0,L|216:140,1,110,2|8,1:2|0:0,0:0:0:0:
372,140,14324,2,0,L|376:196,1,55,2|8,0:0|0:0,0:0:0:0:
240,196,14486,2,0,L|124:196,1,110,2|2,1:2|1:2,0:0:0:0:
284,196,14810,2,0,L|408:196,1,110,10|0,0:0|0:0,0:0:0:0:
152,196,15135,5,6,1:2:0:0:
304,196,15297,2,0,L|308:308,1,110,2|8,0:0|0:0,0:0:0:0:
88,308,15621,2,0,L|84:252,1,55,2|8,0:0|0:0,0:0:0:0:
176,252,15783,2,0,L|296:252,1,110,0|0,1:2|1:2,0:0:0:0:
132,252,16108,1,10,0:0:0:0:
396,252,16270,6,0,L|400:140,1,110,6|0,1:2|0:0,0:0:0:0:
180,140,16594,2,0,L|296:140,1,110,2|8,1:2|0:0,0:0:0:0:
136,140,16919,2,0,L|132:200,1,55,2|8,0:0|0:0,0:0:0:0:
268,196,17081,2,0,L|388:196,1,110,2|2,1:2|1:2,0:0:0:0:
224,196,17405,2,0,L|100:196,1,110,8|2,0:0|0:0,0:0:0:0:
176,196,17648,1,8,0:0:0:0:
328,196,17729,5,6,1:2:0:0:
176,196,17892,2,0,L|172:308,1,110,2|8,0:0|0:0,0:0:0:0:
392,304,18216,2,0,L|336:304,1,55,2|8,0:0|0:0,0:0:0:0:
244,304,18378,2,0,L|240:192,1,110,0|0,1:2|1:2,0:0:0:0:
392,196,18702,1,10,0:0:0:0:
128,196,18864,6,0,L|124:308,1,110,6|0,1:2|0:0,0:0:0:0:
344,308,19189,2,0,L|224:308,1,110,2|8,1:2|0:0,0:0:0:0:
388,308,19513,2,0,L|392:248,1,55,2|8,0:0|0:0,0:0:0:0:
256,252,19675,2,0,L|144:252,1,110,2|2,1:2|1:2,0:0:0:0:
300,252,20000,2,0,L|412:252,1,110,10|2,0:0|0:0,0:0:0:0:
348,252,20243,1,8,0:0:0:0:
196,252,20324,5,6,1:2:0:0:
52,252,20486,1,2,0:0:0:0:
196,252,20648,1,10,0:0:0:0:
416,252,20810,2,0,L|420:196,1,55,2|8,0:0|0:0,0:0:0:0:
324,196,20973,2,0,L|320:308,1,110,0|2,1:2|1:2,0:0:0:0:
472,304,21297,1,8,0:0:0:0:
208,308,21459,6,0,L|204:196,1,110,6|0,1:2|0:0,0:0:0:0:
356,200,21783,1,0,1:2:0:0:
136,200,21946,2,0,L|284:200,1,110,8|2,0:0|0:0,0:0:0:0:
400,200,22270,1,0,1:2:0:0:
180,200,22432,2,0,L|120:200,1,55,8|8,0:0|0:0,0:0:0:0:
208,200,22594,1,8,0:0:0:0:
64,200,22756,1,0,1:2:0:0:
284,200,22919,5,2,0:0:0:0:
376,200,23081,1,0,0:0:0:0:
284,200,23243,1,0,0:0:0:0:
140,200,23405,2,0,L|368:200,1,220,2|0,0:0|0:0,0:0:0:0:
216,200,23892,5,2,0:0:0:0:
124,200,24054,1,0,0:0:0:0:
216,200,24216,1,0,0:0:0:0:
356,200,24378,2,0,L|128:200,1,220,2|0,0:0|0:0,0:0:0:0:
280,200,24864,1,2,0:0:0:0:
392,200,25027,1,0,0:0:0:0:
456,200,25189,1,0,0:0:0:0:
60,200,25513,5,6,1:2:0:0:
204,200,25675,2,0,P|260:188|204:88,1,220,2|2,0:0|0:0,0:0:0:0:
60,92,26162,1,2,1:2:0:0:
204,88,26324,2,0,L|436:88,1,220,2|2,1:2|1:2,0:0:0:0:
204,88,26810,6,0,L|200:200,1,110,2|0,0:0|1:2,0:0:0:0:
344,196,27135,2,0,L|348:308,1,110,10|0,0:0|0:0,0:0:0:0:
196,304,27459,2,0,L|84:304,1,110,2|0,1:2|1:2,0:0:0:0:
236,304,27783,2,0,L|352:304,1,110,10|0,0:0|0:0,0:0:0:0:
104,304,28108,6,0,L|324:304,2,220,2|8|0,1:2|0:0|1:2,0:0:0:0:
248,304,28919,1,0,1:2:0:0:
104,304,29081,1,10,0:0:0:0:
324,304,29243,6,0,P|400:260|324:192,1,220,2|0,1:2|1:2,0:0:0:0:
184,188,29729,2,0,L|180:72,1,110,8|0,0:0|0:0,0:0:0:0:
324,76,30054,2,0,L|208:76,1,110,2|2,1:2|1:2,0:0:0:0:
70,78,30378,2,0,L|68:192,1,110,10|0,0:0|0:0,0:0:0:0:
308,192,30702,6,0,L|424:192,1,110,2|2,1:2|0:0,0:0:0:0:
276,192,31027,1,10,0:0:0:0:
420,192,31189,2,0,L|424:304,1,110,2|0,0:0|1:2,0:0:0:0:
280,304,31513,2,0,P|284:220|400:188,1,220,2|2,1:2|1:2,0:0:0:0:
180,184,32000,6,0,L|60:184,1,110,2|2,0:0|1:2,0:0:0:0:
212,184,32324,1,10,0:0:0:0:
68,184,32486,2,0,L|64:296,1,110,2|0,0:0|1:2,0:0:0:0:
208,292,32810,2,0,P|212:208|96:184,1,220,2|2,1:2|0:0,0:0:0:0:
340,180,33297,5,2,1:2:0:0:
196,180,33459,2,0,L|192:296,1,110,2|8,0:0|0:0,0:0:0:0:
340,288,33783,2,0,L|460:288,2,110,2|0|2,0:0|1:2|1:2,0:0:0:0:
192,288,34270,1,8,0:0:0:0:
432,288,34432,6,0,L|436:176,1,110,2|0,1:2|0:0,0:0:0:0:
292,180,34756,2,0,L|288:64,1,110,2|2,0:0|0:0,0:0:0:0:
432,68,35081,1,2,0:0:0:0:
288,68,35243,1,2,0:0:0:0:
224,156,35405,1,2,0:0:0:0:
284,248,35567,1,2,0:0:0:0:
404,248,35729,1,2,0:0:0:0:
140,248,35892,5,6,1:2:0:0:
284,248,36054,2,0,L|64:248,1,220,2|2,0:0|0:0,0:0:0:0:
284,248,36540,1,2,1:2:0:0:
140,248,36702,2,0,L|368:248,1,220,2|2,1:2|1:2,0:0:0:0:
116,248,37189,6,0,L|112:136,1,110,2|0,0:0|1:2,0:0:0:0:
264,140,37513,2,0,L|268:28,1,110,10|2,0:0|0:0,0:0:0:0:
208,32,37756,1,8,0:0:0:0:
72,32,37837,2,0,L|184:32,1,110,2|0,1:2|1:2,0:0:0:0:
336,32,38162,2,0,L|212:32,1,110,10|2,0:0|0:0,0:0:0:0:
288,32,38405,1,8,0:0:0:0:
440,32,38486,6,0,L|216:32,1,220,2|8,1:2|0:0,0:0:0:0:
364,32,38973,1,2,0:0:0:0:
408,76,39054,1,8,0:0:0:0:
364,116,39135,1,0,1:2:0:0:
220,116,39297,1,0,1:2:0:0:
364,116,39459,1,10,0:0:0:0:
124,120,39621,6,0,P|52:152|124:232,1,220,2|0,1:2|1:2,0:0:0:0:
276,232,40108,2,0,L|280:344,1,110,8|2,0:0|0:0,0:0:0:0:
220,344,40351,1,8,0:0:0:0:
84,344,40432,2,0,L|204:344,1,110,2|2,1:2|1:2,0:0:0:0:
348,340,40756,2,0,L|352:228,1,110,10|2,0:0|0:0,0:0:0:0:
108,232,41081,6,0,P|44:212|108:120,1,220,2|10,1:2|0:0,0:0:0:0:
328,120,41567,1,2,0:0:0:0:
268,120,41648,1,8,0:0:0:0:
208,120,41729,1,0,1:2:0:0:
360,120,41892,2,0,L|364:232,1,110,2|8,1:2|0:0,0:0:0:0:
212,228,42216,1,2,1:2:0:0:
452,228,42378,6,0,P|448:312|332:344,1,220,2|10,0:0|0:0,0:0:0:0:
112,344,42864,1,2,0:0:0:0:
172,344,42946,1,8,0:0:0:0:
232,344,43027,1,0,1:2:0:0:
384,344,43189,2,0,L|272:344,1,110,2|8,1:2|0:0,0:0:0:0:
120,344,43513,2,0,L|116:288,1,55,2|8,0:0|0:0,0:0:0:0:
268,288,43675,5,2,1:2:0:0:
420,288,43837,2,0,L|424:172,1,110,2|8,0:0|0:0,0:0:0:0:
204,180,44162,1,2,0:0:0:0:
264,180,44243,1,8,0:0:0:0:
324,180,44324,1,0,1:2:0:0:
172,180,44486,2,0,L|168:68,1,110,2|8,1:2|0:0,0:0:0:0:
408,72,44810,6,0,L|292:72,1,110,2|0,1:2|0:0,0:0:0:0:
452,72,45135,1,2,1:2:0:0:
212,72,45297,1,12,0:0:0:0:
356,72,45459,2,0,L|360:128,1,55,2|8,0:0|0:0,0:0:0:0:
224,124,45621,1,8,0:0:0:0:
72,124,45783,1,8,2:3:0:0:
204,124,45946,1,4,2:3:0:0:
72,124,46108,1,4,2:3:0:0:
312,124,46270,6,0,L|316:236,1,110,6|0,1:2|0:0,0:0:0:0:
172,236,46594,2,0,L|168:352,1,110,2|0,1:2|0:0,0:0:0:0:
324,344,46919,2,0,P|408:340|440:224,1,220,10|2,0:0|0:0,0:0:0:0:
220,224,47405,1,10,0:0:0:0:
168,192,47486,1,8,0:0:0:0:
220,160,47567,5,2,1:2:0:0:
364,160,47729,1,2,0:0:0:0:
220,160,47892,2,0,L|216:272,1,110,2|2,1:2|0:0,0:0:0:0:
368,268,48216,2,0,L|252:268,1,110,10|2,0:0|0:0,0:0:0:0:
116,268,48540,2,0,L|112:156,1,110,2|10,0:0|0:0,0:0:0:0:
172,156,48783,1,8,0:0:0:0:
324,156,48864,6,0,L|328:40,1,110,2|0,1:2|0:0,0:0:0:0:
184,44,49189,2,0,L|180:156,1,110,2|0,1:2|0:0,0:0:0:0:
324,156,49513,1,10,0:0:0:0:
180,156,49675,2,0,P|92:160|56:272,1,220,2|10,0:0|0:0,0:0:0:0:
276,272,50162,6,0,L|396:272,1,110,2|8,1:2|0:0,0:0:0:0:
144,272,50486,1,2,1:2:0:0:
140,164,50810,1,2,0:0:0:0:
404,164,51135,2,0,L|408:52,1,110,10|0,0:0|0:0,0:0:0:0:
164,52,51459,6,0,L|160:164,1,110,6|0,1:2|0:0,0:0:0:0:
304,164,51783,2,0,L|308:280,1,110,2|0,1:2|0:0,0:0:0:0:
152,272,52108,2,0,L|148:160,1,110,10|0,0:0|0:0,0:0:0:0:
292,164,52432,2,0,L|176:164,1,110,2|10,0:0|0:0,0:0:0:0:
244,164,52675,1,8,0:0:0:0:
400,164,52756,6,0,L|404:276,1,110,2|8,1:2|0:0,0:0:0:0:
260,272,53081,2,0,L|256:160,1,110,2|0,1:2|0:0,0:0:0:0:
408,164,53405,2,0,L|284:164,1,110,10|0,0:0|0:0,0:0:0:0:
440,164,53729,2,0,L|444:44,1,110,2|10,0:0|0:0,0:0:0:0:
384,56,53973,1,8,0:0:0:0:
232,56,54054,6,0,L|228:168,1,110,2|8,1:2|0:0,0:0:0:0:
372,168,54378,2,0,L|376:284,1,110,2|0,1:2|0:0,0:0:0:0:
232,280,54702,1,10,0:0:0:0:
376,280,54864,1,0,1:2:0:0:
220,280,55027,2,0,L|100:280,1,110,2|0,0:0|1:2,0:0:0:0:
364,280,55351,5,12,0:0:0:0:
212,280,55513,1,0,1:2:0:0:
480,280,55675,2,0,L|484:168,1,110,14|0,0:0|0:0,0:0:0:0:
328,280,56000,1,2,1:2:0:0:
64,280,56162,1,8,0:0:0:0:
60,220,56243,1,8,0:0:0:0:
152,220,56324,1,8,0:2:0:0:
296,220,56486,1,8,0:0:0:0:
300,160,56567,1,8,0:0:0:0:
132,160,56648,6,0,P|68:140|132:48,1,220,6|8,1:2|0:2,0:0:0:0:
276,48,57135,1,2,0:0:0:0:
420,48,57297,2,0,L|424:164,1,110,0|0,1:2|0:0,0:0:0:0:
280,156,57621,2,0,L|152:156,1,110,10|0,0:2|0:0,0:0:0:0:
392,156,57946,6,0,P|468:216|392:268,1,220,0|10,1:2|0:2,0:0:0:0:
248,268,58432,1,0,0:0:0:0:
392,268,58594,2,0,L|268:268,1,110,2|2,1:2|0:0,0:0:0:0:
128,268,58919,2,0,L|124:152,1,110,10|0,0:2|0:0,0:0:0:0:
364,160,59243,6,0,L|132:160,1,220,2|8,1:2|0:2,0:0:0:0:
288,160,59729,1,2,0:0:0:0:
144,160,59892,2,0,L|140:276,1,110,2|0,1:2|0:0,0:0:0:0:
296,272,60216,2,0,L|420:272,1,110,10|0,0:2|0:0,0:0:0:0:
188,272,60540,5,2,1:2:0:0:
332,272,60702,1,8,0:0:0:0:
384,240,60783,1,8,0:0:0:0:
332,272,60864,1,8,1:2:0:0:
112,272,61027,2,0,L|232:272,1,110,8|4,1:3|1:3,0:0:0:0:
80,272,61351,1,4,1:3:0:0:
320,272,61513,2,0,L|436:272,1,110,12|0,1:2|0:0,0:0:0:0:
168,272,61837,5,6,1:2:0:0:
48,272,62000,1,2,0:0:0:0:
168,272,62162,1,10,0:0:0:0:
388,272,62324,1,2,0:0:0:0:
328,272,62405,1,8,0:0:0:0:
268,272,62486,1,0,1:2:0:0:
116,272,62648,2,0,L|228:272,1,110,2|8,1:2|0:0,0:0:0:0:
380,272,62973,1,2,0:0:0:0:
140,272,63135,6,0,L|136:160,1,110,2|0,1:2|0:0,0:0:0:0:
288,160,63459,2,0,L|292:272,1,110,10|2,0:0|0:0,0:0:0:0:
232,272,63702,1,8,0:0:0:0:
96,272,63783,2,0,L|216:272,1,110,2|0,1:2|1:2,0:0:0:0:
360,272,64108,1,10,0:0:0:0:
206,272,64270,1,8,0:0:0:0:
200,332,64351,1,8,0:0:0:0:
364,332,64432,6,0,P|472:240|176:52,1,660,6|0,1:2|0:0,0:0:0:0:
256,192,65729,12,0,66702,0:0:0:0:
304,304,67027,5,6,1:2:0:0:
84,304,67189,2,0,L|80:192,1,110,2|8,0:0|0:0,0:0:0:0:
320,192,67513,1,2,0:0:0:0:
256,192,67594,1,8,0:0:0:0:
192,192,67675,1,0,1:2:0:0:
412,192,67837,2,0,L|416:80,1,110,2|8,1:2|0:0,0:0:0:0:
196,80,68162,1,2,1:2:0:0:
460,80,68324,5,2,0:0:0:0:
308,80,68486,1,2,1:2:0:0:
88,80,68648,1,10,0:0:0:0:
328,80,68810,1,2,0:0:0:0:
392,80,68892,1,8,0:0:0:0:
456,80,68973,1,0,1:2:0:0:
236,80,69135,1,2,1:2:0:0:
84,80,69297,1,8,0:0:0:0:
304,80,69459,2,0,L|364:80,1,55,2|8,0:0|0:0,0:0:0:0:
196,80,69621,5,2,1:2:0:0:
416,80,69783,2,0,L|420:192,1,110,2|8,0:0|0:0,0:0:0:0:
176,192,70108,1,2,0:0:0:0:
240,192,70189,1,8,0:0:0:0:
304,192,70270,1,0,1:2:0:0:
84,192,70432,2,0,L|80:304,1,110,2|8,1:2|0:0,0:0:0:0:
300,300,70756,1,0,1:2:0:0:
36,300,70919,5,2,0:0:0:0:
188,300,71081,1,2,1:2:0:0:
408,300,71243,1,10,0:0:0:0:
164,300,71405,1,2,0:0:0:0:
100,300,71486,1,8,0:0:0:0:
36,300,71567,1,0,1:2:0:0:
256,300,71729,2,0,L|260:184,1,110,2|8,1:2|0:0,0:0:0:0:
40,192,72054,2,0,L|104:192,1,55,2|8,0:0|0:0,0:0:0:0:
260,192,72216,6,0,L|264:304,1,110,4|0,1:2|0:0,0:0:0:0:
112,304,72540,1,10,0:0:0:0:
264,304,72702,2,0,L|332:304,1,55,2|8,0:0|0:0,0:0:0:0:
180,304,72864,1,0,1:2:0:0:
36,304,73027,1,0,1:2:0:0:
180,304,73189,1,10,0:0:0:0:
420,304,73351,6,0,L|192:304,1,220,0|0,1:2|1:2,0:0:0:0:
352,304,73837,1,8,0:0:0:0:
196,304,74000,1,2,0:0:0:0:
260,304,74081,1,8,0:0:0:0:
324,304,74162,1,2,1:2:0:0:
104,304,74324,2,0,L|100:188,1,110,2|8,1:2|0:0,0:0:0:0:
320,192,74648,2,0,L|380:192,1,55,2|8,0:0|0:0,0:0:0:0:
220,192,74810,6,0,L|76:192,1,110,2|0,1:2|0:0,0:0:0:0:
264,192,75135,1,10,0:0:0:0:
112,192,75297,2,0,L|108:252,1,55,2|8,0:0|0:0,0:0:0:0:
244,244,75459,1,2,1:2:0:0:
364,244,75621,1,0,1:2:0:0:
208,244,75783,1,10,0:0:0:0:
364,244,75946,1,0,1:2:0:0:
124,244,76108,5,12,0:0:0:0:
344,244,76270,1,0,1:2:0:0:
72,244,76432,2,0,L|68:132,1,110,14|0,0:0|0:0,0:0:0:0:
380,132,76756,1,2,1:2:0:0:
236,132,76919,1,8,0:0:0:0:
296,132,77000,1,8,0:0:0:0:
456,132,77081,1,2,1:2:0:0:
396,132,77162,1,0,0:0:0:0:
264,132,77243,1,8,0:0:0:0:
204,132,77324,1,8,0:0:0:0:
404,132,77405,6,0,L|408:248,1,110,2|2,1:2|0:0,0:0:0:0:
144,240,77729,1,12,0:0:0:0:
364,132,77892,1,2,0:0:0:0:
300,132,77973,1,8,0:0:0:0:
236,132,78054,1,0,1:2:0:0:
480,132,78216,2,0,L|356:132,1,110,2|8,1:2|0:0,0:0:0:0:
216,132,78540,1,0,1:2:0:0:
480,132,78702,5,2,0:0:0:0:
260,132,78864,2,0,L|144:132,1,110,2|8,1:2|0:0,0:0:0:0:
392,132,79189,1,2,0:0:0:0:
328,132,79270,1,8,0:0:0:0:
264,132,79351,1,0,1:2:0:0:
44,132,79513,2,0,L|40:252,1,110,2|8,1:2|0:0,0:0:0:0:
260,244,79837,2,0,L|344:244,1,55,2|8,0:0|0:0,0:0:0:0:
148,244,80000,5,2,1:2:0:0:
368,244,80162,2,0,L|372:128,1,110,2|8,0:0|0:0,0:0:0:0:
132,132,80486,1,2,0:0:0:0:
196,132,80567,1,8,0:0:0:0:
260,132,80648,1,0,1:2:0:0:
40,132,80810,2,0,L|156:132,1,110,0|8,1:2|0:0,0:0:0:0:
372,132,81135,1,2,1:2:0:0:
108,132,81297,5,2,0:0:0:0:
260,132,81459,1,2,1:2:0:0:
40,132,81621,1,8,0:0:0:0:
280,132,81783,1,2,0:0:0:0:
344,132,81864,1,8,0:0:0:0:
412,132,81946,1,0,1:2:0:0:
192,132,82108,2,0,L|188:244,1,110,2|8,1:2|0:0,0:0:0:0:
408,244,82432,2,0,L|464:244,1,55,2|8,0:0|0:0,0:0:0:0:
300,244,82594,6,0,L|176:244,1,110,6|0,1:2|0:0,0:0:0:0:
344,244,82919,1,10,0:0:0:0:
192,244,83081,2,0,L|188:300,1,55,2|8,0:0|0:0,0:0:0:0:
324,296,83243,1,2,1:2:0:0:
468,296,83405,1,0,1:2:0:0:
324,296,83567,1,10,0:0:0:0:
84,296,83729,6,0,L|308:296,1,220,0|0,1:2|1:2,0:0:0:0:
148,296,84216,1,8,0:0:0:0:
300,296,84378,1,2,0:0:0:0:
236,296,84459,1,8,0:0:0:0:
172,296,84540,1,2,1:2:0:0:
392,296,84702,2,0,L|396:184,1,110,2|8,1:2|0:0,0:0:0:0:
240,184,85027,1,2,0:0:0:0:
484,184,85189,5,0,1:2:0:0:
332,184,85351,1,8,0:0:0:0:
396,184,85432,1,8,0:0:0:0:
460,184,85513,1,8,0:0:0:0:
240,184,85675,1,0,1:2:0:0:
392,184,85837,1,8,0:0:0:0:
324,184,85919,1,8,0:0:0:0:
252,184,86000,1,8,0:0:0:0:
320,184,86081,1,0,1:2:0:0:
404,184,86162,2,0,L|408:240,1,55,0|0,1:2|1:2,0:0:0:0:
252,240,86324,6,0,L|248:352,1,110,14|0,0:2|0:0,0:0:0:0:
400,348,86648,1,8,0:0:0:0:
180,348,86810,1,8,0:0:0:0:
36,348,86973,2,0,L|92:348,1,55,0|0,1:2|1:2,0:0:0:0:
252,348,87135,2,0,L|376:348,1,110,8|8,0:0|0:0,0:0:0:0:
300,347,87378,1,8,0:0:0:0:
144,348,87459,1,8,0:0:0:0:
204,348,87540,1,8,0:0:0:0:
348,348,87621,1,8,0:0:0:0:
408,348,87702,1,8,0:0:0:0:
192,296,87783,5,6,1:2:0:0:
48,296,87946,2,0,L|44:184,1,110,2|8,0:0|0:0,0:0:0:0:
264,184,88270,2,0,L|268:128,1,55,2|8,0:0|0:0,0:0:0:0:
176,128,88432,2,0,L|312:128,1,110,0|0,1:0|1:0,0:0:0:0:
432,128,88756,1,10,0:0:0:0:
176,128,88919,6,0,L|172:240,1,110,6|0,1:2|0:0,0:0:0:0:
392,240,89243,2,0,L|272:240,1,110,2|8,1:2|0:0,0:0:0:0:
128,240,89567,2,0,L|124:184,1,55,2|8,0:0|0:0,0:0:0:0:
260,184,89729,2,0,L|392:184,1,110,2|2,1:2|1:2,0:0:0:0:
216,184,90054,2,0,L|92:184,1,110,10|0,0:0|0:0,0:0:0:0:
168,184,90297,1,0,0:0:0:0:
320,184,90378,5,6,1:2:0:0:
176,184,90540,2,0,L|172:296,1,110,2|8,0:0|0:0,0:0:0:0:
392,296,90864,2,0,L|396:240,1,55,2|8,0:0|0:0,0:0:0:0:
300,240,91027,2,0,L|296:128,1,110,0|0,1:2|1:2,0:0:0:0:
448,132,91351,1,10,0:0:0:0:
184,128,91513,6,0,L|68:128,1,110,6|0,1:2|0:0,0:0:0:0:
292,128,91837,2,0,L|408:128,1,110,2|8,1:2|0:0,0:0:0:0:
248,128,92162,2,0,L|244:184,1,55,2|8,0:0|0:0,0:0:0:0:
380,184,92324,2,0,L|260:184,1,110,2|2,1:2|1:2,0:0:0:0:
116,188,92648,2,0,L|112:300,1,110,8|2,0:0|0:0,0:0:0:0:
172,296,92892,1,8,0:0:0:0:
324,296,92973,5,6,1:2:0:0:
180,296,93135,2,0,L|176:184,1,110,2|8,0:0|0:0,0:0:0:0:
396,188,93459,2,0,L|400:132,1,55,2|8,0:0|0:0,0:0:0:0:
308,136,93621,2,0,L|176:136,1,110,0|0,1:2|1:2,0:0:0:0:
352,136,93946,1,10,0:0:0:0:
88,136,94108,6,0,L|208:136,1,110,6|0,1:2|0:0,0:0:0:0:
418,136,94432,2,0,L|290:136,1,110,2|8,1:2|0:0,0:0:0:0:
156,136,94756,2,0,L|152:192,1,55,2|8,0:0|0:0,0:0:0:0:
292,192,94919,2,0,L|420:192,1,110,2|2,1:2|1:2,0:0:0:0:
248,192,95243,2,0,L|124:192,1,110,10|2,0:0|0:0,0:0:0:0:
200,192,95486,1,8,0:0:0:0:
364,192,95567,5,6,1:2:0:0:
496,192,95729,1,2,0:0:0:0:
364,192,95892,1,10,0:0:0:0:
144,192,96054,2,0,L|204:192,1,55,2|8,0:0|0:0,0:0:0:0:
292,192,96216,2,0,L|176:192,1,110,0|2,1:2|1:2,0:0:0:0:
336,192,96540,1,8,0:0:0:0:
72,192,96702,6,0,L|192:192,1,110,6|0,1:2|0:0,0:0:0:0:
28,192,97027,1,0,1:2:0:0:
248,192,97189,2,0,L|132:192,1,110,8|2,0:0|0:0,0:0:0:0:
380,192,97513,1,0,1:2:0:0:
318,192,97594,1,8,0:0:0:0:
160,192,97675,1,8,0:0:0:0:
100,192,97756,1,8,0:0:0:0:
252,192,97837,2,0,L|368:192,1,110,8|8,0:0|0:0,0:0:0:0:
296,192,98081,1,8,0:0:0:0:
92,192,98162,6,0,L|208:192,1,110,6|2,1:2|0:0,0:0:0:0:
356,192,98486,2,0,L|244:192,1,110,8|2,0:0|0:0,0:0:0:0:
104,192,98810,1,2,1:2:0:0:
248,192,98973,2,0,P|332:188|376:72,1,220,2|10,1:2|0:2,0:0:0:0:
156,72,99459,6,0,L|152:184,1,110,2|0,0:0|1:2,0:0:0:0:
296,184,99783,2,0,L|184:184,1,110,10|0,0:0|0:0,0:0:0:0:
340,184,100108,2,0,L|344:296,1,110,2|0,1:2|1:2,0:0:0:0:
192,292,100432,2,0,L|188:180,1,110,10|0,0:0|0:0,0:0:0:0:
428,180,100756,6,0,L|208:180,2,220,2|8|0,1:2|0:0|1:2,0:0:0:0:
284,180,101567,1,0,1:2:0:0:
428,180,101729,1,2,0:0:0:0:
208,180,101892,6,0,P|132:132|208:68,1,220,10|0,0:2|1:2,0:0:0:0:
360,72,102378,2,0,L|364:184,1,110,8|0,0:0|0:0,0:0:0:0:
208,180,102702,2,0,L|88:180,1,110,2|2,1:2|1:2,0:0:0:0:
252,180,103027,2,0,L|368:180,1,110,10|0,0:0|0:0,0:0:0:0:
120,180,103351,6,0,L|236:180,1,110,2|2,1:2|0:0,0:0:0:0:
76,180,103675,1,10,0:0:0:0:
228,180,103837,2,0,L|232:292,1,110,2|0,0:0|1:2,0:0:0:0:
76,288,104162,2,0,P|24:240|116:172,1,220,2|10,1:2|0:2,0:0:0:0:
348,172,104648,6,0,L|232:172,1,110,2|2,0:0|1:2,0:0:0:0:
392,172,104973,1,10,0:0:0:0:
240,172,105135,2,0,L|236:284,1,110,2|0,0:0|1:2,0:0:0:0:
388,284,105459,2,0,P|464:236|388:172,1,220,2|2,1:2|0:0,0:0:0:0:
144,172,105946,5,2,1:2:0:0:
288,172,106108,2,0,L|292:56,1,110,2|8,0:0|0:0,0:0:0:0:
136,64,106432,2,0,L|24:64,2,110,2|0|2,0:0|1:2|1:2,0:0:0:0:
292,64,106919,1,8,0:0:0:0:
72,64,107081,6,0,L|68:176,1,110,2|0,1:2|0:0,0:0:0:0:
224,172,107405,2,0,L|228:284,1,110,2|2,0:0|0:0,0:0:0:0:
84,284,107729,1,2,0:0:0:0:
20,168,107892,1,2,0:0:0:0:
84,284,108054,1,2,0:0:0:0:
216,284,108216,2,0,L|68:212,1,165,2|0,0:0|0:0,0:0:0:0:
236,204,108540,5,6,1:2:0:0:
372,204,108702,1,2,0:0:0:0:
236,204,108864,2,0,L|232:320,1,110,10|2,0:0|0:0,0:0:0:0:
388,312,109189,1,2,1:2:0:0:
168,316,109351,2,0,P|84:312|44:192,1,220,2|2,1:2|1:2,0:0:0:0:
284,192,109837,6,0,L|288:72,1,110,2|0,0:0|1:2,0:0:0:0:
132,84,110162,2,0,L|128:196,1,110,10|2,0:0|0:0,0:0:0:0:
188,192,110405,1,8,0:0:0:0:
324,192,110486,2,0,L|200:192,1,110,2|0,1:2|1:2,0:0:0:0:
368,192,110810,2,0,L|372:304,1,110,10|2,0:0|0:0,0:0:0:0:
312,300,111054,1,8,0:0:0:0:
160,300,111135,6,0,L|404:300,1,220,2|8,1:2|0:0,0:0:0:0:
236,300,111621,1,2,0:0:0:0:
184,268,111702,1,8,0:0:0:0:
236,236,111783,1,0,1:2:0:0:
380,236,111946,1,0,1:2:0:0:
236,236,112108,1,10,0:0:0:0:
476,236,112270,6,0,P|480:152|364:120,1,220,2|0,1:2|1:2,0:0:0:0:
212,120,112756,2,0,L|96:120,1,110,8|2,0:0|0:0,0:0:0:0:
164,120,113000,1,8,0:0:0:0:
300,120,113081,2,0,L|304:232,1,110,2|2,1:2|1:2,0:0:0:0:
152,232,113405,2,0,L|148:344,1,110,10|2,0:0|0:0,0:0:0:0:
208,344,113648,1,8,0:0:0:0:
360,344,113729,6,0,P|436:288|360:232,1,220,2|10,1:2|0:0,0:0:0:0:
140,232,114216,1,2,0:0:0:0:
200,232,114297,1,8,0:0:0:0:
260,232,114378,1,0,1:2:0:0:
108,232,114540,2,0,L|220:232,1,110,2|8,1:2|0:0,0:0:0:0:
372,232,114864,1,2,1:2:0:0:
128,232,115027,6,0,P|52:192|128:128,1,220,2|10,0:0|0:0,0:0:0:0:
348,128,115513,1,2,0:0:0:0:
288,128,115594,1,8,0:0:0:0:
228,128,115675,1,0,1:2:0:0:
76,128,115837,2,0,L|192:128,1,110,2|8,1:2|0:0,0:0:0:0:
348,128,116162,2,0,L|352:64,1,55,2|8,0:0|0:0,0:0:0:0:
196,72,116324,5,2,1:2:0:0:
52,72,116486,2,0,L|48:184,1,110,2|8,0:0|0:0,0:0:0:0:
268,180,116810,1,2,0:0:0:0:
208,180,116892,1,8,0:0:0:0:
148,180,116973,1,0,1:2:0:0:
300,180,117135,2,0,L|304:296,1,110,2|8,1:2|0:0,0:0:0:0:
84,292,117459,5,10,0:2:0:0:
144,292,117540,1,8,0:0:0:0:
204,292,117621,1,8,0:0:0:0:
356,292,117783,1,10,0:2:0:0:
136,292,117946,2,0,L|132:180,1,110,8|8,2:3|2:3,0:0:0:0:
276,180,118270,1,8,0:0:0:0:
132,180,118432,1,8,2:3:0:0:
284,180,118594,2,0,L|396:180,1,110,4|4,2:3|2:3,0:0:0:0:
128,180,118919,6,0,L|124:296,1,110,6|0,1:2|0:0,0:0:0:0:
280,292,119243,2,0,L|284:176,1,110,2|0,1:2|0:0,0:0:0:0:
128,180,119567,2,0,P|56:148|132:76,1,220,10|2,0:0|0:0,0:0:0:0:
364,76,120054,5,10,0:0:0:0:
416,108,120135,1,8,0:0:0:0:
364,140,120216,1,2,1:2:0:0:
212,140,120378,1,2,0:0:0:0:
364,140,120540,2,0,L|368:256,1,110,2|2,1:2|0:0,0:0:0:0:
212,252,120864,2,0,L|96:252,1,110,10|2,0:0|0:0,0:0:0:0:
256,252,121189,2,0,L|376:252,1,110,2|10,0:0|0:0,0:0:0:0:
304,252,121432,1,8,0:0:0:0:
168,252,121513,6,0,L|164:140,1,110,2|0,1:2|0:0,0:0:0:0:
316,144,121837,2,0,L|320:32,1,110,2|0,1:2|0:0,0:0:0:0:
172,32,122162,1,10,0:0:0:0:
320,32,122324,2,0,P|408:36|456:148,1,220,2|10,0:0|0:0,0:0:0:0:
232,144,122810,6,0,L|116:144,1,110,2|8,1:2|0:0,0:0:0:0:
344,144,123135,1,2,1:2:0:0:
476,144,123297,1,2,0:0:0:0:
344,144,123459,1,2,0:0:0:0:
80,144,123783,2,0,L|76:256,1,110,2|0,0:0|0:0,0:0:0:0:
320,256,124108,6,0,L|440:256,1,110,6|0,1:2|0:0,0:0:0:0:
276,256,124432,2,0,L|156:256,1,110,2|0,1:2|0:0,0:0:0:0:
320,256,124756,2,0,L|324:144,1,110,10|0,0:0|0:0,0:0:0:0:
168,148,125081,2,0,L|44:148,1,110,2|10,0:0|0:0,0:0:0:0:
120,148,125324,1,8,0:0:0:0:
256,148,125405,6,0,L|260:260,1,110,2|8,1:2|0:0,0:0:0:0:
108,260,125729,2,0,L|224:260,1,110,2|0,1:2|0:0,0:0:0:0:
372,256,126054,2,0,L|256:256,1,110,10|0,0:0|0:0,0:0:0:0:
108,260,126378,2,0,L|104:148,1,110,2|10,0:0|0:0,0:0:0:0:
164,148,126621,1,8,0:0:0:0:
300,148,126702,6,0,L|424:148,1,110,2|8,1:2|0:0,0:0:0:0:
256,148,127027,2,0,L|252:268,1,110,2|0,1:2|1:2,0:0:0:0:
396,260,127351,1,10,0:0:0:0:
252,260,127513,1,8,2:3:0:0:
408,260,127675,2,0,L|411:150,1,110,4|4,2:3|2:3,0:0:0:0:
176,148,128000,5,12,0:0:0:0:
328,148,128162,1,0,1:2:0:0:
64,36,128324,2,0,L|56:148,1,110,14|0,0:0|0:0,0:0:0:0:
212,148,128648,1,2,1:2:0:0:
432,148,128810,2,0,L|436:204,1,55,8|8,0:0|0:0,0:0:0:0:
340,204,128973,1,8,0:2:0:0:
188,200,129135,2,0,L|184:256,1,55,8|8,0:0|0:0,0:0:0:0:
364,252,129297,6,0,P|440:200|364:140,1,220,6|8,1:2|0:2,0:0:0:0:
208,140,129783,1,2,0:0:0:0:
364,140,129946,2,0,L|252:140,1,110,0|0,1:2|0:0,0:0:0:0:
100,140,130270,2,0,L|96:256,1,110,10|2,0:2|0:0,0:0:0:0:
316,248,130594,6,0,L|88:248,1,220,0|10,1:2|0:2,0:0:0:0:
252,248,131081,1,0,0:0:0:0:
96,248,131243,2,0,L|92:132,1,110,2|2,1:2|0:0,0:0:0:0:
248,136,131567,2,0,L|364:136,1,110,10|0,0:2|0:0,0:0:0:0:
140,136,131892,6,0,P|68:100|144:28,1,220,2|8,1:2|0:2,0:0:0:0:
296,28,132378,1,2,0:0:0:0:
144,28,132540,2,0,L|276:28,1,110,2|0,1:2|0:0,0:0:0:0:
408,28,132864,2,0,L|412:148,1,110,10|0,0:2|0:0,0:0:0:0:
192,144,133189,5,2,1:2:0:0:
344,144,133351,1,8,0:0:0:0:
124,144,133513,2,0,L|120:204,1,55,0|2,1:2|1:2,0:0:0:0:
252,196,133675,1,8,1:3:0:0:
316,196,133756,1,0,1:2:0:0:
312,260,133837,1,0,1:2:0:0:
248,260,133919,1,0,1:2:0:0:
156,260,134000,1,8,1:3:0:0:
96,260,134081,1,0,1:2:0:0:
228,304,134162,1,0,1:2:0:0:
84,306,134324,1,8,0:2:0:0:
328,304,134486,5,6,1:2:0:0:
468,304,134648,1,2,1:2:0:0:
328,304,134810,1,10,0:0:0:0:
108,304,134973,1,2,0:0:0:0:
168,304,135054,1,8,0:0:0:0:
228,304,135135,1,0,1:2:0:0:
76,304,135297,1,2,1:2:0:0:
296,304,135459,1,8,0:0:0:0:
416,304,135621,1,2,0:0:0:0:
420,244,135702,1,8,0:0:0:0:
284,244,135783,6,0,L|160:244,1,110,2|0,1:2|1:2,0:0:0:0:
328,244,136108,1,10,0:0:0:0:
176,244,136270,1,2,1:2:0:0:
440,244,136432,1,6,1:2:0:0:
220,244,136594,1,8,2:3:0:0:
280,244,136675,1,8,2:3:0:0:
340,244,136756,1,8,2:3:0:0:
184,244,136919,1,0,1:2:0:0:
448,244,137081,6,0,P|488:168|224:224,1,660,6|0,1:2|0:0,0:0:0:0:
256,192,138378,12,0,139351,0:0:0:0:
332,192,139675,5,6,1:2:0:0:
180,192,139837,1,2,0:0:0:0:
400,192,140000,1,10,0:0:0:0:
160,192,140162,1,2,0:0:0:0:
224,192,140243,1,8,0:0:0:0:
288,192,140324,1,0,1:2:0:0:
68,192,140486,2,0,L|200:192,1,110,2|8,1:2|0:0,0:0:0:0:
396,192,140810,1,2,1:2:0:0:
132,192,140973,5,2,0:0:0:0:
284,192,141135,1,2,1:2:0:0:
64,192,141297,1,10,0:0:0:0:
304,192,141459,1,2,0:0:0:0:
240,192,141540,1,8,0:0:0:0:
176,192,141621,1,0,1:2:0:0:
396,192,141783,2,0,L|400:304,1,110,2|8,1:2|0:0,0:0:0:0:
180,300,142108,2,0,L|240:300,1,55,2|8,0:0|0:0,0:0:0:0:
400,300,142270,5,2,1:2:0:0:
180,300,142432,2,0,L|64:300,1,110,2|8,0:0|0:0,0:0:0:0:
312,300,142756,1,2,0:0:0:0:
376,300,142837,1,8,0:0:0:0:
440,300,142919,1,0,1:2:0:0:
220,296,143081,2,0,L|216:180,1,110,2|8,1:2|0:0,0:0:0:0:
436,188,143405,1,2,1:2:0:0:
172,188,143567,5,2,0:0:0:0:
324,188,143729,1,2,1:2:0:0:
104,188,143892,1,10,0:0:0:0:
344,188,144054,1,2,0:0:0:0:
280,188,144135,1,8,0:0:0:0:
216,188,144216,1,0,1:2:0:0:
436,188,144378,2,0,L|316:188,1,110,2|8,1:2|0:0,0:0:0:0:
108,188,144702,2,0,L|104:244,1,55,2|8,0:0|0:0,0:0:0:0:
268,240,144864,6,0,L|400:240,1,110,6|0,1:2|0:0,0:0:0:0:
220,240,145189,1,10,0:0:0:0:
376,240,145351,2,0,L|316:240,1,55,2|8,0:0|0:0,0:0:0:0:
156,240,145513,1,2,1:2:0:0:
24,240,145675,1,0,1:2:0:0:
156,240,145837,1,10,0:0:0:0:
400,240,146000,6,0,L|176:240,1,220,0|0,1:2|1:2,0:0:0:0:
332,240,146486,1,8,0:0:0:0:
180,240,146648,1,2,0:0:0:0:
116,240,146729,1,8,0:0:0:0:
52,240,146810,1,2,1:2:0:0:
272,240,146973,2,0,L|276:128,1,110,2|8,1:2|0:0,0:0:0:0:
56,132,147297,2,0,L|52:72,1,55,2|8,0:0|0:0,0:0:0:0:
216,76,147459,6,0,L|348:76,1,110,2|0,1:2|0:0,0:0:0:0:
172,76,147783,2,0,L|56:76,1,110,10|2,0:0|0:0,0:0:0:0:
124,76,148027,1,8,0:0:0:0:
260,76,148108,2,0,L|376:76,1,110,2|0,1:2|1:2,0:0:0:0:
216,76,148432,1,10,0:0:0:0:
456,76,148594,6,0,L|340:76,1,110,0|0,1:2|0:0,0:0:0:0:
192,76,148919,2,0,L|188:132,1,55,0|0,1:2|1:2,0:0:0:0:
324,128,149081,1,10,0:0:0:0:
476,128,149243,2,0,L|480:184,1,55,0|0,1:2|1:2,0:0:0:0:
344,184,149405,1,10,0:0:0:0:
180,184,149567,2,0,L|176:240,1,55,0|0,1:2|1:2,0:0:0:0:
328,236,149729,2,0,L|460:236,1,110,14|0,0:0|0:0,0:0:0:0:
196,236,150054,5,2,1:2:0:0:
348,236,150216,1,2,0:0:0:0:
84,236,150378,1,12,0:0:0:0:
304,236,150540,1,2,0:0:0:0:
240,236,150621,1,8,0:0:0:0:
176,236,150702,1,0,1:2:0:0:
396,236,150864,2,0,L|400:120,1,110,2|8,1:2|0:0,0:0:0:0:
180,124,151189,1,2,1:2:0:0:
444,124,151351,5,2,0:0:0:0:
292,124,151513,1,2,1:2:0:0:
72,124,151675,1,10,0:0:0:0:
312,124,151837,1,2,0:0:0:0:
376,124,151919,1,8,0:0:0:0:
440,124,152000,1,0,1:2:0:0:
180,124,152162,2,0,L|176:236,1,110,2|8,1:2|0:0,0:0:0:0:
396,236,152486,2,0,L|464:236,1,55,2|8,0:0|0:0,0:0:0:0:
288,236,152648,5,2,1:2:0:0:
68,232,152810,2,0,L|64:344,1,110,2|8,0:0|0:0,0:0:0:0:
308,340,153135,1,2,0:0:0:0:
244,340,153216,1,8,0:0:0:0:
180,340,153297,1,0,1:2:0:0:
400,340,153459,2,0,L|284:340,1,110,2|8,1:2|0:0,0:0:0:0:
136,340,153783,1,2,1:2:0:0:
400,340,153946,5,2,0:0:0:0:
248,340,154108,1,2,1:2:0:0:
468,340,154270,1,10,0:0:0:0:
228,340,154432,1,2,0:0:0:0:
292,340,154513,1,8,0:0:0:0:
356,340,154594,1,0,1:2:0:0:
136,340,154756,2,0,L|132:228,1,110,2|8,1:2|0:0,0:0:0:0:
352,228,155081,2,0,L|424:228,1,55,2|8,0:0|0:0,0:0:0:0:
244,228,155243,6,0,L|124:228,1,110,6|0,1:2|0:0,0:0:0:0:
288,228,155567,1,10,0:0:0:0:
136,228,155729,2,0,L|192:228,1,55,2|8,0:0|0:0,0:0:0:0:
332,228,155892,1,2,1:2:0:0:
476,228,156054,1,0,1:2:0:0:
332,228,156216,1,10,0:0:0:0:
92,228,156378,6,0,L|336:228,1,220,0|0,1:2|1:2,0:0:0:0:
160,228,156864,1,8,0:0:0:0:
312,228,157027,1,2,0:0:0:0:
248,228,157108,1,8,0:0:0:0:
184,228,157189,1,2,1:2:0:0:
336,228,157351,1,2,1:2:0:0:
116,228,157513,2,0,L|112:112,1,110,12|2,0:0|0:0,0:0:0:0:
352,116,157837,5,8,1:2:0:0:
284,116,157919,1,8,2:3:0:0:
220,116,158000,1,8,2:3:0:0:
440,116,158162,1,2,1:2:0:0:
200,116,158324,1,8,0:0:0:0:
264,116,158405,1,8,1:3:0:0:
328,116,158486,1,8,2:3:0:0:
264,116,158567,1,0,1:2:0:0:
128,116,158648,2,0,L|124:172,1,55,0|0,1:2|1:2,0:0:0:0:
288,172,158810,1,12,1:2:0:0:
404,172,159027,1,8,0:0:0:0:
184,172,159135,5,8,0:2:0:0:
276,172,159243,1,8,0:0:0:0:
180,172,159351,1,8,0:0:0:0:
272,172,159459,1,8,0:2:0:0:
104,172,159567,2,0,L|100:256,1,73.3333333333333,8|0,0:3|0:0,0:0:0:0:
284,244,159783,6,0,L|288:324,1,73.3333333333333,8|0,0:3|0:0,0:0:0:0:
116,316,160000,1,8,0:3:0:0:
212,316,160108,1,8,0:3:0:0:
116,316,160216,1,4,0:3:0:0:
112,236,160324,1,4,0:3:0:0:
336,236,160432,5,6,1:2:0:0:
156,304,165621,6,0,P|88:260|164:184,1,220,2|2,1:2|0:0,0:0:0:0:
320,184,166108,2,0,L|92:184,1,220,2|2,0:0|0:0,0:0:0:0:
244,184,166594,1,2,0:0:0:0:
100,184,166756,1,0,1:2:0:0:
256,184,166919,6,0,P|340:180|384:64,1,220,2|2,1:2|0:0,0:0:0:0:
232,64,167405,2,0,P|144:68|104:184,1,220,2|2,0:0|0:0,0:0:0:0:
256,180,167892,2,0,L|388:180,1,110,2|0,0:0|0:0,0:0:0:0:
212,180,168216,6,0,P|136:224|212:288,1,220,2|2,1:2|0:0,0:0:0:0:
366,287,168702,2,0,P|442:243|366:179,1,220,2|2,0:0|0:0,0:0:0:0:
212,176,169189,2,0,L|96:176,1,110,2|0,0:0|0:0,0:0:0:0:
256,176,169513,6,0,P|328:140|252:68,1,220,2|2,1:2|1:2,0:0:0:0:
100,68,170000,1,2,0:0:0:0:
252,68,170162,2,0,L|256:180,1,110,2|0,1:2|0:0,0:0:0:0:
104,180,170486,2,0,L|100:300,1,110,2|0,1:2|0:0,0:0:0:0:
320,288,170810,5,2,1:2:0:0:
176,288,170973,1,2,0:0:0:0:
320,288,171135,2,0,L|324:172,1,110,10|0,0:0|0:0,0:0:0:0:
168,176,171459,2,0,L|52:176,1,110,10|0,0:0|0:0,0:0:0:0:
212,176,171783,2,0,L|328:176,1,110,10|0,0:0|0:0,0:0:0:0:
180,176,172108,5,10,1:2:0:0:
320,176,172270,1,2,0:0:0:0:
168,176,172432,2,0,L|164:60,1,110,10|0,0:0|0:0,0:0:0:0:
320,64,172756,2,0,L|204:64,1,110,10|0,0:0|0:0,0:0:0:0:
56,64,173081,2,0,L|172:64,1,110,10|0,0:0|0:0,0:0:0:0:
428,64,173405,6,0,P|480:104|420:164,1,165,14|8,1:2|0:0,0:0:0:0:
356,164,173729,1,0,1:2:0:0:
136,164,173892,1,8,0:0:0:0:
72,164,173973,1,8,0:0:0:0:
140,164,174054,1,0,1:2:0:0:
292,164,174216,1,8,0:0:0:0:
72,164,174378,1,0,1:2:0:0:
132,164,174459,1,8,0:0:0:0:
264,164,174540,1,8,0:0:0:0:
324,164,174621,1,8,0:0:0:0:
168,80,174702,6,0,P|104:160|256:252,1,330,2|0,0:0|0:0,0:0:0:0:
412,252,175351,2,0,L|416:140,1,110,2|0,0:0|0:0,0:0:0:0:
196,140,175675,2,0,L|72:136,1,110,2|0,0:0|0:0,0:0:0:0:
352,140,176000,6,0,L|472:136,1,110,6|2,1:2|0:0,0:0:0:0:
308,136,176324,1,10,0:0:0:0:
88,136,176486,2,0,L|84:248,1,110,2|0,0:0|1:2,0:0:0:0:
236,244,176810,2,0,L|240:132,1,110,2|8,1:2|0:0,0:0:0:0:
84,136,177135,1,2,1:2:0:0:
304,136,177297,5,2,0:0:0:0:
448,136,177459,1,2,1:2:0:0:
304,136,177621,1,8,0:0:0:0:
84,136,177783,2,0,L|80:248,1,110,2|0,0:0|1:2,0:0:0:0:
236,248,178108,1,0,1:2:0:0:
456,248,178270,2,0,L|460:360,1,110,10|0,0:0|0:0,0:0:0:0:
220,356,178594,6,0,L|104:356,1,110,2|2,1:2|0:0,0:0:0:0:
268,356,178919,1,10,0:0:0:0:
112,356,179081,1,2,0:0:0:0:
332,356,179243,2,0,L|336:244,1,110,2|0,1:2|1:2,0:0:0:0:
184,248,179567,1,10,0:0:0:0:
336,248,179729,1,2,1:2:0:0:
116,248,179892,6,0,L|112:136,1,110,2|0,0:0|1:2,0:0:0:0:
264,140,180216,1,10,0:0:0:0:
112,140,180378,1,2,0:0:0:0:
332,136,180540,2,0,L|472:136,1,110,2|0,1:2|1:2,0:0:0:0:
200,136,180864,2,0,L|68:136,1,110,10|0,0:0|0:0,0:0:0:0:
368,136,181189,5,6,1:2:0:0:
224,136,181351,1,2,0:0:0:0:
368,136,181513,1,8,0:0:0:0:
148,136,181675,2,0,L|144:252,1,110,2|0,0:0|1:2,0:0:0:0:
300,248,182000,1,2,1:2:0:0:
148,248,182162,2,0,L|12:248,1,110,10|0,0:0|1:2,0:0:0:0:
292,248,182486,5,2,0:0:0:0:
436,248,182648,1,2,1:2:0:0:
292,248,182810,1,10,0:0:0:0:
72,248,182973,2,0,L|68:136,1,110,2|0,0:0|1:2,0:0:0:0:
220,136,183297,1,2,1:2:0:0:
440,136,183459,2,0,L|316:136,1,110,10|0,0:0|0:0,0:0:0:0:
68,138,183783,5,12,1:2:0:0:
288,138,183946,1,0,1:2:0:0:
136,138,184108,1,0,1:2:0:0:
396,136,184270,1,12,1:2:0:0:
176,136,184432,1,0,1:2:0:0:
328,136,184594,1,0,1:2:0:0:
64,136,184756,5,12,1:2:0:0:
284,136,184919,1,0,1:2:0:0:
436,136,185081,1,0,1:2:0:0:
192,136,185243,1,12,1:2:0:0:
412,136,185405,1,0,1:2:0:0:
260,136,185567,1,0,1:2:0:0:
480,136,185729,1,8,2:3:0:0:
408,136,185810,1,8,2:3:0:0:
336,136,185892,1,0,1:2:0:0:
116,136,186054,2,0,L|112:248,1,110,12|0,1:2|0:0,0:0:0:0:
264,244,186378,5,8,0:0:0:0:
44,248,186540,1,8,0:0:0:0:
44,248,186864,1,2,0:0:0:0:
264,248,187027,1,10,0:0:0:0:
120,248,187189,1,0,1:2:0:0:
264,248,187351,1,10,0:0:0:0:
484,248,187513,6,0,L|488:136,1,110,6|0,1:2|0:0,0:0:0:0:
244,248,187837,2,0,L|240:308,1,55,8|8,2:3|2:3,0:0:0:0:
324,304,188000,2,0,L|328:248,1,55,8|8,2:3|2:3,0:0:0:0:
244,248,188162,2,0,L|192:232,1,55,0|0,1:2|1:2,0:0:0:0:
344,248,188324,6,0,L|348:192,1,55,8|8,0:2|2:3,0:0:0:0:
264,192,188486,2,0,L|260:136,1,55,0|0,1:2|1:2,0:0:0:0:
416,136,188648,1,8,2:3:0:0:
476,136,188729,1,8,2:3:0:0:
472,192,188810,1,4,2:3:0:0:
412,192,188892,1,4,2:3:0:0:
216,196,188973,5,6,1:2:0:0:
72,192,189135,2,0,L|68:80,1,110,2|8,0:0|0:0,0:0:0:0:
288,80,189459,2,0,L|404:80,1,110,2|0,0:0|1:2,0:0:0:0:
244,80,189783,1,0,1:2:0:0:
400,80,189946,1,10,0:0:0:0:
160,80,190108,6,0,L|156:192,1,110,2|0,1:2|0:0,0:0:0:0:
308,192,190432,1,0,1:2:0:0:
156,192,190594,1,10,0:0:0:0:
376,192,190756,2,0,L|252:192,1,110,2|0,0:0|1:2,0:0:0:0:
420,192,191081,1,2,1:2:0:0:
156,192,191243,2,0,L|44:192,1,110,14|0,0:0|0:0,0:0:0:0:
308,192,191567,5,6,1:2:0:0:
156,192,191729,2,0,L|152:304,1,110,2|8,0:0|0:0,0:0:0:0:
372,304,192054,2,0,L|376:192,1,110,2|0,0:0|1:2,0:0:0:0:
224,192,192378,1,2,1:2:0:0:
376,192,192540,1,8,0:0:0:0:
136,192,192702,6,0,L|280:192,1,110,2|0,1:2|0:0,0:0:0:0:
400,192,193027,2,0,L|280:192,1,110,2|8,1:2|0:0,0:0:0:0:
72,192,193351,2,0,L|68:248,1,55,2|0,1:2|1:2,0:0:0:0:
224,244,193513,1,8,0:0:0:0:
288,244,193594,1,8,2:3:0:0:
284,244,193675,1,0,1:2:0:0:
220,244,193756,1,0,1:2:0:0:
400,244,193837,2,0,L|404:128,1,110,12|0,0:0|0:0,0:0:0:0:
140,132,194162,5,14,1:2:0:0:
360,132,194324,1,0,1:2:0:0:
208,132,194486,1,0,1:2:0:0:
472,132,194648,1,14,1:2:0:0:
252,132,194810,1,0,1:2:0:0:
408,132,194973,1,0,1:2:0:0:
144,132,195135,5,14,1:2:0:0:
364,132,195297,1,0,1:2:0:0:
212,132,195459,1,0,1:2:0:0:
476,132,195621,1,14,1:2:0:0:
256,132,195783,1,0,1:2:0:0:
100,132,195946,1,0,1:2:0:0:
364,132,196108,1,10,1:2:0:0:
144,132,196270,1,10,1:2:0:0:
364,132,196432,1,10,1:2:0:0:
100,132,196594,1,10,1:2:0:0:
172,80,198054,5,6,1:2:0:0:
304,80,198216,1,2,0:0:0:0:
172,80,198378,1,2,0:0:0:0:
324,80,198540,2,0,L|328:192,1,110,2|2,0:0|0:0,0:0:0:0:
176,188,198864,2,0,P|92:192|52:308,1,220,2|2,0:0|0:0,0:0:0:0:
316,308,199351,5,6,1:2:0:0:
184,308,199513,1,2,0:0:0:0:
316,308,199675,1,2,0:0:0:0:
164,308,199837,2,0,L|160:196,1,110,2|0,0:0|0:0,0:0:0:0:
312,200,200162,2,0,P|396:196|436:80,1,220,2|2,0:0|0:0,0:0:0:0:
172,80,200648,5,6,1:2:0:0:
324,80,200810,2,0,L|328:192,1,110,2|0,0:0|0:0,0:0:0:0:
172,192,201135,2,0,L|164:304,1,110,2|0,0:0|0:0,0:0:0:0:
316,304,201459,2,0,L|84:304,1,220,2|2,0:0|0:0,0:0:0:0:
360,304,201946,5,6,1:2:0:0:
492,304,202108,1,2,0:0:0:0:
360,304,202270,1,2,0:0:0:0:
140,304,202432,1,10,0:0:0:0:
204,304,202513,1,8,0:0:0:0:
340,304,202594,1,0,1:2:0:0:
140,304,202837,1,8,2:3:0:0:
340,304,203081,1,4,2:3:0:0:
76,304,203243,6,0,L|68:84,1,220,6|2,1:2|0:0,0:0:0:0:
192,84,203729,1,0,0:0:0:0:
348,84,203892,2,0,L|352:196,1,110,2|0,1:2|0:0,0:0:0:0:
200,196,204216,2,0,L|196:312,1,110,2|0,0:0|0:0,0:0:0:0:
416,308,204540,6,0,L|424:88,1,220,2|2,1:2|0:0,0:0:0:0:
300,84,205027,1,0,0:0:0:0:
148,84,205189,2,0,L|144:212,1,110,2|0,1:2|0:0,0:0:0:0:
300,196,205513,2,0,L|304:312,1,110,2|0,0:0|0:0,0:0:0:0:
40,308,205837,6,0,L|36:192,1,110,6|0,1:2|0:0,0:0:0:0:
256,196,206162,2,0,L|384:196,1,110,10|8,0:0|0:0,0:0:0:0:
304,196,206405,1,8,0:0:0:0:
152,196,206486,2,0,L|32:196,1,110,2|8,1:2|0:0,0:0:0:0:
104,196,206729,1,8,0:0:0:0:
256,196,206810,1,2,1:2:0:0:
316,196,206892,1,0,0:0:0:0:
312,136,206973,1,8,0:0:0:0:
252,136,207054,1,8,0:0:0:0:
108,136,207135,5,0,0:0:0:0:
344,136,207459,2,0,L|104:136,2,220,2|2|2,0:0|0:0|0:0,0:0:0:0:
108,136,208432,1,2,0:0:0:0:
252,136,208594,1,2,0:0:0:0:
484,136,208756,5,14,1:2:0:0:
240,136,208919,1,2,0:0:0:0:
304,136,209000,1,8,0:0:0:0:
368,136,209081,1,0,1:2:0:0:
148,136,209243,2,0,L|144:252,1,110,2|8,1:2|0:0,0:0:0:0:
364,244,209567,1,2,1:2:0:0:
100,244,209729,5,0,0:0:0:0:
320,244,209892,2,0,L|200:244,1,110,2|8,1:2|0:0,0:0:0:0:
452,244,210216,1,2,0:0:0:0:
388,244,210297,1,8,0:0:0:0:
324,244,210378,1,0,1:2:0:0:
104,244,210540,2,0,L|236:244,1,110,2|8,1:2|0:0,0:0:0:0:
432,244,210864,2,0,L|436:184,1,55,2|8,0:0|0:0,0:0:0:0:
268,188,211027,5,0,1:2:0:0:
48,188,211189,2,0,L|44:300,1,110,2|8,0:0|0:0,0:0:0:0:
284,300,211513,1,2,0:0:0:0:
220,300,211594,1,8,0:0:0:0:
156,300,211675,1,0,1:2:0:0:
376,300,211837,2,0,L|260:300,1,110,0|8,1:2|0:0,0:0:0:0:
488,300,212162,1,2,1:2:0:0:
224,300,212324,5,12,0:0:0:0:
60,300,212486,1,2,1:2:0:0:
280,300,212648,1,14,0:0:0:0:
60,300,212810,1,2,1:2:0:0:
324,300,212973,1,12,0:0:0:0:
384,300,213054,1,8,0:0:0:0:
232,300,213135,1,10,0:0:0:0:
172,300,213216,1,8,0:0:0:0:
324,300,213297,1,8,0:0:0:0:
104,300,213459,1,10,0:0:0:0:
100,240,213540,1,8,0:0:0:0:
308,240,213621,6,0,L|432:240,1,110,6|0,1:2|0:0,0:0:0:0:
264,240,213946,1,10,0:0:0:0:
416,240,214108,1,2,0:0:0:0:
420,300,214189,1,8,0:0:0:0:
276,300,214270,1,2,1:2:0:0:
132,300,214432,1,0,1:2:0:0:
276,300,214594,1,10,0:0:0:0:
36,300,214756,6,0,P|32:216|144:172,1,220,0|0,1:2|1:2,0:0:0:0:
300,172,215243,1,10,0:0:0:0:
144,172,215405,1,2,0:0:0:0:
364,172,215567,1,8,2:3:0:0:
304,172,215648,1,8,0:0:0:0:
152,172,215729,1,10,0:0:0:0:
212,172,215810,1,8,0:0:0:0:
368,172,215892,1,8,0:0:0:0:
428,172,215973,1,8,2:3:0:0:
424,112,216054,1,2,1:2:0:0:
364,112,216135,1,4,2:3:0:0:
212,112,216216,5,10,1:2:0:0:
448,112,216540,2,0,L|224:112,2,220,2|2|2,0:0|0:0|0:0,0:0:0:0:
180,112,217351,6,0,P|104:160|180:224,1,220,4|0,1:2|1:2,0:0:0:0:
332,172,217837,1,10,0:0:0:0:
112,172,218000,2,0,L|232:172,1,110,0|0,1:2|1:2,0:0:0:0:
464,172,218324,1,8,0:0:0:0:
244,172,218486,1,8,0:0:0:0:
464,172,218648,1,8,0:0:0:0:
200,172,218810,6,0,L|88:172,1,110,6|0,1:2|0:0,0:0:0:0:
312,172,219135,2,0,L|432:172,1,110,10|2,0:0|0:0,0:0:0:0:
364,172,219378,1,8,0:0:0:0:
268,172,219459,2,0,L|272:288,1,110,0|0,1:0|1:0,0:0:0:0:
424,280,219783,1,10,0:0:0:0:
180,280,219946,6,0,L|60:280,1,110,6|0,1:2|0:0,0:0:0:0:
288,280,220270,2,0,L|404:280,1,110,2|8,1:2|0:0,0:0:0:0:
244,280,220594,2,0,L|240:224,1,55,2|8,0:0|0:0,0:0:0:0:
376,224,220756,2,0,L|260:224,1,110,2|2,1:2|1:2,0:0:0:0:
112,224,221081,2,0,L|108:112,1,110,10|2,0:0|0:0,0:0:0:0:
168,112,221324,1,8,0:0:0:0:
320,112,221405,5,6,1:2:0:0:
472,112,221567,2,0,L|356:112,1,110,2|8,0:0|0:0,0:0:0:0:
140,112,221892,2,0,L|136:172,1,55,2|8,0:0|0:0,0:0:0:0:
228,168,222054,2,0,L|232:280,1,110,0|0,1:2|1:2,0:0:0:0:
80,280,222378,1,10,0:0:0:0:
344,280,222540,6,0,L|464:280,1,110,6|0,1:2|0:0,0:0:0:0:
236,280,222864,2,0,L|232:168,1,110,2|8,1:2|0:0,0:0:0:0:
388,172,223189,2,0,L|320:172,1,55,2|8,0:0|0:0,0:0:0:0:
196,172,223351,2,0,L|320:172,1,110,2|2,1:2|1:2,0:0:0:0:
152,172,223675,2,0,L|148:288,1,110,8|2,0:0|0:0,0:0:0:0:
208,284,223919,1,8,0:0:0:0:
392,280,224000,5,6,1:2:0:0:
260,280,224162,1,2,0:0:0:0:
392,280,224324,1,8,0:0:0:0:
172,280,224486,2,0,L|168:216,1,55,2|8,0:0|0:0,0:0:0:0:
260,224,224648,2,0,L|140:224,1,110,0|0,1:2|1:2,0:0:0:0:
300,224,224973,1,10,0:0:0:0:
60,224,225135,6,0,L|56:112,1,110,6|0,1:2|0:0,0:0:0:0:
276,112,225459,2,0,L|408:112,1,110,2|8,1:2|0:0,0:0:0:0:
232,112,225783,2,0,L|164:112,1,55,2|8,0:0|0:0,0:0:0:0:
316,112,225946,2,0,L|320:224,1,110,2|2,1:2|1:2,0:0:0:0:
168,220,226270,2,0,L|164:332,1,110,10|2,0:0|0:0,0:0:0:0:
224,332,226513,1,8,0:0:0:0:
388,332,226594,5,6,1:2:0:0:
244,332,226756,1,2,0:0:0:0:
388,332,226919,1,8,0:0:0:0:
168,332,227081,2,0,L|44:332,1,110,0|8,1:2|0:0,0:0:0:0:
212,332,227405,1,0,1:2:0:0:
60,332,227567,1,8,0:0:0:0:
324,332,227729,6,0,L|440:332,1,110,6|0,1:2|0:0,0:0:0:0:
280,332,228054,1,8,2:3:0:0:
60,332,228216,2,0,L|56:220,1,110,8|2,2:3|0:0,0:0:0:0:
296,216,228540,1,8,2:3:0:0:
152,220,228702,1,8,2:3:0:0:
296,216,228864,2,0,L|300:100,1,110,8|0,2:3|0:0,0:0:0:0:
56,104,229189,5,0,1:2:0:0:
256,192,229513,12,2,231783,0:0:0:0:
