osu file format v14

[General]
AudioFilename: audio.mp3
AudioLeadIn: 0
PreviewTime: 63378
Countdown: 0
SampleSet: Soft
StackLeniency: 0.7
Mode: 2
LetterboxInBreaks: 0
WidescreenStoryboard: 1

[Editor]
Bookmarks: 12540,25513,35892,46270,56648,67027,87783,98162,108540,118919,129297,165621,176000,198054
DistanceSpacing: 2
BeatDivisor: 8
GridSize: 4
TimelineZoom: 1.3

[Metadata]
Title:Pride Kakumei
TitleUnicode:プライド革命
Artist:CHiCO with HoneyWorks
ArtistUnicode:CHiCO with HoneyWorks
Creator:rew0825
Version:Platter
Source:銀魂°
Tags:Gintama Gintama° Season 4 anime op opening Gintoki Sakata 坂田 銀時 Kagura 神楽 Shinpachi Shimura 志村 新八 japanese pop j-pop jpop rock j-rock jrock female vocal
BeatmapID:2879324
BeatmapSetID:1394916

[Difficulty]
HPDrainRate:4
CircleSize:3
OverallDifficulty:8
ApproachRate:8
SliderMultiplier:1.6
SliderTickRate:2

[Events]
//Background and Video events
0,0,"BG.jpg",0,0
//Break Periods
2,160632,164871
//Storyboard Layer 0 (Background)
//Storyboard Layer 1 (Fail)
//Storyboard Layer 2 (Pass)
//Storyboard Layer 3 (Foreground)
//Storyboard Layer 4 (Overlay)
//Storyboard Sound Samples

[TimingPoints]
865,324.324324324324,4,2,1,50,1,0
12540,-100,4,2,1,70,0,0
13189,-100,4,2,3,60,0,0
13270,-100,4,2,1,70,0,0
14162,-100,4,2,2,60,0,0
14243,-100,4,2,1,70,0,0
15783,-100,4,2,3,60,0,0
15864,-100,4,2,1,70,0,0
16756,-100,4,2,2,60,0,0
16837,-100,4,2,1,70,0,0
18378,-100,4,2,3,60,0,0
18459,-100,4,2,1,70,0,0
19351,-100,4,2,2,60,0,0
19432,-100,4,2,1,70,0,0
20973,-100,4,2,3,60,0,0
21054,-100,4,2,1,70,0,0
22919,-100,4,2,1,40,0,0
25513,-100,4,2,1,60,0,0
25837,-100,4,2,2,50,0,0
25919,-100,4,2,1,60,0,0
26486,-100,4,2,2,50,0,0
26568,-100,4,2,1,60,0,0
26973,-100,4,2,3,50,0,0
27055,-100,4,2,1,60,0,0
27621,-100,4,2,3,50,0,0
27703,-100,4,2,1,60,0,0
28432,-100,4,2,2,50,0,0
28514,-100,4,2,1,60,0,0
31351,-100,4,2,3,50,0,0
31433,-100,4,2,1,60,0,0
32648,-100,4,2,3,50,0,0
32730,-100,4,2,1,60,0,0
33946,-100,4,2,3,50,0,0
34028,-100,4,2,1,60,0,0
35892,-100,4,2,1,70,0,0
36216,-100,4,2,2,60,0,0
36297,-100,4,2,1,70,0,0
36864,-100,4,2,2,60,0,0
36945,-100,4,2,1,70,0,0
37351,-100,4,2,3,60,0,0
37432,-100,4,2,1,70,0,0
38000,-100,4,2,3,60,0,0
38081,-100,4,2,1,70,0,0
38810,-100,4,2,2,60,0,0
38891,-100,4,2,1,70,0,0
42054,-100,4,2,2,60,0,0
42135,-100,4,2,1,70,0,0
43351,-100,4,2,2,60,0,0
43432,-100,4,2,1,70,0,0
44324,-100,4,2,3,60,0,0
44405,-100,4,2,1,70,0,0
46270,-100,4,2,1,60,0,0
47567,-100,4,2,3,50,0,0
47648,-100,4,2,1,60,0,0
56648,-100,4,2,1,65,0,0
65405,-100,4,2,1,40,0,0
67027,-100,4,2,1,80,0,1
68000,-100,4,2,2,70,0,1
68081,-100,4,2,1,80,0,1
69297,-100,4,2,2,70,0,1
69378,-100,4,2,1,80,0,1
70594,-100,4,2,2,70,0,1
70675,-100,4,2,1,80,0,1
71892,-100,4,2,2,70,0,1
71973,-100,4,2,1,80,0,1
74486,-100,4,2,2,70,0,1
74567,-100,4,2,1,80,0,1
78378,-100,4,2,2,70,0,1
78459,-100,4,2,1,80,0,1
79675,-100,4,2,2,70,0,1
79756,-100,4,2,1,80,0,1
80973,-100,4,2,2,70,0,1
81054,-100,4,2,1,80,0,1
82270,-100,4,2,2,70,0,1
82351,-100,4,2,1,80,0,1
84864,-100,4,2,2,70,0,1
84945,-100,4,2,1,80,0,1
85189,-100,4,2,1,70,0,1
86324,-100,4,2,1,80,0,1
87783,-100,4,2,1,70,0,0
88432,-100,4,2,3,60,0,0
88513,-100,4,2,1,70,0,0
89405,-100,4,2,2,60,0,0
89486,-100,4,2,1,70,0,0
91027,-100,4,2,3,60,0,0
91108,-100,4,2,1,70,0,0
92000,-100,4,2,2,60,0,0
92081,-100,4,2,1,70,0,0
93621,-100,4,2,3,60,0,0
93702,-100,4,2,1,70,0,0
94594,-100,4,2,2,60,0,0
94675,-100,4,2,1,70,0,0
96216,-100,4,2,3,60,0,0
96297,-100,4,2,1,70,0,0
98162,-100,4,2,1,60,0,0
99621,-100,4,2,3,50,0,0
99702,-100,4,2,1,60,0,0
100270,-100,4,2,3,50,0,0
100351,-100,4,2,1,60,0,0
101081,-100,4,2,2,50,0,0
101162,-100,4,2,1,60,0,0
104000,-100,4,2,3,50,0,0
104081,-100,4,2,1,60,0,0
105297,-100,4,2,3,50,0,0
105378,-100,4,2,1,60,0,0
106594,-100,4,2,3,50,0,0
106675,-100,4,2,1,60,0,0
108540,-100,4,2,1,70,0,0
109513,-100,4,2,2,60,0,0
109594,-100,4,2,1,70,0,0
110000,-100,4,2,3,60,0,0
110081,-100,4,2,1,70,0,0
110648,-100,4,2,3,60,0,0
110729,-100,4,2,1,70,0,0
111459,-100,4,2,2,60,0,0
111540,-100,4,2,1,70,0,0
114702,-100,4,2,2,60,0,0
114783,-100,4,2,1,70,0,0
116000,-100,4,2,2,60,0,0
116081,-100,4,2,1,70,0,0
116973,-100,4,2,3,60,0,0
117054,-100,4,2,1,70,0,0
118919,-100,4,2,1,60,0,0
120216,-100,4,2,3,50,0,0
120297,-100,4,2,1,60,0,0
129297,-100,4,2,1,65,0,0
138054,-100,4,2,1,40,0,0
139675,-100,4,2,1,80,0,1
140648,-100,4,2,2,70,0,1
140729,-100,4,2,1,80,0,1
141946,-100,4,2,2,70,0,1
142027,-100,4,2,1,80,0,1
143243,-100,4,2,2,70,0,1
143324,-100,4,2,1,80,0,1
144540,-100,4,2,2,70,0,1
144621,-100,4,2,1,80,0,1
147135,-100,4,2,2,70,0,1
147216,-100,4,2,1,80,0,1
151027,-100,4,2,2,70,0,1
151108,-100,4,2,1,80,0,1
152324,-100,4,2,2,70,0,1
152405,-100,4,2,1,80,0,1
153621,-100,4,2,2,70,0,1
153702,-100,4,2,1,80,0,1
154919,-100,4,2,2,70,0,1
155000,-100,4,2,1,80,0,1
157513,-100,4,2,2,70,0,1
157594,-100,4,2,1,80,0,1
159135,-100,4,2,1,70,0,1
160432,-100,4,2,1,60,0,0
165621,-100,4,2,1,50,0,0
170810,-100,4,2,1,60,0,0
176000,-100,4,2,1,70,0,0
176973,-100,4,2,2,60,0,0
177054,-100,4,2,1,70,0,0
177946,-100,4,2,3,60,0,0
178027,-100,4,2,1,70,0,0
182162,-100,4,2,2,60,0,0
182243,-100,4,2,1,70,0,0
183459,-100,4,2,2,60,0,0
183540,-100,4,2,1,70,0,0
189621,-100,4,2,3,60,0,0
189702,-100,4,2,1,70,0,0
192216,-100,4,2,3,60,0,0
192297,-100,4,2,1,70,0,0
197567,-100,4,2,1,60,0,0
206162,-100,4,2,1,70,0,0
208756,-100,4,2,1,80,0,1
209405,-100,4,2,2,70,0,1
209486,-100,4,2,1,80,0,1
210702,-100,4,2,2,70,0,1
210783,-100,4,2,1,80,0,1
212000,-100,4,2,2,70,0,1
212081,-100,4,2,1,80,0,1
218810,-100,4,2,1,70,0,0
219621,-100,4,2,3,60,0,0
219702,-100,4,2,1,70,0,0
220432,-100,4,2,2,60,0,0
220513,-100,4,2,1,70,0,0
222054,-100,4,2,3,60,0,0
222135,-100,4,2,1,70,0,0
223027,-100,4,2,2,60,0,0
223108,-100,4,2,1,70,0,0
224648,-100,4,2,3,60,0,0
224729,-100,4,2,1,70,0,0
225621,-100,4,2,2,60,0,0
225702,-100,4,2,1,70,0,0
227243,-100,4,2,2,60,0,0
227324,-100,4,2,1,70,0,0
228054,-100,4,2,1,60,0,0
229189,-100,4,2,1,50,0,0
229513,-100,4,2,1,40,0,0

[Colours]
Combo1 : 192,162,148
Combo2 : 170,170,170
Combo3 : 248,92,97

[HitObjects]
188,264,865,5,2,0:0:0:0:
108,264,1027,2,0,P|112:224|212:192,1,160,2|2,0:0|0:0,0:0:0:0:
300,192,1513,1,2,0:0:0:0:
380,192,1675,2,0,P|376:152|276:120,1,160,2|2,0:0|0:0,0:0:0:0:
116,119,2162,6,0,L|280:119,1,160,2|2,0:0|0:0,0:0:0:0:
272,200,2810,2,0,L|108:200,1,160,2|2,0:0|0:0,0:0:0:0:
384,200,3459,6,0,P|472:136|344:44,1,320,2|2,0:0|0:0,0:0:0:0:
184,44,4432,1,2,0:0:0:0:
344,44,4594,6,0,P|408:88|312:160,1,240,2|2,0:0|0:0,0:0:0:0:
136,160,5405,1,2,0:0:0:0:
56,160,5567,1,2,0:0:0:0:
136,160,5729,1,2,0:0:0:0:
408,160,6054,5,2,0:0:0:0:
488,160,6216,1,2,0:0:0:0:
408,160,6378,1,2,0:0:0:0:
320,160,6540,2,0,P|316:200|412:244,1,160,2|2,0:0|0:0,0:0:0:0:
409,245,7189,1,0,0:0:0:0:
248,244,7351,5,2,0:0:0:0:
168,244,7513,1,2,0:0:0:0:
248,244,7675,1,2,0:0:0:0:
336,244,7837,2,0,P|340:204|244:160,1,160,2|2,0:0|0:0,0:0:0:0:
88,164,8486,1,2,0:0:0:0:
247,164,8648,5,2,0:0:0:0:
327,164,8810,1,2,0:0:0:0:
167,164,9135,1,2,0:0:0:0:
247,164,9297,1,2,0:0:0:0:
327,164,9459,1,2,0:0:0:0:
56,164,9783,5,2,0:0:0:0:
216,164,10108,1,2,0:0:0:0:
56,164,10432,2,0,P|52:244|244:312,1,320,2|0,0:0|0:0,0:0:0:0:
256,192,11243,12,0,12216,0:0:0:0:
156,192,12540,6,0,L|76:192,1,80,6|2,1:2|0:0,0:0:0:0:
348,192,13027,2,0,P|420:184|428:108,1,160,2|0,0:0|1:0,0:0:0:0:
340,112,13513,1,10,0:0:0:0:
100,116,13675,6,0,L|96:196,1,80,6|0,1:2|0:0,0:0:0:0:
256,192,14000,2,0,P|312:232|256:272,1,160,2|2,1:2|0:0,0:0:0:0:
96,272,14486,1,2,1:2:0:0:
16,272,14648,1,2,1:2:0:0:
96,272,14810,1,10,0:0:0:0:
368,272,15135,6,0,L|448:272,1,80,6|2,1:2|0:0,0:0:0:0:
176,272,15621,2,0,P|104:268|88:192,1,160,2|0,0:0|1:2,0:0:0:0:
176,192,16108,1,10,0:0:0:0:
408,192,16270,6,0,L|412:112,1,80,6|0,1:2|0:0,0:0:0:0:
252,108,16594,2,0,P|204:124|252:188,1,160,2|2,1:2|0:0,0:0:0:0:
412,188,17081,1,2,1:2:0:0:
492,188,17243,1,2,1:2:0:0:
412,188,17405,1,8,0:0:0:0:
140,188,17729,6,0,L|60:188,1,80,6|2,1:2|0:0,0:0:0:0:
332,188,18216,2,0,P|404:184|420:108,1,160,2|0,0:0|1:2,0:0:0:0:
332,108,18702,1,10,0:0:0:0:
92,108,18864,6,0,L|88:188,1,80,6|0,1:2|0:0,0:0:0:0:
248,188,19189,2,0,P|304:228|248:268,1,160,2|2,1:2|0:0,0:0:0:0:
88,268,19675,1,2,1:2:0:0:
8,268,19837,1,2,1:2:0:0:
88,268,20000,1,10,0:0:0:0:
360,268,20324,5,6,1:2:0:0:
440,268,20486,1,2,0:0:0:0:
360,268,20648,1,10,0:0:0:0:
188,276,20810,2,0,P|116:272|100:196,1,160,2|2,0:0|1:2,0:0:0:0:
188,200,21297,1,8,0:0:0:0:
428,204,21459,6,0,P|484:164|428:124,1,160,6|0,1:2|1:2,0:0:0:0:
268,124,21946,1,8,0:0:0:0:
188,124,22108,1,2,0:0:0:0:
268,124,22270,1,0,1:2:0:0:
428,123,22432,1,8,0:0:0:0:
452,123,22513,1,8,0:0:0:0:
428,123,22594,1,8,0:0:0:0:
348,124,22756,1,0,1:2:0:0:
188,124,22919,5,2,0:0:0:0:
204,180,23081,1,0,0:0:0:0:
264,200,23243,1,0,0:0:0:0:
344,200,23405,1,2,0:0:0:0:
184,200,23729,5,0,0:0:0:0:
104,200,23892,1,2,0:0:0:0:
64,132,24054,1,0,0:0:0:0:
104,200,24216,1,0,0:0:0:0:
184,200,24378,1,2,0:0:0:0:
344,200,24702,5,0,0:0:0:0:
424,200,24864,1,2,0:0:0:0:
464,200,25027,1,0,0:0:0:0:
472,200,25189,1,0,0:0:0:0:
184,200,25513,5,6,1:2:0:0:
104,200,25675,2,0,P|108:240|208:276,1,160,2|2,0:0|0:0,0:0:0:0:
296,276,26162,1,2,1:2:0:0:
376,276,26324,2,0,P|372:236|272:196,1,160,2|2,1:2|1:2,0:0:0:0:
112,196,26810,6,0,P|64:180|112:116,1,160,2|10,0:0|0:0,0:0:0:0:
288,116,27459,2,0,L|112:116,1,160,2|10,1:2|0:0,0:0:0:0:
400,116,28108,6,0,P|492:208|364:272,1,320,2|0,1:2|1:2,0:0:0:0:
188,272,29081,1,10,0:0:0:0:
348,272,29243,6,0,P|396:256|348:192,1,160,2|0,1:2|1:2,0:0:0:0:
268,192,29729,1,8,0:0:0:0:
108,192,30054,1,2,1:2:0:0:
28,192,30216,1,2,1:2:0:0:
108,192,30378,1,10,0:0:0:0:
380,192,30702,5,2,1:2:0:0:
460,192,30864,1,2,0:0:0:0:
380,192,31027,1,10,0:0:0:0:
292,192,31189,2,0,L|480:192,1,160,2|2,0:0|1:2,0:0:0:0:
452,272,31837,1,2,1:2:0:0:
292,272,32000,5,2,0:0:0:0:
212,272,32162,1,2,1:2:0:0:
292,272,32324,1,10,0:0:0:0:
380,272,32486,2,0,L|204:272,1,160,2|2,0:0|1:2,0:0:0:0:
380,272,33135,1,2,0:0:0:0:
220,272,33297,6,0,L|140:272,1,80,2|2,1:2|0:0,0:0:0:0:
316,272,33783,2,0,L|480:272,1,160,2|2,0:0|1:2,0:0:0:0:
396,272,34270,1,8,0:0:0:0:
236,272,34432,6,0,P|164:264|152:188,1,160,2|2,1:2|0:0,0:0:0:0:
328,188,35081,2,0,P|448:196|484:300,1,240,2|2,0:0|0:0,0:0:0:0:
92,308,35892,5,6,1:2:0:0:
12,308,36054,2,0,P|16:264|112:228,1,160,2|2,0:0|0:0,0:0:0:0:
272,228,36540,1,2,1:2:0:0:
352,228,36702,2,0,P|348:184|252:148,1,160,2|2,1:2|1:2,0:0:0:0:
92,148,37189,6,0,P|40:108|96:60,1,160,2|10,0:0|0:0,0:0:0:0:
368,60,37837,2,0,P|432:64|460:148,1,160,2|10,1:2|0:0,0:0:0:0:
188,148,38486,6,0,P|80:208|188:312,1,320,2|0,1:2|1:2,0:0:0:0:
364,312,39459,1,10,0:0:0:0:
204,312,39621,6,0,L|40:312,1,160,2|0,1:2|1:2,0:0:0:0:
124,312,40108,1,8,0:0:0:0:
396,220,40432,1,2,1:2:0:0:
476,220,40594,1,2,1:2:0:0:
396,220,40756,1,10,0:0:0:0:
124,220,41081,6,0,P|72:184|124:128,1,160,2|10,1:2|0:0,0:0:0:0:
284,128,41567,2,0,L|288:208,1,80,2|0,0:0|1:2,0:0:0:0:
200,208,41892,2,0,P|140:212|112:300,1,160,2|2,1:2|1:2,0:0:0:0:
272,296,42378,6,0,P|320:264|272:196,1,160,2|10,0:0|0:0,0:0:0:0:
112,196,42864,2,0,L|108:116,1,80,2|0,0:0|1:2,0:0:0:0:
196,116,43189,2,0,P|256:112|304:32,1,160,2|2,1:2|0:0,0:0:0:0:
144,32,43675,6,0,L|140:112,1,80,2|2,1:2|0:0,0:0:0:0:
404,308,44162,2,0,P|456:260|404:208,1,160,2|2,0:0|1:2,0:0:0:0:
324,208,44648,1,8,0:0:0:0:
164,208,44810,6,0,P|112:168|168:120,1,160,2|2,1:2|1:2,0:0:0:0:
328,120,45297,1,12,0:0:0:0:
168,120,45621,1,8,0:0:0:0:
88,120,45783,1,8,2:3:0:0:
96,200,45946,1,4,2:3:0:0:
176,200,46108,1,4,2:3:0:0:
408,200,46270,5,6,1:2:0:0:
256,200,46594,1,2,1:2:0:0:
424,200,46919,1,10,0:0:0:0:
272,200,47243,1,2,0:0:0:0:
112,200,47405,6,0,P|64:184|112:120,1,160,10|2,0:0|0:0,0:0:0:0:
192,120,47892,1,2,1:2:0:0:
368,120,48216,1,10,0:0:0:0:
448,120,48378,1,2,0:0:0:0:
368,120,48540,1,2,0:0:0:0:
96,120,48864,5,2,1:2:0:0:
248,120,49189,1,2,1:2:0:0:
80,120,49513,1,10,0:0:0:0:
160,120,49675,2,0,P|208:152|160:220,1,160,2|10,0:0|0:0,0:0:0:0:
80,220,50162,6,0,L|76:140,1,80,2|8,1:2|0:0,0:0:0:0:
240,120,50486,1,2,1:2:0:0:
244,268,50810,1,2,0:0:0:0:
72,268,51135,1,10,0:0:0:0:
464,268,51459,5,6,1:2:0:0:
312,268,51783,1,2,1:2:0:0:
480,268,52108,1,10,0:0:0:0:
328,268,52432,1,2,0:0:0:0:
56,268,52756,5,2,1:2:0:0:
208,268,53081,1,2,1:2:0:0:
40,268,53405,1,10,0:0:0:0:
192,268,53729,1,2,0:0:0:0:
464,268,54054,5,2,1:2:0:0:
312,268,54378,1,2,1:2:0:0:
480,268,54702,1,10,0:0:0:0:
328,268,55027,1,2,0:0:0:0:
324,188,55189,1,0,1:2:0:0:
484,188,55351,5,12,0:0:0:0:
404,188,55513,1,0,1:2:0:0:
244,188,55675,2,0,P|164:184|148:112,1,160,14|2,0:0|1:2,0:0:0:0:
236,116,56162,1,8,0:0:0:0:
264,92,56243,1,8,0:0:0:0:
236,116,56324,1,8,0:2:0:0:
148,116,56486,1,8,0:0:0:0:
380,120,56648,6,0,P|436:160|380:200,1,160,6|8,1:2|0:2,0:0:0:0:
220,196,57297,2,0,P|164:236|220:276,1,160,0|10,1:2|0:2,0:0:0:0:
396,276,57946,5,0,1:2:0:0:
124,276,58270,2,0,L|292:276,2,160,10|2|10,0:2|1:2|0:2,0:0:0:0:
396,276,59243,6,0,P|444:248|396:180,1,160,2|8,1:2|0:2,0:0:0:0:
236,180,59892,1,2,1:2:0:0:
396,180,60216,1,10,0:2:0:0:
124,180,60540,5,2,1:2:0:0:
212,180,60702,1,8,0:0:0:0:
236,144,60783,1,8,0:0:0:0:
212,180,60864,1,8,1:2:0:0:
124,180,61027,1,8,1:3:0:0:
64,232,61189,1,4,1:3:0:0:
124,284,61351,1,4,1:3:0:0:
284,284,61513,2,0,L|380:284,1,80,12|0,1:2|0:0,0:0:0:0:
124,284,61837,6,0,P|68:248|124:204,1,160,6|10,1:2|0:0,0:0:0:0:
284,204,62324,2,0,L|288:120,1,80,2|0,0:0|1:2,0:0:0:0:
200,124,62648,2,0,L|196:208,1,80,2|8,1:2|0:0,0:0:0:0:
284,204,62973,1,2,0:0:0:0:
444,204,63135,6,0,P|488:216|444:288,1,160,2|10,1:2|0:0,0:0:0:0:
284,288,63783,1,2,1:2:0:0:
364,288,63946,1,0,1:2:0:0:
444,288,64108,1,10,0:0:0:0:
52,284,64432,6,0,P|48:164|340:80,1,480,6|0,1:2|0:0,0:0:0:0:
256,192,65729,12,0,66702,0:0:0:0:
304,192,67027,5,6,1:2:0:0:
216,192,67189,2,0,L|212:112,1,80,2|8,0:0|0:0,0:0:0:0:
372,112,67513,2,0,L|376:192,1,80,2|0,0:0|1:2,0:0:0:0:
216,192,67837,2,0,P|136:200|112:268,1,160,2|2,1:2|1:2,0:0:0:0:
352,268,68324,5,2,0:0:0:0:
432,268,68486,1,2,1:2:0:0:
352,268,68648,1,10,0:0:0:0:
192,268,68810,2,0,L|188:188,1,80,2|0,0:0|1:2,0:0:0:0:
348,188,69135,2,0,P|428:184|456:116,1,160,2|2,1:2|0:0,0:0:0:0:
216,116,69621,5,2,1:2:0:0:
128,116,69783,2,0,L|124:196,1,80,2|8,0:0|0:0,0:0:0:0:
284,196,70108,2,0,L|288:280,1,80,2|0,0:0|1:2,0:0:0:0:
128,276,70432,2,0,P|72:240|128:196,1,160,2|0,1:2|1:2,0:0:0:0:
368,196,70919,5,2,0:0:0:0:
448,196,71081,1,2,1:2:0:0:
368,196,71243,1,10,0:0:0:0:
208,196,71405,2,0,L|204:116,1,80,2|0,0:0|1:2,0:0:0:0:
364,116,71729,2,0,P|444:112|468:36,1,160,2|2,1:2|0:0,0:0:0:0:
228,40,72216,6,0,L|224:124,1,80,4|0,1:2|0:0,0:0:0:0:
312,120,72540,2,0,L|316:200,1,80,10|2,0:0|0:0,0:0:0:0:
156,200,72864,1,0,1:2:0:0:
76,200,73027,1,0,1:2:0:0:
156,200,73189,1,10,0:0:0:0:
316,200,73351,6,0,P|396:196|416:128,1,160,0|0,1:2|1:2,0:0:0:0:
256,128,73837,1,8,0:0:0:0:
176,128,74000,1,2,0:0:0:0:
256,128,74162,1,2,1:2:0:0:
416,128,74324,2,0,P|472:164|416:208,1,160,2|2,1:2|0:0,0:0:0:0:
256,204,74810,6,0,L|252:288,1,80,2|0,1:2|0:0,0:0:0:0:
340,284,75135,2,0,L|344:204,1,80,10|2,0:0|0:0,0:0:0:0:
184,204,75459,2,0,L|104:204,1,80,2|0,1:2|1:2,0:0:0:0:
264,204,75783,2,0,L|268:120,1,80,10|0,0:0|1:2,0:0:0:0:
108,124,76108,1,12,0:0:0:0:
188,124,76270,1,0,1:2:0:0:
428,124,76432,6,0,P|480:148|428:208,1,160,14|2,0:0|1:2,0:0:0:0:
268,208,76919,1,8,0:0:0:0:
244,240,77000,1,8,0:0:0:0:
268,272,77081,1,2,1:2:0:0:
348,272,77243,1,8,0:0:0:0:
116,272,77405,5,2,1:2:0:0:
36,272,77567,1,2,0:0:0:0:
276,272,77729,1,12,0:0:0:0:
356,272,77892,1,2,0:0:0:0:
276,272,78054,1,0,1:2:0:0:
116,192,78216,2,0,P|68:176|116:112,1,160,2|0,1:2|1:2,0:0:0:0:
360,116,78702,5,2,0:0:0:0:
280,116,78864,2,0,L|276:200,1,80,2|8,1:2|0:0,0:0:0:0:
436,196,79189,2,0,L|440:288,1,80,2|0,0:0|1:2,0:0:0:0:
280,276,79513,2,0,L|456:276,1,160,2|2,1:2|0:0,0:0:0:0:
200,276,80000,5,2,1:2:0:0:
120,276,80162,2,0,L|116:196,1,80,2|8,0:0|0:0,0:0:0:0:
276,200,80486,2,0,L|280:120,1,80,2|0,0:0|1:2,0:0:0:0:
120,120,80810,2,0,P|64:84|120:40,1,160,0|2,1:2|1:2,0:0:0:0:
360,40,81297,5,2,0:0:0:0:
440,40,81459,1,2,1:2:0:0:
360,40,81621,1,8,0:0:0:0:
200,40,81783,2,0,L|196:120,1,80,2|0,0:0|1:2,0:0:0:0:
356,120,82108,2,0,P|436:128|460:200,1,160,2|2,1:2|0:0,0:0:0:0:
220,192,82594,6,0,L|216:272,1,80,6|0,1:2|0:0,0:0:0:0:
304,272,82919,2,0,L|308:352,1,80,10|2,0:0|0:0,0:0:0:0:
148,352,83243,1,2,1:2:0:0:
68,352,83405,1,0,1:2:0:0:
148,352,83567,1,10,0:0:0:0:
308,352,83729,6,0,P|380:344|388:268,1,160,0|0,1:2|1:2,0:0:0:0:
308,268,84216,1,8,0:0:0:0:
148,268,84378,2,0,L|144:188,1,80,2|2,0:0|1:2,0:0:0:0:
304,188,84702,2,0,P|356:144|300:100,1,160,2|2,1:2|0:0,0:0:0:0:
140,100,85189,5,0,1:2:0:0:
52,100,85351,1,8,0:0:0:0:
24,60,85432,1,8,0:0:0:0:
52,24,85513,1,8,0:0:0:0:
212,24,85675,1,0,1:2:0:0:
300,24,85837,1,8,0:0:0:0:
328,60,85919,1,8,0:0:0:0:
300,92,86000,1,8,0:0:0:0:
212,92,86162,1,0,1:2:0:0:
452,92,86324,6,0,P|496:144|452:212,1,160,14|8,0:2|0:0,0:0:0:0:
372,212,86810,1,8,0:0:0:0:
452,212,86973,1,0,1:2:0:0:
292,212,87135,1,8,0:0:0:0:
204,212,87297,1,8,0:0:0:0:
176,244,87378,1,8,0:0:0:0:
204,276,87459,1,8,0:0:0:0:
292,280,87621,1,8,0:0:0:0:
52,276,87783,6,0,L|48:192,1,80,6|2,1:2|0:0,0:0:0:0:
320,196,88270,2,0,P|400:192|428:124,1,160,2|0,0:0|1:0,0:0:0:0:
348,128,88756,1,10,0:0:0:0:
106,126,88919,6,0,L|102:206,1,80,6|0,1:2|0:0,0:0:0:0:
262,206,89243,2,0,P|310:234|262:302,1,160,2|2,1:2|0:0,0:0:0:0:
102,302,89729,1,2,1:2:0:0:
20,304,89892,1,2,1:2:0:0:
102,302,90054,1,10,0:0:0:0:
372,304,90378,6,0,L|456:304,1,80,6|2,1:2|0:0,0:0:0:0:
180,300,90864,2,0,P|126:298|98:206,1,160,2|0,0:0|1:2,0:0:0:0:
180,208,91351,1,10,0:0:0:0:
420,212,91513,6,0,L|424:128,1,80,6|0,1:2|0:0,0:0:0:0:
264,132,91837,2,0,P|216:164|264:232,1,160,2|2,1:2|0:0,0:0:0:0:
424,232,92324,1,2,1:2:0:0:
504,232,92486,1,2,1:2:0:0:
424,232,92648,1,8,0:0:0:0:
152,232,92973,6,0,L|64:232,1,80,6|2,1:2|0:0,0:0:0:0:
344,232,93459,2,0,P|392:196|340:132,1,160,2|0,0:0|1:2,0:0:0:0:
260,132,93946,1,10,0:0:0:0:
28,128,94108,6,0,L|24:208,1,80,6|0,1:2|0:0,0:0:0:0:
184,208,94432,2,0,P|264:212|288:280,1,160,2|2,1:2|0:0,0:0:0:0:
128,280,94919,1,2,1:2:0:0:
48,280,95081,1,2,1:2:0:0:
128,280,95243,1,10,0:0:0:0:
400,280,95567,5,6,1:2:0:0:
480,280,95729,1,2,0:0:0:0:
400,280,95892,1,10,0:0:0:0:
240,280,96054,2,0,P|192:248|240:180,1,160,2|2,0:0|1:2,0:0:0:0:
328,180,96540,1,8,0:0:0:0:
100,180,96702,6,0,L|96:100,1,80,6|0,1:2|0:0,0:0:0:0:
188,100,97027,1,0,1:2:0:0:
348,100,97189,2,0,L|352:184,1,80,8|2,0:0|0:0,0:0:0:0:
192,180,97513,1,0,1:2:0:0:
152,180,97594,1,8,0:0:0:0:
136,208,97675,1,8,0:0:0:0:
152,180,97756,1,8,0:0:0:0:
192,180,97837,1,8,0:0:0:0:
272,180,98000,1,8,0:0:0:0:
44,180,98162,6,0,L|40:264,1,80,6|2,1:2|0:0,0:0:0:0:
128,260,98486,2,0,L|132:180,1,80,8|2,0:0|0:0,0:0:0:0:
220,180,98810,1,2,1:2:0:0:
308,180,98973,2,0,P|360:132|308:80,1,160,2|10,1:2|0:2,0:0:0:0:
148,180,99459,6,0,P|104:156|148:80,1,160,2|10,0:0|0:0,0:0:0:0:
308,80,100108,2,0,P|388:84|416:152,1,160,2|10,1:2|0:0,0:0:0:0:
144,148,100756,6,0,P|40:196|144:312,1,320,2|0,1:2|1:2,0:0:0:0:
304,312,101729,1,2,0:0:0:0:
144,312,101892,6,0,P|96:280|144:212,1,160,10|0,0:2|1:2,0:0:0:0:
224,212,102378,1,8,0:0:0:0:
400,212,102702,1,2,1:2:0:0:
480,212,102864,1,2,1:2:0:0:
400,212,103027,1,10,0:0:0:0:
128,208,103351,5,2,1:2:0:0:
48,208,103513,1,2,0:0:0:0:
128,208,103675,1,10,0:0:0:0:
216,208,103837,2,0,L|380:208,1,160,2|2,0:0|1:2,0:0:0:0:
376,288,104486,1,10,0:2:0:0:
216,288,104648,5,2,0:0:0:0:
136,288,104810,1,2,1:2:0:0:
216,288,104973,1,10,0:0:0:0:
304,288,105135,2,0,L|136:288,1,160,2|2,0:0|1:2,0:0:0:0:
304,288,105783,1,2,0:0:0:0:
464,288,105946,6,0,L|468:208,1,80,2|2,1:2|0:0,0:0:0:0:
292,208,106432,2,0,P|212:204|188:136,1,160,2|2,0:0|1:2,0:0:0:0:
268,136,106919,1,8,0:0:0:0:
428,140,107081,6,0,P|472:104|424:32,1,160,2|2,1:2|0:0,0:0:0:0:
248,32,107729,2,0,P|128:36|72:132,1,240,2|2,0:0|0:0,0:0:0:0:
464,132,108540,5,6,1:2:0:0:
384,132,108702,1,2,0:0:0:0:
472,132,108864,2,0,L|476:216,1,80,10|2,0:0|0:0,0:0:0:0:
396,212,109189,1,2,1:2:0:0:
236,212,109351,2,0,P|192:236|236:312,1,160,2|2,1:2|1:2,0:0:0:0:
396,312,109837,6,0,P|444:280|396:212,1,160,2|10,0:0|0:0,0:0:0:0:
124,216,110486,2,0,P|44:212|24:144,1,160,2|10,1:2|0:0,0:0:0:0:
296,144,111135,6,0,P|404:200|296:304,1,320,2|0,1:2|1:2,0:0:0:0:
136,304,112108,1,10,0:0:0:0:
296,304,112270,6,0,L|456:304,1,160,2|0,1:2|1:2,0:0:0:0:
376,304,112756,1,8,0:0:0:0:
104,304,113081,1,2,1:2:0:0:
24,304,113243,1,2,1:2:0:0:
104,304,113405,1,10,0:0:0:0:
376,308,113729,6,0,P|424:248|368:208,1,160,2|10,1:2|0:0,0:0:0:0:
212,208,114216,2,0,L|208:128,1,80,2|0,0:0|1:2,0:0:0:0:
296,128,114540,2,0,P|356:124|396:40,1,160,2|2,1:2|1:2,0:0:0:0:
236,44,115027,6,0,P|188:72|236:140,1,160,2|10,0:0|0:0,0:0:0:0:
396,140,115513,2,0,L|400:228,1,80,2|0,0:0|1:2,0:0:0:0:
312,220,115837,2,0,P|248:228|224:312,1,160,2|2,1:2|0:0,0:0:0:0:
384,308,116324,6,0,L|388:228,1,80,2|2,1:2|0:0,0:0:0:0:
116,300,116810,2,0,P|72:272|120:200,1,160,2|2,0:0|1:2,0:0:0:0:
204,200,117297,1,8,0:0:0:0:
364,200,117459,5,10,0:2:0:0:
384,168,117540,1,8,0:0:0:0:
364,200,117621,1,8,0:0:0:0:
276,200,117783,1,10,0:2:0:0:
188,200,117946,2,0,L|184:284,1,80,8|8,2:3|2:3,0:0:0:0:
344,280,118270,2,0,L|348:200,1,80,8|8,0:0|2:3,0:0:0:0:
268,200,118594,1,4,2:3:0:0:
348,200,118756,1,4,2:3:0:0:
108,200,118919,5,6,1:2:0:0:
260,200,119243,1,2,1:2:0:0:
92,200,119567,1,10,0:0:0:0:
244,200,119892,1,2,0:0:0:0:
404,200,120054,6,0,P|448:172|400:100,1,160,10|2,0:0|0:0,0:0:0:0:
320,100,120540,1,2,1:2:0:0:
144,100,120864,1,10,0:0:0:0:
64,100,121027,1,2,0:0:0:0:
144,100,121189,1,2,0:0:0:0:
416,100,121513,5,2,1:2:0:0:
264,100,121837,1,2,1:2:0:0:
432,100,122162,1,10,0:0:0:0:
356,100,122324,2,0,P|308:132|360:196,1,160,2|10,0:0|0:0,0:0:0:0:
440,196,122810,6,0,L|444:276,1,80,2|8,1:2|0:0,0:0:0:0:
284,276,123135,1,2,1:2:0:0:
452,276,123459,1,2,0:0:0:0:
448,116,123783,1,2,0:0:0:0:
56,116,124108,5,6,1:2:0:0:
208,116,124432,1,2,1:2:0:0:
40,116,124756,1,10,0:0:0:0:
192,116,125081,1,2,0:0:0:0:
464,116,125405,5,2,1:2:0:0:
304,116,125729,1,2,1:2:0:0:
480,116,126054,1,10,0:0:0:0:
320,116,126378,1,2,0:0:0:0:
48,116,126702,5,2,1:2:0:0:
200,112,127027,2,0,L|204:192,1,80,2|0,1:2|1:2,0:0:0:0:
124,192,127351,1,10,0:0:0:0:
44,192,127513,1,8,2:3:0:0:
56,272,127675,1,4,2:3:0:0:
136,272,127837,1,4,2:3:0:0:
296,268,128000,6,0,L|300:188,1,80,12|0,0:0|1:2,0:0:0:0:
140,188,128324,2,0,P|96:164|140:88,1,160,14|2,0:0|1:2,0:0:0:0:
228,88,128810,1,8,0:0:0:0:
252,120,128892,1,8,0:0:0:0:
228,88,128973,1,8,0:2:0:0:
140,88,129135,1,8,0:0:0:0:
380,84,129297,6,0,P|428:116|380:184,1,160,6|8,1:2|0:2,0:0:0:0:
220,184,129946,2,0,L|52:184,1,160,0|10,1:2|0:2,0:0:0:0:
60,264,130594,5,0,1:2:0:0:
332,260,130919,2,0,L|496:260,2,160,10|2|10,0:2|1:2|0:2,0:0:0:0:
60,260,131892,6,0,P|12:220|60:152,1,160,2|8,1:2|0:2,0:0:0:0:
220,152,132540,1,2,1:2:0:0:
60,152,132864,1,10,0:2:0:0:
332,152,133189,5,2,1:2:0:0:
252,152,133351,1,8,0:0:0:0:
340,152,133513,1,0,1:2:0:0:
360,188,133594,1,2,1:2:0:0:
340,224,133675,1,8,1:3:0:0:
260,228,133837,2,0,L|256:312,1,80,0|8,1:2|1:3,0:0:0:0:
416,308,134162,2,0,L|496:308,1,80,0|8,1:2|0:2,0:0:0:0:
256,307,134486,6,0,L|176:307,2,80,6|2|10,1:2|1:2|0:0,0:0:0:0:
416,307,134973,2,0,L|420:223,1,80,2|0,0:0|1:2,0:0:0:0:
332,227,135297,2,0,L|328:147,1,80,2|8,1:2|0:0,0:0:0:0:
416,147,135621,1,2,0:0:0:0:
256,148,135783,5,2,1:2:0:0:
184,148,135946,1,0,1:2:0:0:
256,148,136108,1,10,0:0:0:0:
344,148,136270,1,2,1:2:0:0:
104,148,136432,1,6,1:2:0:0:
184,148,136594,1,8,2:3:0:0:
204,184,136675,1,8,2:3:0:0:
184,220,136756,1,8,2:3:0:0:
104,224,136919,1,0,1:2:0:0:
344,220,137081,6,0,P|456:176|272:44,1,480,6|0,1:2|0:0,0:0:0:0:
256,192,138378,12,0,139351,0:0:0:0:
172,192,139675,5,6,1:2:0:0:
92,192,139837,1,2,0:0:0:0:
172,192,140000,1,10,0:0:0:0:
332,192,140162,2,0,L|336:112,1,80,2|0,0:0|1:2,0:0:0:0:
176,112,140486,2,0,P|96:108|72:40,1,160,2|2,1:2|1:2,0:0:0:0:
312,40,140973,5,2,0:0:0:0:
392,40,141135,1,2,1:2:0:0:
312,40,141297,1,10,0:0:0:0:
152,40,141459,2,0,L|148:124,1,80,2|0,0:0|1:2,0:0:0:0:
308,120,141783,2,0,P|388:124|416:192,1,160,2|2,1:2|0:0,0:0:0:0:
176,192,142270,5,2,1:2:0:0:
88,192,142432,2,0,L|84:112,1,80,2|8,0:0|0:0,0:0:0:0:
244,112,142756,2,0,L|248:28,1,80,2|0,0:0|1:2,0:0:0:0:
88,36,143081,2,0,P|84:76|176:124,1,160,2|2,1:2|1:2,0:0:0:0:
416,124,143567,5,2,0:0:0:0:
496,124,143729,1,2,1:2:0:0:
416,124,143892,1,10,0:0:0:0:
256,124,144054,2,0,L|252:208,1,80,2|0,0:0|1:2,0:0:0:0:
412,204,144378,2,0,P|460:236|412:304,1,160,2|2,1:2|0:0,0:0:0:0:
172,304,144864,6,0,L|168:224,1,80,6|0,1:2|0:0,0:0:0:0:
256,224,145189,2,0,L|260:144,1,80,10|2,0:0|0:0,0:0:0:0:
100,144,145513,1,2,1:2:0:0:
20,144,145675,1,0,1:2:0:0:
100,144,145837,1,10,0:0:0:0:
260,144,146000,6,0,P|340:140|364:72,1,160,0|0,1:2|1:2,0:0:0:0:
204,72,146486,2,0,L|200:152,1,80,8|2,0:0|0:0,0:0:0:0:
280,152,146810,1,2,1:2:0:0:
120,152,146973,2,0,P|72:120|120:52,1,160,2|2,1:2|0:0,0:0:0:0:
280,52,147459,6,0,L|284:136,1,80,2|0,1:2|0:0,0:0:0:0:
196,132,147783,2,0,L|192:220,1,80,10|2,0:0|0:0,0:0:0:0:
352,212,148108,2,0,L|356:296,1,80,2|0,1:2|1:2,0:0:0:0:
196,292,148432,1,10,0:0:0:0:
108,292,148594,6,0,P|60:252|116:196,1,160,0|0,1:2|1:2,0:0:0:0:
276,196,149081,2,0,L|280:112,1,80,10|0,0:0|1:2,0:0:0:0:
192,116,149405,2,0,L|188:200,1,80,10|0,0:0|1:2,0:0:0:0:
348,196,149729,2,0,L|440:196,1,80,14|0,0:0|0:0,0:0:0:0:
188,196,150054,5,2,1:2:0:0:
108,196,150216,1,2,0:0:0:0:
348,196,150378,1,12,0:0:0:0:
436,196,150540,2,0,L|440:112,1,80,2|0,0:0|1:2,0:0:0:0:
280,116,150864,2,0,P|200:112|180:44,1,160,2|2,1:2|1:2,0:0:0:0:
420,44,151351,5,2,0:0:0:0:
500,44,151513,1,2,1:2:0:0:
420,44,151675,1,10,0:0:0:0:
260,44,151837,2,0,L|256:124,1,80,2|0,0:0|1:2,0:0:0:0:
416,124,152162,2,0,P|468:168|416:224,1,160,2|2,1:2|0:0,0:0:0:0:
176,224,152648,5,2,1:2:0:0:
256,224,152810,2,0,L|260:144,1,80,2|8,0:0|0:0,0:0:0:0:
100,144,153135,2,0,L|96:64,1,80,2|0,0:0|1:2,0:0:0:0:
256,64,153459,2,0,L|88:64,1,160,2|2,1:2|1:2,0:0:0:0:
336,64,153946,5,2,0:0:0:0:
416,64,154108,1,2,1:2:0:0:
336,64,154270,1,10,0:0:0:0:
176,64,154432,2,0,L|172:148,1,80,2|0,0:0|1:2,0:0:0:0:
332,140,154756,2,0,P|412:144|436:212,1,160,2|2,1:2|0:0,0:0:0:0:
196,208,155243,6,0,L|192:288,1,80,6|0,1:2|0:0,0:0:0:0:
280,288,155567,2,0,L|284:208,1,80,10|2,0:0|0:0,0:0:0:0:
124,208,155892,1,2,1:2:0:0:
44,208,156054,1,0,1:2:0:0:
124,208,156216,1,10,0:0:0:0:
284,208,156378,6,0,P|332:176|284:108,1,160,0|0,1:2|1:2,0:0:0:0:
196,108,156864,1,8,0:0:0:0:
356,108,157027,2,0,L|360:188,1,80,2|2,0:0|1:2,0:0:0:0:
200,192,157351,2,0,P|152:224|200:292,1,160,2|2,1:2|0:0,0:0:0:0:
360,288,157837,5,8,1:2:0:0:
384,256,157919,1,8,2:3:0:0:
360,224,158000,1,8,2:3:0:0:
272,224,158162,1,2,1:2:0:0:
112,224,158324,1,8,0:0:0:0:
88,192,158405,1,8,1:3:0:0:
112,160,158486,1,8,2:3:0:0:
200,160,158648,1,0,1:2:0:0:
440,160,158810,1,12,1:2:0:0:
280,240,159135,5,8,0:2:0:0:
264,184,159243,1,8,0:0:0:0:
292,132,159351,1,8,0:0:0:0:
344,112,159459,1,8,0:2:0:0:
404,112,159567,1,8,0:3:0:0:
212,112,159783,5,8,0:3:0:0:
404,112,160000,1,8,0:3:0:0:
456,112,160108,1,8,0:3:0:0:
404,112,160216,1,4,0:3:0:0:
84,116,160432,5,6,1:2:0:0:
152,260,165621,6,0,P|108:236|152:160,1,160,2|2,1:2|0:0,0:0:0:0:
232,160,166108,1,2,0:0:0:0:
400,160,166432,1,2,0:0:0:0:
472,160,166594,1,2,0:0:0:0:
400,160,166756,1,0,1:2:0:0:
240,160,166919,6,0,P|160:156|140:84,1,160,2|2,1:2|0:0,0:0:0:0:
220,88,167405,1,2,0:0:0:0:
380,88,167729,1,2,0:0:0:0:
452,88,167892,1,2,0:0:0:0:
180,88,168216,6,0,P|132:136|184:192,1,160,2|2,1:2|0:0,0:0:0:0:
264,192,168702,1,2,0:0:0:0:
440,192,169027,1,2,0:0:0:0:
368,192,169189,1,2,0:0:0:0:
96,192,169513,5,2,1:2:0:0:
264,192,169837,1,2,1:2:0:0:
336,228,170000,1,2,0:0:0:0:
264,264,170162,1,2,1:2:0:0:
96,264,170486,1,2,1:2:0:0:
368,264,170810,5,2,1:2:0:0:
440,264,170973,1,2,0:0:0:0:
368,264,171135,1,10,0:0:0:0:
208,264,171459,1,10,0:0:0:0:
384,264,171783,1,10,0:0:0:0:
112,264,172108,5,10,1:2:0:0:
40,264,172270,1,2,0:0:0:0:
112,264,172432,1,10,0:0:0:0:
272,264,172756,1,10,0:0:0:0:
96,264,173081,1,10,0:0:0:0:
488,264,173405,5,14,1:2:0:0:
328,264,173729,1,0,1:2:0:0:
408,264,173892,1,8,0:0:0:0:
428,228,173973,1,8,0:0:0:0:
408,192,174054,1,0,1:2:0:0:
320,192,174216,1,8,0:0:0:0:
160,192,174378,1,0,1:2:0:0:
120,188,174459,1,8,0:0:0:0:
92,160,174540,1,8,0:0:0:0:
252,324,174702,6,0,P|368:320|412:144,1,320,2|2,0:0|0:0,0:0:0:0:
140,144,175675,2,0,L|136:224,1,80,2|0,0:0|0:0,0:0:0:0:
376,228,176000,6,0,P|424:196|376:128,1,160,6|10,1:2|0:0,0:0:0:0:
216,128,176486,2,0,L|212:208,1,80,2|0,0:0|1:2,0:0:0:0:
372,208,176810,2,0,L|212:208,1,160,2|2,1:2|1:2,0:0:0:0:
372,208,177297,5,2,0:0:0:0:
452,208,177459,1,2,1:2:0:0:
372,208,177621,1,8,0:0:0:0:
212,204,177783,2,0,P|168:180|212:104,1,160,2|0,0:0|1:2,0:0:0:0:
372,108,178270,2,0,L|376:192,1,80,10|0,0:0|0:0,0:0:0:0:
216,188,178594,6,0,L|212:272,1,80,2|2,1:2|0:0,0:0:0:0:
300,268,178919,2,0,L|304:184,1,80,10|2,0:0|0:0,0:0:0:0:
144,188,179243,2,0,L|140:108,1,80,2|0,1:2|1:2,0:0:0:0:
224,108,179567,1,10,0:0:0:0:
140,108,179729,1,2,1:2:0:0:
300,108,179892,6,0,L|304:192,1,80,2|0,0:0|1:2,0:0:0:0:
216,184,180216,2,0,L|212:264,1,80,10|2,0:0|0:0,0:0:0:0:
372,264,180540,2,0,L|288:264,1,80,2|0,1:2|1:2,0:0:0:0:
132,264,180864,2,0,L|128:180,1,80,10|0,0:0|0:0,0:0:0:0:
368,184,181189,5,6,1:2:0:0:
448,184,181351,1,2,0:0:0:0:
368,184,181513,1,8,0:0:0:0:
208,184,181675,2,0,L|204:104,1,80,2|0,0:0|1:2,0:0:0:0:
364,108,182000,2,0,P|440:104|460:32,1,160,2|0,1:2|1:2,0:0:0:0:
300,32,182486,5,2,0:0:0:0:
220,32,182648,1,2,1:2:0:0:
300,32,182810,1,10,0:0:0:0:
140,32,182973,2,0,L|136:116,1,80,2|0,0:0|1:2,0:0:0:0:
296,112,183297,2,0,P|368:116|388:192,1,160,2|0,1:2|0:0,0:0:0:0:
148,192,183783,5,12,1:2:0:0:
68,192,183946,1,0,1:2:0:0:
148,192,184108,1,0,1:2:0:0:
387,191,184270,1,12,1:2:0:0:
467,191,184432,1,0,1:2:0:0:
387,191,184594,1,0,1:2:0:0:
140,192,184756,5,12,1:2:0:0:
52,192,184919,2,0,L|48:112,1,80,0|0,1:2|1:2,0:0:0:0:
208,112,185243,1,12,1:2:0:0:
296,112,185405,2,0,L|300:192,1,80,0|0,1:2|1:2,0:0:0:0:
212,192,185729,1,8,2:3:0:0:
184,224,185810,1,8,2:3:0:0:
212,260,185892,1,0,1:2:0:0:
372,260,186054,1,12,1:2:0:0:
452,260,186216,1,0,0:0:0:0:
216,184,186378,5,8,0:0:0:0:
128,184,186540,1,8,0:0:0:0:
128,268,186864,1,2,0:0:0:0:
288,268,187027,2,0,L|292:184,1,80,10|0,0:0|1:2,0:0:0:0:
204,188,187351,1,10,0:0:0:0:
444,192,187513,6,0,P|496:144|444:92,1,160,6|8,1:2|2:3,0:0:0:0:
404,92,187919,1,8,2:3:0:0:
364,92,188000,1,8,2:3:0:0:
444,92,188162,1,0,1:2:0:0:
284,92,188324,2,0,L|280:176,1,80,8|0,0:2|1:2,0:0:0:0:
368,172,188648,1,8,2:3:0:0:
372,216,188729,1,8,2:3:0:0:
376,260,188810,1,4,2:3:0:0:
136,260,188973,5,6,1:2:0:0:
48,260,189135,2,0,L|44:180,1,80,2|8,0:0|0:0,0:0:0:0:
204,180,189459,2,0,P|252:124|200:72,1,160,2|0,0:0|1:2,0:0:0:0:
120,72,189946,1,10,0:0:0:0:
280,72,190108,6,0,L|284:152,1,80,2|0,1:2|0:0,0:0:0:0:
200,152,190432,1,0,1:2:0:0:
284,152,190594,1,10,0:0:0:0:
444,152,190756,2,0,L|448:232,1,80,2|0,0:0|1:2,0:0:0:0:
360,232,191081,1,2,1:2:0:0:
120,232,191243,2,0,L|116:144,1,80,14|0,0:0|0:0,0:0:0:0:
356,152,191567,5,6,1:2:0:0:
444,152,191729,2,0,L|448:68,1,80,2|8,0:0|0:0,0:0:0:0:
288,72,192054,2,0,P|216:80|192:156,1,160,2|2,0:0|1:2,0:0:0:0:
272,156,192540,1,8,0:0:0:0:
432,156,192702,6,0,P|436:200|348:256,1,160,2|2,1:2|1:2,0:0:0:0:
260,256,193189,1,8,0:0:0:0:
100,256,193351,1,2,1:2:0:0:
80,216,193432,1,0,1:2:0:0:
100,176,193513,1,8,0:0:0:0:
188,176,193675,1,0,1:2:0:0:
348,172,193837,2,0,L|352:92,1,80,12|0,0:0|0:0,0:0:0:0:
112,96,194162,5,14,1:2:0:0:
32,96,194324,1,0,1:2:0:0:
112,96,194486,1,0,1:2:0:0:
352,96,194648,1,14,1:2:0:0:
432,96,194810,1,0,1:2:0:0:
352,96,194973,1,0,1:2:0:0:
112,96,195135,5,14,1:2:0:0:
100,164,195297,1,0,1:2:0:0:
180,164,195459,1,0,1:2:0:0:
420,164,195621,1,14,1:2:0:0:
432,232,195783,1,0,1:2:0:0:
352,232,195946,1,0,1:2:0:0:
200,232,196108,1,10,1:2:0:0:
284,232,196270,1,10,1:2:0:0:
200,232,196432,1,10,1:2:0:0:
440,232,196594,1,10,1:2:0:0:
388,72,198054,5,6,1:2:0:0:
468,72,198216,1,2,0:0:0:0:
388,72,198378,1,2,0:0:0:0:
300,72,198540,2,0,L|296:156,1,80,2|2,0:0|0:0,0:0:0:0:
464,156,198864,2,0,P|468:196|380:256,1,160,2|2,0:0|0:0,0:0:0:0:
152,168,199351,5,6,1:2:0:0:
72,168,199513,1,2,0:0:0:0:
152,168,199675,1,2,0:0:0:0:
240,168,199837,2,0,L|244:248,1,80,2|0,0:0|0:0,0:0:0:0:
76,248,200162,2,0,P|28:280|76:348,1,160,2|2,0:0|0:0,0:0:0:0:
308,344,200648,5,6,1:2:0:0:
388,344,200810,2,0,L|392:264,1,80,2|0,0:0|0:0,0:0:0:0:
312,264,201135,2,0,L|308:184,1,80,2|0,0:0|0:0,0:0:0:0:
468,184,201459,2,0,P|472:144|384:80,1,160,2|2,0:0|0:0,0:0:0:0:
144,80,201946,5,6,1:2:0:0:
64,80,202108,1,2,0:0:0:0:
144,80,202270,1,2,0:0:0:0:
304,80,202432,1,10,0:0:0:0:
328,112,202513,1,8,0:0:0:0:
304,144,202594,1,0,1:2:0:0:
176,144,202837,1,8,2:3:0:0:
304,144,203081,1,4,2:3:0:0:
136,144,203243,6,0,P|96:180|136:264,1,160,6|2,1:2|0:0,0:0:0:0:
304,264,203892,1,2,1:2:0:0:
136,264,204216,1,2,0:0:0:0:
408,264,204540,6,0,P|448:228|408:144,1,160,2|2,1:2|0:0,0:0:0:0:
240,144,205189,1,2,1:2:0:0:
408,144,205513,1,2,0:0:0:0:
412,144,205675,1,0,0:0:0:0:
176,144,205837,5,6,1:2:0:0:
320,144,206162,1,10,0:0:0:0:
400,144,206324,1,8,0:0:0:0:
416,180,206405,1,8,0:0:0:0:
400,216,206486,1,2,1:2:0:0:
320,216,206648,1,8,0:0:0:0:
160,216,206810,1,2,1:2:0:0:
136,248,206892,1,0,0:0:0:0:
160,280,206973,1,8,0:0:0:0:
320,284,207135,5,0,0:0:0:0:
480,284,207459,2,0,L|320:284,2,160,2|2|2,0:0|0:0|0:0,0:0:0:0:
208,284,208432,2,0,L|128:284,1,80,2|2,0:0|0:0,0:0:0:0:
384,284,208756,5,14,1:2:0:0:
464,284,208919,2,0,L|468:200,1,80,2|0,0:0|1:2,0:0:0:0:
308,204,209243,2,0,P|220:196|208:136,1,160,2|2,1:2|1:2,0:0:0:0:
368,140,209729,5,0,0:0:0:0:
448,140,209892,2,0,L|452:60,1,80,2|8,1:2|0:0,0:0:0:0:
292,60,210216,2,0,L|288:140,1,80,2|0,0:0|1:2,0:0:0:0:
448,140,210540,2,0,P|468:208|412:268,1,160,2|2,1:2|0:0,0:0:0:0:
172,276,211027,5,0,1:2:0:0:
84,276,211189,2,0,L|80:196,1,80,2|8,0:0|0:0,0:0:0:0:
240,196,211513,2,0,L|244:116,1,80,2|0,0:0|1:2,0:0:0:0:
84,120,211837,2,0,P|36:88|88:24,1,160,0|2,1:2|1:2,0:0:0:0:
328,24,212324,6,0,L|332:104,1,80,12|2,0:0|1:2,0:0:0:0:
172,104,212648,2,0,L|168:188,1,80,14|2,0:0|1:2,0:0:0:0:
408,184,212973,1,12,0:0:0:0:
448,184,213054,1,8,0:0:0:0:
464,216,213135,1,10,0:0:0:0:
448,248,213216,1,8,0:0:0:0:
408,252,213297,1,8,0:0:0:0:
320,252,213459,1,10,0:0:0:0:
80,252,213621,6,0,L|76:168,1,80,6|0,1:2|0:0,0:0:0:0:
164,172,213946,2,0,L|168:92,1,80,10|2,0:0|0:0,0:0:0:0:
328,96,214270,1,2,1:2:0:0:
408,96,214432,1,0,1:2:0:0:
328,96,214594,1,10,0:0:0:0:
168,96,214756,6,0,P|120:132|168:200,1,160,0|0,1:2|1:2,0:0:0:0:
328,200,215243,2,0,L|332:284,1,80,10|2,0:0|0:0,0:0:0:0:
172,280,215567,1,8,2:3:0:0:
132,276,215648,1,8,0:0:0:0:
116,240,215729,1,10,0:0:0:0:
136,204,215810,1,8,0:0:0:0:
176,196,215892,1,8,0:0:0:0:
264,196,216054,1,2,1:2:0:0:
424,196,216216,5,10,1:2:0:0:
264,196,216540,1,2,0:0:0:0:
272,116,216864,1,2,0:0:0:0:
432,116,217189,1,2,0:0:0:0:
192,116,217351,6,0,P|144:156|196:220,1,160,4|0,1:2|1:2,0:0:0:0:
280,220,217837,1,10,0:0:0:0:
120,220,218000,2,0,L|116:304,1,80,0|0,1:2|1:2,0:0:0:0:
276,300,218324,1,8,0:0:0:0:
196,300,218486,1,8,0:0:0:0:
116,300,218648,1,8,0:0:0:0:
348,300,218810,6,0,L|352:216,1,80,6|0,1:2|0:0,0:0:0:0:
264,220,219135,2,0,L|260:140,1,80,10|2,0:0|0:0,0:0:0:0:
420,140,219459,2,0,P|468:92|416:36,1,160,0|10,1:0|0:0,0:0:0:0:
256,32,219946,6,0,L|252:112,1,80,6|0,1:2|0:0,0:0:0:0:
412,112,220270,2,0,L|244:112,1,160,2|2,1:2|0:0,0:0:0:0:
412,112,220756,1,2,1:2:0:0:
492,112,220919,1,2,1:2:0:0:
412,112,221081,1,10,0:0:0:0:
140,112,221405,6,0,L|60:112,1,80,6|2,1:2|0:0,0:0:0:0:
332,112,221892,2,0,P|380:148|328:212,1,160,2|0,0:0|1:2,0:0:0:0:
240,212,222378,1,10,0:0:0:0:
480,212,222540,6,0,L|484:292,1,80,6|0,1:2|0:0,0:0:0:0:
324,292,222864,2,0,P|256:284|228:204,1,160,2|2,1:2|0:0,0:0:0:0:
388,208,223351,1,2,1:2:0:0:
468,208,223513,1,2,1:2:0:0:
388,208,223675,1,8,0:0:0:0:
116,204,224000,6,0,L|36:204,1,80,6|2,1:2|0:0,0:0:0:0:
308,200,224486,2,0,P|368:176|340:100,1,160,2|0,0:0|1:2,0:0:0:0:
260,100,224973,1,10,0:0:0:0:
100,100,225135,6,0,L|96:180,1,80,6|0,1:2|0:0,0:0:0:0:
256,176,225459,2,0,P|308:220|256:272,1,160,2|2,1:2|0:0,0:0:0:0:
96,272,225946,1,2,1:2:0:0:
16,272,226108,1,2,1:2:0:0:
96,272,226270,1,10,0:0:0:0:
488,268,226594,6,0,L|492:184,1,80,6|2,1:2|0:0,0:0:0:0:
404,188,226919,1,8,0:0:0:0:
244,188,227081,2,0,P|192:148|248:96,1,160,0|0,1:2|1:2,0:0:0:0:
332,96,227567,1,8,0:0:0:0:
92,96,227729,6,0,L|88:180,1,80,6|0,1:2|0:0,0:0:0:0:
176,176,228054,1,8,2:3:0:0:
336,176,228216,2,0,L|340:256,1,80,8|2,2:3|0:0,0:0:0:0:
180,256,228540,1,8,2:3:0:0:
260,256,228702,1,8,2:3:0:0:
180,256,228864,1,8,2:3:0:0:
452,252,229189,5,0,1:2:0:0:
256,192,229513,12,2,231783,0:0:0:0:
