osu file format v14

[General]
AudioFilename: audio.mp3
AudioLeadIn: 0
PreviewTime: 46077
Countdown: 0
SampleSet: Soft
StackLeniency: 0.7
Mode: 0
LetterboxInBreaks: 0
WidescreenStoryboard: 1

[Editor]
Bookmarks: 13374,18563,28942,39320,49698,70455,81158,88617
DistanceSpacing: 0.6
BeatDivisor: 3
GridSize: 8
TimelineZoom: 2.4

[Metadata]
Title:Pride Kakumei (TV Size)
TitleUnicode:プライド革命 (TV Size)
Artist:CHiCO with HoneyWorks
ArtistUnicode:CHiCO with HoneyWorks
Creator:sanairrt
Version:frozz's Insane
Source:銀魂゜
Tags:Mocaotic frozz fzl_17 gintama gintama゜ gintoki silver soul opening 2015 anime japanese pop rock jpop j-pop jrock j-rock
BeatmapID:2562318
BeatmapSetID:1208597

[Difficulty]
HPDrainRate:5
CircleSize:3.6
OverallDifficulty:7
ApproachRate:9
SliderMultiplier:1.6
SliderTickRate:1

[Events]
//Background and Video events
0,0,"f smoke.jpg",0,0
Video,1581,"Video.mp4"
//Break Periods
//Storyboard Layer 0 (Background)
//Storyboard Layer 1 (Fail)
//Storyboard Layer 2 (Pass)
//Storyboard Layer 3 (Foreground)
//Storyboard Layer 4 (Overlay)
//Storyboard Sound Samples

[TimingPoints]
1699,324.324324324324,4,2,1,50,1,0
1699,-125,4,2,1,50,0,0
11266,-500,4,2,1,50,0,0
11915,-500,4,2,1,5,0,0
12077,-250,4,2,1,40,0,0
13212,-250,4,2,1,5,0,0
13374,-100,4,2,1,70,0,0
14509,-83.3333333333333,4,2,1,70,0,0
14753,-83.3333333333333,4,2,1,5,0,0
14834,-83.3333333333333,4,2,1,70,0,0
14996,-100,4,2,1,70,0,0
17104,-83.3333333333333,4,2,1,70,0,0
17347,-83.3333333333333,4,2,1,5,0,0
17428,-83.3333333333333,4,2,1,70,0,0
17590,-100,4,2,1,70,0,0
18563,-111.111111111111,4,2,1,60,0,0
21077,-111.111111111111,4,2,1,5,0,0
21158,-111.111111111111,4,2,1,60,0,0
23671,-111.111111111111,4,2,1,5,0,0
23753,-111.111111111111,4,2,1,60,0,0
28131,-142.857142857143,4,2,1,60,0,0
28942,-200,4,2,1,50,0,0
38023,-125,4,2,1,60,0,0
39320,-111.111111111111,4,2,1,60,0,0
44104,-111.111111111111,4,2,1,5,0,0
44185,-90.9090909090908,4,2,1,60,0,0
44428,-90.9090909090908,4,2,1,5,0,0
44509,-111.111111111111,4,2,1,60,0,0
46050,-111.111111111111,4,2,1,5,0,0
46131,-111.111111111111,4,2,1,60,0,0
47104,-222.222222222222,4,2,1,60,0,0
48239,-222.222222222222,4,2,1,5,0,0
48401,-666.666666666667,4,2,1,40,0,0
49374,-666.666666666667,4,2,1,5,0,0
49698,-83.3333333333333,4,2,1,85,0,1
56266,-83.3333333333333,4,2,1,5,0,1
56347,-83.3333333333333,4,2,1,85,0,1
66644,-83.3333333333333,4,2,1,5,0,1
66726,-83.3333333333333,4,2,1,85,0,1
70455,-166.666666666667,4,2,1,60,0,0
71590,-166.666666666667,4,2,1,5,0,0
71753,-166.666666666667,4,2,1,60,0,0
72888,-166.666666666667,4,2,1,5,0,0
73050,-166.666666666667,4,2,1,60,0,0
74185,-166.666666666667,4,2,1,5,0,0
74347,-166.666666666667,4,2,1,60,0,0
74996,-125,4,2,1,60,0,0
75158,-125,4,2,1,5,0,0
75239,-125,4,2,1,60,0,0
75401,-125,4,2,1,5,0,0
75482,-125,4,2,1,60,0,0
75644,-166.666666666667,4,2,1,60,0,0
76293,-111.111111111111,4,2,1,60,0,0
76942,-83.3333333333333,4,2,1,60,0,0
77590,-66.6666666666667,4,2,1,60,0,0
78239,-83.3333333333334,4,2,1,60,0,0
79536,-166.666666666667,4,2,1,60,0,0
80834,-166.666666666667,4,2,1,5,0,0
81158,-83.3333333333333,4,2,1,85,0,1
81401,-83.3333333333333,4,2,1,5,0,1
81482,-83.3333333333333,4,2,1,85,0,1
88617,-83.3333333333333,4,2,1,85,0,0
89753,-83.3333333333333,4,2,1,85,0,0

[Colours]
Combo1 : 248,92,97
Combo2 : 170,170,170
Combo3 : 255,170,85

[HitObjects]
51,290,1699,5,2,0:0:0:0:
51,290,1861,2,0,B|85:263|85:263|179:280,1,128,2|2,0:0|0:0,0:0:0:0:
218,357,2347,1,2,0:0:0:0:
218,357,2509,2,0,P|253:319|241:234,1,128,2|0,0:0|0:0,0:0:0:0:
194,170,2996,2,0,P|155:169|123:175,1,64,2|0,0:0|0:0,0:0:0:0:
42,66,3320,2,0,P|73:70|105:69,1,64,2|0,0:0|0:0,0:0:0:0:
216,14,3644,2,0,P|201:58|204:99,1,64,2|0,0:0|0:0,0:0:0:0:
147,234,3969,2,0,P|143:202|131:172,1,64,2|0,0:0|0:0,0:0:0:0:
42,66,4293,6,0,B|112:97|103:36|183:71,1,128,2|0,0:0|0:0,0:0:0:0:
259,119,4780,2,0,L|252:196,2,64
301,34,5266,1,2,0:0:0:0:
301,34,5428,2,0,P|339:58|349:149,1,128,2|0,0:0|0:0,0:0:0:0:
251,217,5915,2,0,P|284:216|314:226,1,64
381,314,6239,1,2,0:0:0:0:
319,384,6401,1,2,0:0:0:0:
390,322,6563,2,0,L|397:241,1,64,2|0,0:0|0:0,0:0:0:0:
454,169,6888,5,2,0:0:0:0:
354,135,7050,1,2,0:0:0:0:
456,155,7212,1,2,0:0:0:0:
351,148,7374,2,0,P|321:101|343:17,1,128,2|2,0:0|0:0,0:0:0:0:
60,215,8185,5,2,0:0:0:0:
160,249,8347,1,2,0:0:0:0:
57,228,8509,1,2,0:0:0:0:
163,236,8671,2,0,P|193:283|171:367,1,128,2|2,0:0|0:0,0:0:0:0:
171,56,9320,5,2,0:0:0:0:
244,118,9482,1,2,0:0:0:0:
322,30,9644,2,0,L|245:34,1,64,2|0,0:0|0:0,0:0:0:0:
398,80,9969,2,0,P|412:35|402:-1,1,64,2|0,0:0|0:0,0:0:0:0:
342,200,10293,2,0,P|327:155|337:118,1,64,2|0,0:0|0:0,0:0:0:0:
409,324,10617,6,0,P|423:279|413:242,1,64,2|0,0:0|0:0,0:0:0:0:
267,321,10942,2,0,P|298:355|336:365,1,64,2|0,0:0|0:0,0:0:0:0:
341,199,11266,6,0,P|310:203|283:219,1,64,2|0,0:0|0:0,0:0:0:0:
341,280,12077,6,0,B|222:244|248:338|128:312,1,224,2|0,0:0|0:0,0:0:0:0:
11,195,13374,6,0,B|95:169|77:236|162:217,1,160,6|8,1:2|0:0,0:0:0:0:
177,47,13861,1,2,1:2:0:0:
171,49,13942,1,8,0:0:0:0:
165,53,14023,2,0,P|146:93|154:152,1,80,0|0,1:2|1:2,0:0:0:0:
89,0,14347,1,10,0:0:0:0:
234,114,14509,6,0,B|288:108|288:108|318:127|318:127|372:121,1,143.999995605469,6|0,1:2|2:0,0:0:0:0:
388,119,14834,1,2,1:2:0:0:
449,60,14996,2,0,P|474:108|465:163,1,80,8|0,0:0|1:2,0:0:0:0:
468,174,15239,1,8,0:0:0:0:
468,174,15320,1,2,1:2:0:0:
388,119,15482,1,2,1:2:0:0:
301,264,15644,1,10,0:0:0:0:
381,209,15807,1,8,0:0:0:0:
381,209,15888,1,8,0:0:0:0:
381,209,15969,5,6,1:2:0:0:
426,338,16131,2,0,P|379:352|328:334,1,80,2|8,2:0|0:0,0:0:0:0:
217,284,16455,1,2,1:2:0:0:
220,278,16536,1,8,0:0:0:0:
224,272,16617,2,0,P|271:258|322:276,1,80,0|0,1:2|1:2,0:0:0:0:
160,206,16942,1,10,0:0:0:0:
239,372,17104,6,0,P|163:358|126:290,1,143.999995605469,6|0,1:2|2:0,0:0:0:0:
126,290,17428,1,2,1:2:0:0:
144,130,17590,2,0,P|161:165|154:220,1,80,8|0,0:0|0:0,0:0:0:0:
83,56,17915,1,10,0:0:0:0:
112,38,17996,1,8,0:0:0:0:
145,34,18077,1,10,0:0:0:0:
178,41,18158,1,8,0:0:0:0:
207,59,18239,2,0,L|195:122,3,40,10|8|8|8,0:0|0:0|0:0|0:0,0:0:0:0:
289,128,18563,5,6,1:2:0:0:
363,88,18726,2,0,P|377:128|365:177,1,71.9999978027344,2|8,0:0|0:0,0:0:0:0:
308,220,19050,1,2,0:0:0:0:
406,245,19212,1,2,1:2:0:0:
294,226,19374,2,0,P|280:266|292:315,1,71.9999978027344,2|8,1:2|0:0,0:0:0:0:
354,357,19698,1,2,1:2:0:0:
211,351,19861,6,0,P|198:317|206:271,1,71.9999978027344,2|0,0:0|1:2,0:0:0:0:
53,301,20185,2,0,P|88:306|124:336,1,71.9999978027344,10|0,0:0|0:0,0:0:0:0:
175,189,20509,2,0,P|152:217|108:233,1,71.9999978027344,2|0,1:2|1:2,0:0:0:0:
16,180,20834,2,0,P|12:107|47:71,1,107.999996704102,10|0,0:0|0:0,0:0:0:0:
44,86,21158,6,0,L|36:9,2,71.9999978027344,2|2|10,1:2|0:0|0:0,0:0:0:0:
206,101,21644,1,2,1:2:0:0:
206,89,21726,1,8,0:0:0:0:
206,78,21807,2,0,P|165:68|124:80,1,71.9999978027344,0|0,1:2|1:2,0:0:0:0:
175,189,22131,1,10,0:0:0:0:
304,121,22293,6,0,B|278:160|278:160|300:286,1,143.999995605469,2|0,1:2|1:2,0:0:0:0:
373,372,22780,2,0,P|388:318|375:285,1,71.9999978027344,8|0,0:0|0:0,0:0:0:0:
295,255,23104,1,2,1:2:0:0:
384,303,23266,1,2,1:2:0:0:
432,214,23428,2,0,P|452:171|453:83,1,107.999996704102,10|0,0:0|0:0,0:0:0:0:
453,100,23753,6,0,P|414:85|371:94,1,71.9999978027344,2|0,1:2|0:0,0:0:0:0:
305,166,24077,1,10,0:0:0:0:
212,55,24239,1,2,1:2:0:0:
212,55,24320,1,8,0:0:0:0:
212,55,24401,2,0,L|300:72,1,71.9999978027344,0|2,1:2|1:2,0:0:0:0:
147,123,24726,2,0,P|116:80|118:45,1,71.9999978027344,8|0,0:0|1:2,0:0:0:0:
219,186,25050,5,2,0:0:0:0:
137,245,25212,2,0,P|102:248|65:234,1,71.9999978027344,2|8,1:2|0:0,0:0:0:0:
229,286,25536,2,0,P|249:315|255:350,1,71.9999978027344,2|0,0:0|1:2,0:0:0:0:
219,185,25861,2,0,P|234:153|261:130,1,71.9999978027344,2|8,1:2|0:0,0:0:0:0:
346,180,26185,1,2,0:0:0:0:
415,78,26347,5,2,1:2:0:0:
415,78,26509,2,0,L|331:87,1,71.9999978027344,2|8,0:0|0:0,0:0:0:0:
469,189,26834,2,0,L|498:123,1,71.9999978027344,2|0,0:0|1:2,0:0:0:0:
346,180,27158,2,0,L|388:238,1,71.9999978027344,2|8,1:2|0:0,0:0:0:0:
472,354,27482,1,2,1:2:0:0:
472,354,28131,6,0,L|465:393,2,27.9999991455078,10|8|8,0:0|0:0|0:0,0:0:0:0:
388,238,28455,1,8,0:3:0:0:
278,211,28617,1,4,0:3:0:0:
196,251,28780,1,4,0:3:0:0:
2,108,28942,6,0,P|20:62|15:16,1,80,6|2,1:2|1:2,0:0:0:0:
155,178,29590,2,0,P|138:141|137:102,1,80,10|0,0:0|0:0,0:0:0:0:
188,31,30077,2,0,L|184:5,2,20,10|8|0,0:0|0:0|1:2,0:0:0:0:
273,10,30401,1,10,0:0:0:0:
352,49,30563,1,2,1:2:0:0:
334,213,30888,2,0,P|313:175|325:124,1,80,10|2,0:0|0:0,0:0:0:0:
403,292,31374,1,8,0:0:0:0:
406,306,31455,1,8,0:0:0:0:
408,317,31536,6,0,P|371:297|319:309,1,80,2|2,1:2|1:2,0:0:0:0:
199,324,32185,2,0,P|164:343|125:340,1,80,10|0,0:0|0:0,0:0:0:0:
56,285,32671,2,0,L|24:296,2,20,8|8|2,0:0|0:0|1:2,0:0:0:0:
50,196,32996,1,8,0:0:0:0:
103,124,33158,1,2,1:2:0:0:
264,171,33482,2,0,P|211:178|185:166,1,80,2|2,0:0|0:0,0:0:0:0:
346,100,34131,6,0,P|364:134|367:193,1,80,6|2,1:2|1:2,0:0:0:0:
498,48,34780,2,0,P|480:82|477:141,1,80,10|2,0:0|0:0,0:0:0:0:
479,204,35266,2,0,L|522:193,1,40,8|0,0:0|1:2,0:0:0:0:
439,279,35590,2,0,L|396:268,1,40,8|2,0:0|1:2,0:0:0:0:
223,298,36077,2,0,P|258:279|302:287,1,80,10|2,0:0|0:0,0:0:0:0:
354,339,36563,6,0,L|348:365,2,20,8|8|0,0:0|0:0|1:2,0:0:0:0:
417,276,36888,2,0,L|406:230,1,40,8|2,0:0|1:2,0:0:0:0:
344,98,37374,2,0,P|325:138|338:188,1,80,10|2,0:0|0:0,0:0:0:0:
407,237,37861,1,0,1:2:0:0:
265,177,38023,6,0,L|340:171,1,64,8|0,0:0|1:2,0:0:0:0:
132,243,38347,2,0,L|207:237,1,64,10|0,0:0|0:0,0:0:0:0:
62,303,38671,2,0,P|43:268|50:217,1,64,2|8,1:2|0:0,0:0:0:0:
43,231,38915,1,8,0:0:0:0:
49,219,38996,1,10,0:0:0:0:
45,85,39158,1,8,0:0:0:0:
44,97,39239,1,8,0:0:0:0:
43,109,39320,6,0,B|98:99|98:99|125:118|125:118|196:106,1,143.999995605469,6|8,1:2|0:0,0:0:0:0:
301,85,39807,1,0,0:0:0:0:
301,85,39969,2,0,P|305:41|284:6,1,71.9999978027344,0|0,1:2|0:0,0:0:0:0:
358,169,40293,2,0,P|394:194|434:193,1,71.9999978027344,8|0,0:0|0:0,0:0:0:0:
257,176,40617,6,0,P|216:194|197:230,1,71.9999978027344,0|0,1:2|0:0,0:0:0:0:
239,365,40942,2,0,P|250:317|234:280,1,71.9999978027344,10|0,0:0|0:0,0:0:0:0:
67,300,41266,2,0,P|114:285|138:253,1,71.9999978027344,2|0,1:2|0:0,0:0:0:0:
37,118,41590,2,0,P|73:151|113:156,1,71.9999978027344,10|0,0:0|0:0,0:0:0:0:
241,58,41915,6,0,P|277:25|382:42,1,143.999995605469,2|8,1:2|0:0,0:0:0:0:
440,99,42401,1,0,0:0:0:0:
322,183,42563,2,0,P|305:146|323:88,1,71.9999978027344,2|0,1:2|0:0,0:0:0:0:
412,270,42888,2,0,P|429:233|411:175,1,71.9999978027344,10|0,0:0|0:0,0:0:0:0:
336,350,43212,6,0,P|300:346|260:347,1,71.9999978027344,2|8,1:2|0:0,0:0:0:0:
239,350,43455,1,8,0:0:0:0:
214,354,43536,1,8,0:3:0:0:
120,230,43698,1,10,0:3:0:0:
120,230,43780,1,8,0:3:0:0:
120,230,43861,2,0,P|176:218|216:273,1,107.999996704102,8|0,0:3|0:0,0:0:0:0:
213,270,44185,2,0,P|206:199|203:121,1,132.00000402832,10|0,0:0|0:0,0:0:0:0:
230,60,44509,6,0,B|306:36|289:105|364:85,1,143.999995605469,6|8,1:2|0:0,0:0:0:0:
511,66,44996,1,0,1:2:0:0:
511,66,45077,1,8,0:0:0:0:
511,66,45158,2,0,P|476:95|470:133,1,71.9999978027344,0|0,1:2|1:2,0:0:0:0:
431,253,45482,2,0,P|423:208|393:183,1,71.9999978027344,8|0,0:0|1:2,0:0:0:0:
336,152,45726,1,8,0:0:0:0:
336,152,45807,2,0,P|287:153|243:203,1,107.999996704102,0|0,1:2|0:0,0:0:0:0:
246,206,46131,6,0,P|268:238|265:295,1,71.9999978027344,10|0,0:0|0:0,0:0:0:0:
154,139,46455,2,0,P|147:177|105:216,1,71.9999978027344,2|0,1:2|1:2,0:0:0:0:
129,23,46780,2,0,P|97:46|40:45,1,71.9999978027344,10|0,0:0|1:2,0:0:0:0:
0,10,47023,1,8,0:0:0:0:
0,9,47104,6,0,P|24:114|52:266,1,251.999992309571,6|0,1:2|0:0,0:0:0:0:
52,333,48401,6,0,P|57:301|67:261,1,71.9999978027344,2|0,0:0|0:0,0:0:0:0:
326,288,49698,6,0,B|226:258|252:354|149:332,1,191.999994140625,6|10,1:2|0:0,0:0:0:0:
148,162,50185,1,10,0:0:0:0:
156,155,50266,1,8,0:0:0:0:
165,150,50347,2,0,P|187:193|178:262,1,95.9999970703126,0|2,1:2|1:2,0:0:0:0:
305,378,50671,2,0,P|304:330|326:288,1,95.9999970703126,8|2,0:0|1:2,0:0:0:0:
445,231,50996,5,2,0:0:0:0:
326,288,51158,1,2,1:2:0:0:
435,363,51320,1,10,0:0:0:0:
357,198,51482,1,10,0:0:0:0:
357,198,51563,1,8,0:0:0:0:
357,198,51644,2,0,P|334:133|351:85,1,95.9999970703126,0|2,1:2|1:2,0:0:0:0:
493,8,51969,2,0,P|448:60|398:69,1,95.9999970703126,8|10,0:0|0:0,0:0:0:0:
348,21,52212,1,8,0:0:0:0:
345,14,52293,6,0,P|288:-9|186:63,1,191.999994140625,2|8,1:2|0:0,0:0:0:0:
149,231,52780,1,10,0:0:0:0:
156,237,52861,1,8,0:0:0:0:
163,243,52942,2,0,P|190:196|171:120,1,95.9999970703126,0|2,1:2|1:2,0:0:0:0:
69,0,53266,2,0,P|69:47|95:87,1,95.9999970703126,8|2,0:0|1:2,0:0:0:0:
263,122,53590,5,2,0:0:0:0:
187,57,53753,1,2,1:2:0:0:
163,243,53915,1,10,0:0:0:0:
339,187,54077,1,10,0:0:0:0:
339,187,54158,1,8,0:0:0:0:
339,187,54239,2,0,P|368:132|349:62,1,95.9999970703126,0|2,1:2|1:2,0:0:0:0:
456,270,54563,2,0,P|393:272|342:323,1,95.9999970703126,8|10,0:0|0:0,0:0:0:0:
358,373,54807,1,8,0:0:0:0:
358,373,54888,6,0,P|335:311|196:321,1,191.999994140625,6|10,1:2|0:0,0:0:0:0:
80,337,55374,1,8,0:0:0:0:
87,342,55455,1,8,0:0:0:0:
94,347,55536,2,0,P|125:297|118:247,1,95.9999970703126,2|0,1:2|1:2,0:0:0:0:
37,168,55861,1,10,0:0:0:0:
256,154,56023,6,0,P|166:175|115:111,1,143.999995605469,0|0,1:2|0:0,0:0:0:0:
128,132,56347,1,0,1:2:0:0:
278,59,56509,1,8,0:0:0:0:
273,241,56671,1,10,0:0:0:0:
273,241,56753,1,8,0:0:0:0:
273,241,56834,2,0,P|249:196|266:136,1,95.9999970703126,2|2,1:2|1:2,0:0:0:0:
415,66,57158,2,0,P|388:109|327:124,1,95.9999970703126,8|10,0:0|0:0,0:0:0:0:
280,69,57401,1,8,0:0:0:0:
278,59,57482,6,0,P|241:18|102:47,1,191.999994140625,2|10,1:2|0:0,0:0:0:0:
89,204,57969,1,8,0:0:0:0:
100,212,58050,1,8,0:0:0:0:
111,220,58131,2,0,P|135:167|124:124,1,95.9999970703126,2|0,1:2|1:2,0:0:0:0:
203,316,58455,2,0,P|145:321|113:352,1,95.9999970703126,10|0,0:0|1:2,0:0:0:0:
241,189,58780,5,12,0:0:0:0:
333,314,58942,1,0,1:2:0:0:
355,101,59104,5,10,0:0:0:0:
346,225,59266,1,0,1:2:0:0:
498,106,59428,6,0,P|457:158|401:164,1,95.9999970703126,10|8,0:3|0:0,0:0:0:0:
421,166,59671,1,8,0:0:0:0:
411,166,59753,1,10,0:0:0:0:
247,0,59915,1,8,0:0:0:0:
243,18,59996,1,8,0:0:0:0:
239,36,60077,6,0,B|352:10|313:102|416:80,1,191.999994140625,6|8,1:2|0:0,0:0:0:0:
242,192,60563,1,10,0:0:0:0:
236,199,60644,1,8,0:0:0:0:
230,207,60726,2,0,P|207:159|217:106,1,95.9999970703126,0|2,1:2|1:2,0:0:0:0:
95,0,61050,2,0,P|98:47|76:89,1,95.9999970703126,8|2,0:0|1:2,0:0:0:0:
230,207,61374,5,2,0:0:0:0:
115,171,61536,1,2,1:2:0:0:
203,89,61698,1,8,0:0:0:0:
146,264,61861,1,10,0:0:0:0:
146,264,61942,1,8,0:0:0:0:
146,264,62023,2,0,P|193:306|245:308,1,95.9999970703126,0|2,1:2|1:2,0:0:0:0:
366,201,62347,2,0,P|306:220|278:264,1,95.9999970703126,8|10,0:0|0:0,0:0:0:0:
305,323,62590,1,8,0:0:0:0:
312,332,62671,6,0,P|388:298|485:366,1,191.999994140625,2|8,1:2|0:0,0:0:0:0:
382,190,63158,1,10,0:0:0:0:
374,196,63239,1,8,0:0:0:0:
366,201,63320,2,0,P|338:150|364:79,1,95.9999970703126,0|2,1:2|1:2,0:0:0:0:
460,0,63644,2,0,P|461:47|435:87,1,95.9999970703126,8|2,0:0|1:2,0:0:0:0:
260,63,63969,5,2,0:0:0:0:
341,113,64131,1,2,1:2:0:0:
183,185,64293,1,10,0:0:0:0:
179,13,64455,1,10,0:0:0:0:
179,13,64536,1,8,0:0:0:0:
179,13,64617,2,0,P|152:61|159:111,1,95.9999970703126,0|2,1:2|1:2,0:0:0:0:
246,249,64942,2,0,P|217:201|171:182,1,95.9999970703126,8|10,0:0|0:0,0:0:0:0:
102,172,65185,1,8,0:0:0:0:
92,177,65266,6,0,P|60:218|75:353,1,191.999994140625,6|10,1:2|0:0,0:0:0:0:
268,350,65753,1,8,0:0:0:0:
271,336,65834,1,8,0:0:0:0:
275,322,65915,2,0,P|234:297|170:306,1,95.9999970703126,2|0,1:2|1:2,0:0:0:0:
72,350,66239,1,10,0:0:0:0:
160,165,66401,6,0,P|206:214|190:314,1,143.999995605469,0|0,1:2|0:0,0:0:0:0:
187,298,66726,1,0,1:2:0:0:
333,220,66888,1,8,0:0:0:0:
415,360,67050,1,10,0:0:0:0:
408,372,67131,1,8,0:0:0:0:
401,384,67212,2,0,P|373:333|393:276,1,95.9999970703126,2|2,1:2|1:2,0:0:0:0:
416,62,67536,2,0,P|419:109|393:148,1,95.9999970703126,8|2,0:0|0:0,0:0:0:0:
160,165,67861,6,0,P|198:138|245:141,1,95.9999970703126,10|8,0:3|0:0,0:0:0:0:
256,151,68104,1,8,0:0:0:0:
264,162,68185,1,10,0:0:0:0:
83,229,68347,1,0,1:2:0:0:
110,73,68509,1,10,0:0:0:0:
114,59,68590,1,8,0:0:0:0:
118,45,68671,2,0,P|164:53|195:88,1,95.9999970703126,8|2,0:0|0:0,0:0:0:0:
83,229,68996,1,8,0:0:0:0:
257,256,69158,5,8,0:0:0:0:
257,256,69266,2,0,P|259:293|246:326,1,63.9999980468751,8|8,0:0|0:0,0:0:0:0:
364,213,69482,5,8,0:0:0:0:
364,213,69590,2,0,P|330:196|308:168,1,63.9999980468751,8|8,0:3|0:3,0:0:0:0:
347,327,69807,5,8,0:3:0:0:
347,327,69915,2,0,P|378:306|413:301,1,63.9999980468751,8|4,0:3|0:3,0:0:0:0:
460,216,70131,5,4,0:3:0:0:
462,173,70239,1,4,0:3:0:0:
465,130,70347,1,4,0:3:0:0:
468,88,70455,6,0,B|302:14|331:202|160:145,1,335.999989746094,6|0,1:2|0:0,0:0:0:0:
11,6,71753,6,0,B|92:60|62:139|62:139|-27:189|19:293,1,335.999989746094,6|0,1:2|0:0,0:0:0:0:
206,376,73050,6,0,B|177:342|185:295|185:295|219:259|220:200|220:200|307:237|275:330,1,335.999989746094,6|0,1:2|0:0,0:0:0:0:
506,150,74347,6,0,P|482:225|466:295,1,143.999995605469,6|10,1:2|0:0,0:0:0:0:
464,369,74915,1,8,0:0:0:0:
464,369,74996,6,0,P|432:362|382:362,1,64,8|0,0:3|0:0,0:0:0:0:
327,373,75239,2,0,P|295:380|245:380,1,64,4|0,0:3|0:0,0:0:0:0:
196,346,75482,1,0,1:2:0:0:
44,323,75644,6,0,P|52:345|57:368,1,47.9999985351563,6|0,1:2|0:0,0:0:0:0:
69,365,75969,2,0,P|64:342|55:320,1,47.9999985351563,2|0,0:0|0:0,0:0:0:0:
207,234,76293,6,0,P|194:266|185:302,1,71.9999978027344,2|0,1:2|0:0,0:0:0:0:
174,300,76617,2,0,P|182:265|195:231,1,71.9999978027344,2|0,0:0|0:0,0:0:0:0:
48,127,76942,6,0,P|63:171|74:218,1,95.9999970703126,2|0,1:2|0:0,0:0:0:0:
87,215,77266,2,0,P|76:168|61:123,1,95.9999970703126,2|0,0:0|0:0,0:0:0:0:
219,22,77590,6,0,P|197:77|181:135,1,120.000004577637,2|0,1:2|0:0,0:0:0:0:
170,131,77915,2,0,P|186:73|207:17,1,120.000004577637,2|0,0:0|0:0,0:0:0:0:
477,125,78239,6,0,B|407:143|407:143|384:182|384:182|292:207,1,191.999994140625,6|8,1:2|0:0,0:0:0:0:
195,343,78726,1,8,0:0:0:0:
195,333,78807,1,8,0:0:0:0:
195,324,78888,1,8,0:0:0:0:
309,159,79050,1,8,0:0:0:0:
311,180,79131,1,8,0:0:0:0:
313,202,79212,1,8,0:0:0:0:
446,375,79374,1,8,0:0:0:0:
441,336,79455,1,8,0:0:0:0:
438,301,79536,6,0,B|462:252|526:240|526:240|387:203|408:331|269:276,1,383.99998828125,2|0,0:0|0:0,0:0:0:0:
0,213,81158,6,0,P|48:213|107:305,1,143.999995605469,14|0,0:0|0:0,0:0:0:0:
102,296,81482,1,0,1:2:0:0:
122,166,81644,1,2,1:2:0:0:
14,300,81807,1,8,0:0:0:0:
202,220,81969,1,2,1:2:0:0:
202,220,82050,1,0,1:2:0:0:
202,220,82131,6,0,P|216:162|196:108,1,95.9999970703126,2|2,1:2|1:2,0:0:0:0:
66,20,82455,2,0,P|108:62|165:70,1,95.9999970703126,8|10,0:0|0:0,0:0:0:0:
220,51,82698,1,8,0:0:0:0:
222,41,82780,2,0,P|291:26|354:55,1,95.9999970703126,0|2,1:2|1:2,0:0:0:0:
392,106,83104,1,8,0:0:0:0:
346,207,83266,1,2,1:2:0:0:
334,215,83347,1,0,1:2:0:0:
322,224,83428,6,0,P|293:180|298:127,1,95.9999970703126,2|2,1:2|0:0,0:0:0:0:
392,106,83753,1,8,0:0:0:0:
463,239,83915,1,10,0:0:0:0:
463,239,83996,1,8,0:0:0:0:
462,238,84077,2,0,P|371:228|311:298,1,191.999994140625,0|8,1:2|0:0,0:0:0:0:
373,384,84563,1,2,1:2:0:0:
262,215,84726,5,10,0:0:0:0:
233,382,84888,1,2,1:2:0:0:
148,165,85050,5,10,0:0:0:0:
224,296,85212,1,2,1:2:0:0:
28,199,85374,5,8,0:0:0:0:
44,230,85455,1,8,0:0:0:0:
72,252,85536,1,10,0:0:0:0:
107,261,85617,1,8,0:0:0:0:
142,255,85698,1,8,0:0:0:0:
237,119,85861,1,10,0:0:0:0:
244,100,85942,1,8,0:0:0:0:
250,81,86023,6,0,P|208:48|140:62,1,95.9999970703126,6|0,1:2|0:0,0:0:0:0:
337,180,86347,2,0,P|386:160|408:94,1,95.9999970703126,10|0,0:0|0:0,0:0:0:0:
207,205,86671,2,0,P|199:257|245:309,1,95.9999970703126,2|0,1:2|1:2,0:0:0:0:
382,260,86996,1,10,0:0:0:0:
163,381,87158,6,0,P|228:315|319:331,1,191.999994140625,0|0,1:2|1:2,0:0:0:0:
470,235,87644,2,0,P|421:261|356:249,1,95.9999970703126,8|2,0:0|0:0,0:0:0:0:
266,99,87969,1,10,0:0:0:0:
301,105,88050,1,8,0:0:0:0:
336,111,88131,1,10,0:0:0:0:
372,117,88212,1,8,0:0:0:0:
407,124,88293,1,8,0:0:0:0:
426,18,88455,5,2,1:2:0:0:
247,205,88617,1,10,0:0:0:0:
247,205,89753,6,0,B|347:179|317:274|421:248,1,191.999994140625,6|0,1:2|1:2,0:0:0:0:
280,374,90239,2,0,B|259:327|259:327|273:252,1,95.9999970703126,8|0,0:0|1:2,0:0:0:0:
393,170,90563,1,0,1:2:0:0:
430,295,90726,5,8,0:0:0:0:
259,147,90888,1,8,0:0:0:0:
473,73,91050,1,8,0:0:0:0:
