osu file format v14

[General]
AudioFilename: audio.mp3
AudioLeadIn: 0
PreviewTime: 46077
Countdown: 0
SampleSet: Soft
StackLeniency: 0.7
Mode: 0
LetterboxInBreaks: 0
WidescreenStoryboard: 1

[Editor]
Bookmarks: 13374,18563,28942,39320,49698,70455,81158,88617
DistanceSpacing: 0.6
BeatDivisor: 6
GridSize: 4
TimelineZoom: 1.9

[Metadata]
Title:Pride Kakumei (TV Size)
TitleUnicode:プライド革命 (TV Size)
Artist:CHiCO with HoneyWorks
ArtistUnicode:CHiCO with HoneyWorks
Creator:sanairrt
Version:Shiroyasha!
Source:銀魂゜
Tags:Mocaotic frozz fzl_17 gintama gintama゜ gintoki silver soul opening 2015 anime japanese pop rock jpop j-pop jrock j-rock
BeatmapID:2562319
BeatmapSetID:1208597

[Difficulty]
HPDrainRate:5.5
CircleSize:4
OverallDifficulty:8
ApproachRate:9.2
SliderMultiplier:1.6
SliderTickRate:1

[Events]
//Background and Video events
0,0,"f smoke.jpg",0,0
Video,1581,"Video.mp4"
//Break Periods
//Storyboard Layer 0 (Background)
//Storyboard Layer 1 (Fail)
//Storyboard Layer 2 (Pass)
//Storyboard Layer 3 (Foreground)
//Storyboard Layer 4 (Overlay)
//Storyboard Sound Samples

[TimingPoints]
1699,324.324324324324,4,2,1,60,1,0
1699,-125,4,2,1,50,0,0
11266,-285.714285714286,4,2,1,50,0,0
11996,-166.666666666667,4,2,1,5,0,0
12077,-500,4,2,1,50,0,0
13293,-250,4,2,1,5,0,0
13374,-90.9090909090909,4,2,1,70,0,0
18563,-111.111111111111,4,2,1,60,0,0
28942,-125,4,2,1,50,0,0
39320,-100,4,2,1,60,0,0
47104,-250,4,2,1,60,0,0
48401,-250.000000000001,4,2,1,60,0,0
49698,-90.9090909090908,4,2,1,80,0,1
70455,-166.666666666667,4,2,1,50,0,0
71671,-166.666666666667,4,2,1,5,0,0
71753,-166.666666666667,4,2,1,50,0,0
72969,-166.666666666667,4,2,1,5,0,0
73050,-166.666666666667,4,2,1,50,0,0
74266,-166.666666666667,4,2,1,5,0,0
74347,-166.666666666667,4,2,1,50,0,0
74996,-142.857142857143,4,2,1,50,0,0
75644,-142.857142857143,4,2,1,50,0,0
81158,-83.3333333333333,4,2,1,85,0,1
88617,-90.9090909090909,4,2,1,60,0,0
89753,-90.9090909090909,4,2,1,70,0,0

[Colours]
Combo1 : 248,92,97
Combo2 : 170,170,170
Combo3 : 255,170,85

[HitObjects]
119,338,1699,6,0,P|161:334|209:330,1,64,2|2,0:0|0:0,2:0:0:0:
277,229,2023,2,0,P|235:225|187:221,1,64,0|2,2:0|0:0,2:0:0:0:
182,332,2347,1,2,0:0:0:0:
338,290,2509,2,0,P|360:244|338:167,1,128,2|0,0:0|0:0,0:0:0:0:
221,159,2996,6,0,P|214:216|210:253,1,64,2|0,0:0|0:0,0:0:0:0:
342,171,3320,2,0,P|338:139|334:107,1,64,2|0,0:0|0:0,0:0:0:0:
207,168,3644,2,0,P|200:225|196:262,1,64,2|0,0:0|0:0,0:0:0:0:
328,180,3969,2,0,P|324:148|320:116,1,64,2|0,0:0|0:0,0:0:0:0:
242,33,4293,6,0,P|191:70|110:36,1,128,2|0,0:0|0:0,0:0:0:0:
38,0,4780,1,0,0:0:0:0:
51,112,4942,2,0,P|58:164|62:204,1,64,0|0,0:0|0:0,2:0:0:0:
130,57,5266,1,2,0:0:0:0:
207,168,5428,6,0,B|268:164|268:164|279:167|279:167|356:162,1,128,2|0,0:0|0:0,0:0:0:0:
428,46,5915,2,0,P|391:43|342:40,1,64
334,163,6239,1,2,0:0:0:0:
428,46,6401,1,2,0:0:0:0:
489,160,6563,2,0,P|482:212|478:249,1,64,2|0,0:0|0:0,0:0:0:0:
354,318,6888,6,0,P|350:286|345:254,2,64,2|2|2,0:0|0:0|0:0,2:0:0:0:
334,163,7374,2,0,P|301:156|256:170,1,64,2|0,0:0|2:0,0:0:0:0:
195,254,7698,2,0,P|134:280|71:254,1,128,2|0,0:0|2:0,2:0:0:0:
143,129,8185,6,0,P|138:160|134:192,2,64,2|2|2,0:0|0:0|0:0,2:0:0:0:
79,11,8671,2,0,P|43:16|-1:23,1,64,2|0,0:0|2:0,0:0:0:0:
143,129,8996,2,0,P|201:156|272:129,1,128,2|2,0:0|0:0,2:0:0:0:
318,23,9482,6,0,P|286:18|254:13,2,64,2|2|0,0:0|0:0|0:0,2:0:0:0:
260,139,9969,1,2,0:0:0:0:
373,116,10131,2,0,P|404:111|436:106,2,64,0|2|0,0:0|0:0|0:0,2:0:0:0:
260,139,10617,6,0,P|235:199|258:267,1,128,2|2,0:0|0:0,0:0:0:0:
439,213,11266,6,0,P|386:186|315:210,1,125.999996154785,2|0,0:0|2:0,0:0:0:0:
250,256,12077,6,0,P|191:273|135:251,1,120,2|0,0:0|2:0,0:0:0:0:
25,291,13374,6,0,P|32:239|39:192,1,88.000002685547,6|0,1:2|2:0,0:0:0:0:
55,53,13698,1,8,0:0:0:0:
194,127,13861,1,2,1:2:0:0:
194,127,13942,1,8,0:0:0:0:
194,127,14023,2,0,P|237:121|281:117,1,88.000002685547,0|0,1:2|1:2,0:0:0:0:
471,38,14347,1,10,0:0:0:0:
319,116,14509,6,0,P|296:179|325:253,1,132.00000402832,6|0,1:2|2:0,0:0:0:0:
391,179,14834,1,2,1:2:0:0:
468,19,14996,2,0,P|425:-6|380:5,1,88.000002685547,8|0,0:0|1:2,0:0:0:0:
307,28,15239,1,8,0:0:0:0:
307,28,15320,2,0,P|312:71|318:115,1,88.000002685547,2|2,1:2|1:2,2:0:0:0:
132,216,15644,2,0,P|137:172|143:128,1,88.000002685547,10|8,0:0|0:0,2:0:0:0:
92,57,15888,1,8,0:0:0:0:
92,57,15969,6,0,P|133:42|189:54,1,88.000002685547,6|0,1:2|2:0,0:0:0:0:
318,115,16293,1,8,0:0:0:0:
212,230,16455,1,2,1:2:0:0:
212,230,16536,1,8,0:0:0:0:
212,230,16617,2,0,P|167:208|120:224,1,88.000002685547,0|0,1:2|1:2,0:0:0:0:
33,293,16942,1,10,0:0:0:0:
209,372,17104,6,0,P|277:365|363:357,1,132.00000402832,6|0,1:2|2:0,0:0:0:0:
429,344,17428,1,2,1:2:0:0:
306,208,17590,2,0,P|311:158|316:109,1,88.000002685547,8|0,0:0|0:0,0:0:0:0:
42,152,17915,1,10,0:0:0:0:
74,172,17996,1,8,0:0:0:0:
110,182,18077,1,10,0:0:0:0:
147,175,18158,1,8,0:0:0:0:
182,161,18239,1,10,0:0:0:0:
220,157,18320,1,8,0:0:0:0:
255,170,18401,1,8,0:0:0:0:
287,190,18482,1,8,0:0:0:0:
306,208,18563,6,0,P|301:243|297:279,1,71.9999978027344,6|2,1:2|0:0,2:0:0:0:
209,372,18888,2,0,P|204:336|200:300,1,71.9999978027344,8|2,0:0|0:0,2:0:0:0:
182,161,19212,1,2,1:2:0:0:
306,208,19374,2,0,P|363:248|443:220,1,143.999995605469,2|2,1:2|1:2,0:0:0:0:
390,90,19861,6,0,P|383:133|377:177,1,71.9999978027344,2|0,0:0|1:2,0:0:0:0:
239,161,20185,2,0,P|233:125|228:89,1,71.9999978027344,10|0,0:0|0:0,0:0:0:0:
405,66,20509,2,0,P|398:109|392:153,1,71.9999978027344,2|0,1:2|1:2,0:0:0:0:
254,137,20834,2,0,P|248:101|243:65,1,71.9999978027344,10|0,0:0|2:0,0:0:0:0:
203,225,21158,6,0,P|150:218|108:212,2,71.9999978027344,2|0|8,1:2|0:0|0:0,0:0:0:0:
254,137,21644,2,0,P|298:195|291:278,1,143.999995605469,0|0,1:2|1:2,2:0:0:0:
196,357,22131,1,10,0:0:0:0:
131,215,22293,6,0,P|142:133|152:63,1,143.999995605469,2|0,1:2|1:2,0:0:0:0:
254,137,22780,2,0,P|291:153|343:140,1,71.9999978027344,8|0,0:0|0:0,0:0:0:0:
422,104,23104,1,2,1:2:0:0:
422,104,23266,1,2,1:2:0:0:
308,4,23428,2,0,P|303:49|299:97,1,71.9999978027344,10|0,0:0|2:0,0:0:0:0:
429,175,23753,6,0,P|425:139|421:103,2,71.9999978027344,2|0|10,1:2|0:0|0:0,0:0:0:0:
471,290,24239,2,0,P|440:287|386:283,1,71.9999978027344,2|0,1:2|1:2,2:0:0:0:
203,225,24563,2,0,P|278:232|326:181,1,143.999995605469,2|0,1:2|1:2,2:0:0:0:
300,75,25050,6,0,P|249:67|217:63,2,71.9999978027344,2|2|8,0:0|1:2|0:0,2:0:0:0:
323,187,25536,2,0,P|380:181|426:177,1,71.9999978027344,2|0,0:0|1:2,0:0:0:0:
420,45,25861,2,0,P|356:29|293:97,1,143.999995605469,2|2,1:2|0:0,0:0:0:0:
229,214,26347,5,2,1:2:0:0:
110,132,26509,2,0,P|102:165|91:217,1,71.9999978027344,2|8,0:0|0:0,0:0:0:0:
38,346,26834,2,0,P|71:303|161:315,1,143.999995605469,2|2,0:0|1:2,0:0:0:0:
235,379,27320,1,8,0:0:0:0:
336,330,27482,6,0,P|329:252|321:171,1,143.999995605469,2|0,1:2|2:0,2:0:0:0:
313,100,27969,1,0,2:0:0:0:
211,186,28131,1,10,0:0:0:0:
206,195,28212,1,8,0:0:0:0:
202,204,28293,1,8,0:0:0:0:
154,308,28455,1,8,0:3:0:0:
77,243,28617,1,4,0:3:0:0:
116,149,28780,1,4,0:3:0:0:
222,235,28942,6,0,P|278:265|356:242,1,128,6|2,1:2|1:2,0:0:0:0:
440,90,29590,2,0,P|386:94|312:100,1,128,10|0,0:0|0:0,0:0:0:0:
191,55,30077,1,10,0:0:0:0:
196,64,30158,1,8,0:0:0:0:
200,73,30239,5,0,1:2:0:0:
116,149,30401,1,10,0:0:0:0:
41,53,30563,2,0,P|81:45|121:37,1,64,2|0,1:2|2:0,2:0:0:0:
178,161,30888,2,0,P|138:153|98:145,1,64,10|0,0:0|2:0,0:0:0:0:
31,276,31212,2,0,P|71:268|111:260,1,64,2|8,0:0|0:0,2:0:0:0:
160,323,31455,1,8,0:0:0:0:
160,323,31536,6,0,P|212:283|290:310,1,128,2|2,1:2|1:2,0:0:0:0:
270,292,32185,1,10,0:0:0:0:
360,379,32347,2,0,P|365:312|370:230,1,128,0|8,2:0|0:0,2:0:0:0:
377,157,32753,1,8,0:0:0:0:
377,157,32834,5,2,1:2:0:0:
258,177,32996,1,8,0:0:0:0:
455,140,33158,2,0,P|413:85|333:90,1,128,2|2,1:2|0:0,2:0:0:0:
377,157,33644,1,0,2:0:0:0:
258,177,33807,2,0,P|214:169|231:132,1,96,2|0,0:0|2:0,2:0:0:0:
228,132,34131,5,6,1:2:0:0:
172,290,34455,1,2,1:2:0:0:
105,184,34780,2,0,P|85:116|115:52,1,128,10|2,0:0|0:0,0:0:0:0:
161,0,35266,1,8,0:0:0:0:
228,132,35428,6,0,P|272:127|312:122,1,64,0|8,1:2|0:0,2:0:0:0:
399,108,35753,1,2,1:2:0:0:
342,253,36077,2,0,P|293:223|227:244,1,128,10|2,0:0|0:0,0:0:0:0:
188,322,36563,1,8,0:0:0:0:
185,331,36644,1,8,0:0:0:0:
181,340,36726,5,0,1:2:0:0:
63,276,36888,1,8,0:0:0:0:
94,371,37050,2,0,P|100:327|106:281,1,64,2|0,1:2|2:0,2:0:0:0:
221,179,37374,2,0,P|225:210|229:242,1,64,10|0,0:0|2:0,0:0:0:0:
96,103,37698,2,0,P|88:145|78:209,1,96,2|0,0:0|2:0,2:0:0:0:
63,276,38023,5,8,0:0:0:0:
221,179,38185,1,0,1:2:0:0:
96,103,38347,2,0,P|137:109|166:58,1,96,10|0,0:0|2:0,0:0:0:0:
169,38,38671,1,2,1:2:0:0:
221,179,38834,1,8,0:0:0:0:
218,189,38915,1,8,0:0:0:0:
216,200,38996,1,10,0:0:0:0:
358,250,39158,1,8,0:0:0:0:
360,239,39239,1,8,0:0:0:0:
363,229,39320,6,0,P|369:178|374:144,1,80,6|0,1:2|2:0,0:0:0:0:
398,29,39644,1,8,0:0:0:0:
295,103,39807,2,0,P|232:124|165:64,1,160,0|0,0:0|0:0,2:0:0:0:
90,175,40293,1,8,0:0:0:0:
166,68,40455,1,0,0:0:0:0:
64,21,40617,2,0,P|22:33|-6:83,1,80,0|0,1:2|0:0,0:0:0:0:
137,244,40942,6,0,P|142:204|148:164,1,80,10|0,0:0|0:0,0:0:0:0:
283,23,41266,2,0,P|289:62|294:102,1,80,2|0,1:2|0:0,0:0:0:0:
428,243,41590,2,0,P|434:203|440:164,1,80,10|0,0:0|0:0,0:0:0:0:
326,345,41915,6,0,P|276:292|179:326,1,160,2|8,1:2|0:0,0:0:0:0:
110,384,42401,1,0,0:0:0:0:
208,226,42563,2,0,P|202:265|196:305,1,80,2|0,1:2|0:0,0:0:0:0:
48,217,42888,2,0,P|41:177|28:95,1,120,10|0,0:0|2:0,0:0:0:0:
16,22,43212,5,2,1:2:0:0:
156,131,43374,1,8,0:0:0:0:
185,126,43455,1,8,0:0:0:0:
214,121,43536,1,8,0:3:0:0:
301,40,43698,5,10,0:3:0:0:
317,42,43780,1,8,0:3:0:0:
334,44,43861,1,8,0:3:0:0:
429,55,44023,1,0,2:0:0:0:
486,180,44185,6,0,P|428:173|397:222,1,120,10|0,0:0|0:0,0:0:0:0:
407,303,44509,5,6,1:2:0:0:
303,196,44671,1,0,2:0:0:0:
267,376,44834,1,8,0:0:0:0:
397,219,44996,1,0,1:2:0:0:
397,219,45077,1,8,0:0:0:0:
397,219,45158,1,0,1:2:0:0:
267,376,45320,2,0,P|261:329|254:285,1,80,0|8,1:2|0:0,2:0:0:0:
136,165,45644,1,0,1:2:0:0:
136,165,45726,1,8,0:0:0:0:
136,165,45807,6,0,P|129:204|125:244,1,80,0|0,1:2|2:0,0:0:0:0:
304,231,46131,2,0,P|268:215|212:225,1,80,10|0,0:0|0:0,0:0:0:0:
104,361,46455,2,0,P|143:363|179:347,1,80,2|0,1:2|1:2,0:0:0:0:
304,231,46780,1,10,0:0:0:0:
153,139,46942,1,0,1:2:0:0:
153,139,47023,1,8,0:0:0:0:
153,139,47104,6,0,P|70:162|81:28,1,256,6|0,1:2|0:0,0:0:0:0:
285,124,49698,6,0,P|210:134|177:139,1,88.000002685547,6|0,1:2|2:0,0:0:0:0:
111,29,50023,1,10,0:0:0:0:
27,179,50185,1,2,0:0:0:0:
27,179,50266,1,8,0:0:0:0:
27,179,50347,1,0,1:2:0:0:
197,135,50509,2,0,P|190:85|179:27,1,88.000002685547,2|8,1:2|0:0,2:0:0:0:
27,179,50834,1,2,1:2:0:0:
142,297,50996,6,0,P|192:287|244:278,1,88.000002685547,2|2,0:0|1:2,2:0:0:0:
359,248,51320,1,10,0:0:0:0:
285,124,51482,1,2,0:0:0:0:
285,124,51563,1,8,0:0:0:0:
285,124,51644,1,0,1:2:0:0:
228,280,51807,2,0,P|216:328|227:377,1,88.000002685547,2|8,1:2|0:0,2:0:0:0:
421,206,52131,1,10,0:0:0:0:
421,206,52212,1,8,0:0:0:0:
421,206,52293,6,0,P|391:181|335:178,1,88.000002685547,2|2,1:2|2:0,0:0:0:0:
228,280,52617,1,8,0:0:0:0:
144,147,52780,2,0,L|156:81,1,44.0000013427735,2|8,0:0|0:0,2:0:0:0:
172,19,52942,1,0,1:2:0:0:
81,203,53104,2,0,P|124:231|169:226,1,88.000002685547,2|8,1:2|0:0,2:0:0:0:
285,124,53428,1,2,1:2:0:0:
172,19,53590,5,2,0:0:0:0:
30,89,53753,1,2,1:2:0:0:
285,124,53915,1,10,0:0:0:0:
159,229,54077,1,2,0:0:0:0:
159,229,54158,1,8,0:0:0:0:
159,229,54239,1,0,1:2:0:0:
264,35,54401,2,0,P|315:44|367:52,1,88.000002685547,2|8,1:2|0:0,2:0:0:0:
506,0,54726,1,10,0:0:0:0:
506,0,54807,1,8,0:0:0:0:
506,0,54888,6,0,P|487:43|499:96,1,88.000002685547,6|0,1:2|2:0,0:0:0:0:
357,258,55212,2,0,P|361:214|343:175,1,88.000002685547,10|0,0:0|0:0,2:0:0:0:
320,149,55455,1,8,0:0:0:0:
320,149,55536,1,2,1:2:0:0:
228,280,55698,1,0,1:2:0:0:
144,147,55861,1,8,0:0:0:0:
222,365,56023,6,0,B|315:357|422:350|422:350,1,176.000005371094,0|0,1:2|1:2,0:0:0:0:
512,193,56509,1,8,0:0:0:0:
357,258,56671,1,2,0:0:0:0:
357,258,56753,1,8,0:0:0:0:
357,258,56834,1,2,1:2:0:0:
248,121,56996,2,0,B|256:78|264:32|264:32,1,88.000002685547,2|8,1:2|0:0,2:0:0:0:
81,203,57320,1,10,0:0:0:0:
81,203,57401,1,8,0:0:0:0:
81,203,57482,6,0,B|89:249|97:292,1,88.000002685547,2|0,1:2|2:0,0:0:0:0:
374,182,57807,2,0,B|381:141|389:95,1,88.000002685547,8|0,0:0|0:0,2:0:0:0:
317,259,58050,1,8,0:0:0:0:
317,259,58131,2,0,P|362:280|422:264,1,88.000002685547,2|0,1:2|1:2,0:0:0:0:
161,136,58455,2,0,P|116:115|56:131,1,88.000002685547,10|0,0:0|1:2,0:0:0:0:
107,321,58780,5,12,0:0:0:0:
161,136,58942,1,0,1:2:0:0:
317,259,59104,2,0,B|298:288|306:316|306:316|313:328|313:328|321:357|304:384,1,132.00000402832,10|0,0:0|2:0,2:0:0:0:
235,347,59428,1,10,0:3:0:0:
428,252,59590,1,8,0:0:0:0:
420,208,59671,1,8,0:0:0:0:
412,165,59753,1,10,0:0:0:0:
282,67,59915,1,8,0:0:0:0:
274,110,59996,1,8,0:0:0:0:
266,154,60077,5,6,1:2:0:0:
81,203,60239,1,0,2:0:0:0:
317,259,60401,1,8,0:0:0:0:
161,136,60563,1,2,0:0:0:0:
161,136,60644,1,8,0:0:0:0:
161,136,60726,1,0,1:2:0:0:
107,321,60888,2,0,P|175:315|224:311,1,88.000002685547,2|8,1:2|0:0,2:0:0:0:
282,195,61212,1,2,1:2:0:0:
146,49,61374,6,0,P|154:97|163:154,1,88.000002685547,2|2,0:0|1:2,2:0:0:0:
194,313,61698,1,8,0:0:0:0:
319,170,61861,2,0,P|314:143|308:110,1,44.0000013427735,2|8,0:0|0:0,2:0:0:0:
287,35,62023,1,0,1:2:0:0:
272,240,62185,2,0,P|335:257|375:235,1,88.000002685547,2|8,1:2|0:0,2:0:0:0:
496,168,62509,1,10,0:0:0:0:
496,168,62590,1,8,0:0:0:0:
496,168,62671,5,2,1:2:0:0:
363,337,62834,2,0,B|358:290|353:245,1,88.000002685547,2|8,2:0|0:0,2:0:0:0:
237,112,63158,1,2,0:0:0:0:
237,112,63239,1,8,0:0:0:0:
237,112,63320,1,0,1:2:0:0:
116,233,63482,2,0,B|111:273|106:320,1,88.000002685547,2|8,1:2|0:0,2:0:0:0:
272,240,63807,1,2,1:2:0:0:
119,103,63969,5,2,0:0:0:0:
272,240,64131,1,2,1:2:0:0:
322,38,64293,1,10,0:0:0:0:
159,240,64455,2,0,L|79:226,1,44.0000013427735,2|8,0:0|0:0,2:0:0:0:
15,215,64617,1,0,1:2:0:0:
224,24,64780,2,0,P|231:72|240:133,1,88.000002685547,2|8,1:2|0:0,2:0:0:0:
398,247,65104,1,10,0:0:0:0:
398,247,65185,1,8,0:0:0:0:
398,247,65266,6,0,P|404:203|410:159,1,88.000002685547,6|0,1:2|2:0,0:0:0:0:
307,31,65590,2,0,P|267:16|209:32,1,88.000002685547,8|0,0:0|0:0,2:0:0:0:
193,36,65834,1,8,0:0:0:0:
193,36,65915,1,2,1:2:0:0:
256,213,66077,1,0,1:2:0:0:
307,31,66239,1,10,0:0:0:0:
149,145,66401,1,0,1:2:0:0:
410,159,66563,6,0,P|403:115|397:71,1,88.000002685547,2|0,2:0|1:2,2:0:0:0:
256,213,66888,1,8,0:0:0:0:
433,279,67050,1,2,0:0:0:0:
433,279,67131,1,8,0:0:0:0:
433,279,67212,1,2,1:2:0:0:
304,135,67374,1,2,1:2:0:0:
204,298,67536,1,8,0:0:0:0:
70,150,67698,1,2,0:0:0:0:
256,213,67861,5,10,0:3:0:0:
84,63,68023,1,8,0:0:0:0:
77,106,68104,1,8,0:0:0:0:
70,150,68185,1,10,0:0:0:0:
46,293,68347,1,0,1:2:0:0:
256,213,68509,5,10,0:0:0:0:
252,169,68590,1,8,0:0:0:0:
248,125,68671,1,8,0:0:0:0:
245,81,68753,1,8,2:0:0:0:
241,37,68834,1,10,0:0:0:0:
70,150,68996,2,0,L|58:225,1,44.0000013427735,8|8,0:0|2:0,2:0:0:0:
89,274,69158,5,8,0:0:0:0:
128,284,69266,1,8,0:0:0:0:
166,270,69374,1,8,0:0:0:0:
214,196,69482,5,8,0:0:0:0:
252,169,69590,1,8,0:3:0:0:
298,168,69698,1,8,0:3:0:0:
358,232,69807,5,8,0:3:0:0:
407,249,69915,1,8,0:3:0:0:
457,236,70023,1,4,0:3:0:0:
495,160,70131,5,4,0:3:0:0:
479,105,70239,1,4,0:3:0:0:
428,80,70347,1,4,0:3:0:0:
374,101,70455,6,0,B|311:130|256:81|256:81|213:115|213:115|146:82|78:120|66:185,1,359.999989013672,6|0,1:2|2:0,0:0:0:0:
128,280,71753,6,0,B|199:221|329:298|231:339|363:416|446:366,1,359.999989013672,6|0,1:2|2:0,0:0:0:0:
384,280,73050,6,0,B|312:221|183:298|281:339|149:416|66:366,1,359.999989013672,6|0,1:2|2:0,0:0:0:0:
54,267,74347,6,0,P|61:221|71:160,1,95.9999970703126,6|0,1:2|2:0,0:0:0:0:
41,42,74834,1,10,0:0:0:0:
64,46,74915,1,8,0:0:0:0:
88,50,74996,2,0,P|137:45|191:40,2,83.9999974365235,8|4|0,0:3|0:3|1:2,0:0:0:0:
68,172,75644,5,6,1:2:0:0:
68,172,75969,1,2,0:0:0:0:
132,290,76293,5,2,1:2:0:0:
132,290,76617,1,2,0:0:0:0:
196,172,76942,5,2,1:2:0:0:
196,172,77266,1,2,0:0:0:0:
260,290,77590,5,2,1:2:0:0:
260,290,77915,1,2,0:0:0:0:
324,172,78239,5,6,1:2:0:0:
324,172,78563,1,8,0:0:0:0:
388,290,78726,5,8,0:0:0:0:
415,285,78807,1,8,0:0:0:0:
443,280,78888,1,8,0:0:0:0:
324,172,79050,5,8,0:0:0:0:
296,167,79131,1,8,0:0:0:0:
268,162,79212,1,8,0:0:0:0:
388,54,79374,5,8,0:0:0:0:
416,49,79455,1,8,0:0:0:0:
444,44,79536,1,2,0:0:0:0:
256,192,79617,12,0,80834,0:0:0:0:
268,162,81158,6,0,P|260:102|253:52,1,95.9999970703126,14|2,0:0|2:0,0:0:0:0:
132,290,81482,1,0,1:2:0:0:
323,339,81644,1,2,1:2:0:0:
159,175,81807,1,8,0:0:0:0:
218,367,81969,1,2,1:2:0:0:
349,188,82131,6,0,P|357:128|364:78,1,95.9999970703126,2|2,1:2|1:2,0:0:0:0:
323,339,82455,1,8,0:0:0:0:
179,201,82617,1,2,0:0:0:0:
179,201,82698,1,8,0:0:0:0:
179,201,82780,1,0,1:2:0:0:
336,89,82942,2,0,P|389:96|443:103,1,95.9999970703126,2|8,2:0|0:0,2:0:0:0:
224,69,83266,1,2,1:2:0:0:
344,221,83428,5,2,1:2:0:0:
132,290,83590,2,0,P|124:230|117:180,1,95.9999970703126,2|8,0:0|0:0,2:0:0:0:
351,173,83915,2,0,L|342:233,1,47.9999985351563,2|8,0:0|0:0,2:0:0:0:
328,323,84077,1,0,1:2:0:0:
287,128,84239,2,0,P|323:98|388:104,1,95.9999970703126,2|8,1:2|0:0,2:0:0:0:
512,192,84563,1,2,1:2:0:0:
287,128,84726,5,10,0:0:0:0:
512,192,84888,1,2,1:2:0:0:
213,318,85050,5,10,0:0:0:0:
445,237,85212,1,2,1:2:0:0:
214,62,85374,5,8,0:0:0:0:
194,91,85455,1,8,0:0:0:0:
187,125,85536,1,10,0:0:0:0:
192,160,85617,1,8,0:0:0:0:
211,190,85698,1,8,0:0:0:0:
230,219,85780,1,8,2:0:0:0:
237,253,85861,1,10,0:0:0:0:
232,288,85942,1,8,0:0:0:0:
213,318,86023,6,0,P|154:312|101:308,1,95.9999970703126,6|0,1:2|0:0,0:0:0:0:
287,128,86347,2,0,P|346:122|399:118,1,95.9999970703126,10|0,0:0|1:2,0:0:0:0:
415,114,86590,1,0,1:2:0:0:
415,114,86671,1,2,1:2:0:0:
214,62,86834,1,0,1:2:0:0:
307,221,86996,1,10,0:0:0:0:
383,32,87158,1,0,1:2:0:0:
445,237,87320,6,0,P|436:299|429:355,1,95.9999970703126,0|0,2:0|1:2,2:0:0:0:
205,255,87644,2,0,P|198:207|191:159,1,95.9999970703126,8|2,0:0|0:0,0:0:0:0:
136,102,87888,1,0,2:0:0:0:
136,102,87969,2,0,P|116:126|116:159,1,47.9999985351563,10|8,0:0|0:0,2:0:0:0:
34,137,88131,2,0,P|34:168|55:193,1,47.9999985351563,10|8,0:0|0:0,2:0:0:0:
110,268,88293,1,8,0:0:0:0:
157,261,88374,1,8,2:0:0:0:
205,255,88455,1,2,1:2:0:0:
252,249,88536,1,0,1:2:0:0:
300,242,88617,5,10,0:0:0:0:
300,242,89753,6,0,P|289:161|272:44,1,176.000005371094,6|0,1:2|1:2,0:0:0:0:
113,141,90239,1,8,0:0:0:0:
300,242,90401,1,0,1:2:0:0:
275,67,90563,1,0,1:2:0:0:
157,261,90726,1,8,0:0:0:0:
195,21,90888,1,8,0:0:0:0:
317,274,91050,1,8,0:0:0:0:
