osu file format v14

[General]
AudioFilename: audio.mp3
AudioLeadIn: 0
PreviewTime: 46077
Countdown: 0
SampleSet: Soft
StackLeniency: 0.7
Mode: 0
LetterboxInBreaks: 0
WidescreenStoryboard: 1

[Editor]
Bookmarks: 13374,18563,28942,39320,49698,70455,81158,88617
DistanceSpacing: 1
BeatDivisor: 4
GridSize: 4
TimelineZoom: 1.9

[Metadata]
Title:Pride Kakumei (TV Size)
TitleUnicode:プライド革命 (TV Size)
Artist:CHiCO with HoneyWorks
ArtistUnicode:CHiCO with HoneyWorks
Creator:sanairrt
Version:Mocaotic's Normal
Source:銀魂゜
Tags:Mocaotic frozz fzl_17 gintama gintama゜ gintoki silver soul opening 2015 anime japanese pop rock jpop j-pop jrock j-rock
BeatmapID:2516638
BeatmapSetID:1208597

[Difficulty]
HPDrainRate:3
CircleSize:3.4
OverallDifficulty:4
ApproachRate:5
SliderMultiplier:0.98
SliderTickRate:1

[Events]
//Background and Video events
0,0,"f smoke.jpg",0,0
Video,1581,"Video.mp4"
//Break Periods
//Storyboard Layer 0 (Background)
//Storyboard Layer 1 (Fail)
//Storyboard Layer 2 (Pass)
//Storyboard Layer 3 (Foreground)
//Storyboard Layer 4 (Overlay)
//Storyboard Sound Samples

[TimingPoints]
1699,324.324324324324,4,2,1,60,1,0
1699,-105.263157894737,4,2,1,50,0,0
13374,-100,4,2,1,70,0,0
18563,-100,4,2,1,60,0,0
28942,-105.263157894737,4,2,1,50,0,0
39320,-100,4,2,1,50,0,0
49698,-95.2380952380952,4,2,1,80,0,1
70455,-100,4,2,1,50,0,0
81158,-95.2380952380952,4,2,1,85,0,1
88617,-100,4,2,1,60,0,0
89753,-100,4,2,1,70,0,0

[Colours]
Combo1 : 248,92,97
Combo2 : 170,170,170
Combo3 : 255,170,85

[HitObjects]
0,66,1699,6,0,P|48:61|90:83,1,93.0999975139619,2|0,0:0|2:0,2:0:0:0:
160,137,2347,2,0,L|228:130,1,46.5499987569809,2|2,0:0|0:0,0:0:0:0:
292,91,2834,1,0,0:0:0:0:
292,91,2996,2,0,P|301:6|308:-15,2,93.0999975139619,2|2|2,0:0|0:0|0:0,0:0:0:0:
368,143,3969,1,2,0:0:0:0:
304,211,4293,6,0,P|253:196|192:298,1,186.199995027924,2|0,0:0|0:0,0:0:0:0:
251,369,5266,1,2,0:0:0:0:
251,369,5428,2,0,L|349:362,1,93.0999975139619,2|0,0:0|0:0,0:0:0:0:
390,360,5915,1,0,0:0:0:0:
465,305,6239,2,0,L|526:302,2,46.5499987569809,2|2|2,0:0|0:0|0:0,0:0:0:0:
402,235,6888,6,0,L|399:174,2,46.5499987569809,2|2|2,0:0|0:0|0:0,2:0:0:0:
372,270,7374,2,0,L|268:265,1,93.0999975139619,2|2,0:0|0:0,0:0:0:0:
208,145,8185,2,0,L|211:84,2,46.5499987569809,2|2|2,0:0|0:0|0:0,2:0:0:0:
238,180,8671,2,0,L|342:175,1,93.0999975139619,2|2,0:0|0:0,0:0:0:0:
401,113,9320,1,2,0:0:0:0:
401,113,9482,6,0,L|395:54,1,46.5499987569809,2|2,0:0|0:0,2:0:0:0:
313,24,9969,2,0,P|273:22|228:65,1,93.0999975139619,2|2,0:0|0:0,0:0:0:0:
169,121,10617,2,0,L|180:230,1,93.0999975139619,2|2,0:0|0:0,0:0:0:0:
255,265,11266,2,0,P|266:313|127:337,1,232.749993784905,2|2,0:0|0:0,0:0:0:0:
130,342,13374,6,0,P|92:337|70:341,2,49,6|0|8,1:2|2:0|0:0,0:0:0:0:
173,319,13861,2,0,L|179:212,1,98,2|0,1:2|1:2,2:0:0:0:
186,176,14347,1,10,0:0:0:0:
186,176,14509,1,6,1:2:0:0:
241,95,14834,2,0,P|279:90|301:94,2,49,2|8|0,1:2|0:0|1:2,2:0:0:0:
203,63,15320,2,0,L|134:59,1,49,2|2,1:2|1:2,2:0:0:0:
105,55,15644,1,10,0:0:0:0:
23,110,15969,6,0,L|16:53,2,49,6|0|8,1:2|2:0|0:0,0:0:0:0:
46,153,16455,2,0,P|99:143|146:168,1,98,2|0,1:2|1:2,2:0:0:0:
178,196,16942,1,10,0:0:0:0:
178,196,17104,1,6,1:2:0:0:
241,270,17428,2,0,L|235:328,2,49,2|8|0,1:2|0:0|0:0,2:0:0:0:
274,234,17915,2,0,P|311:227|340:233,1,49,10|10,0:0|0:0,0:0:0:0:
366,247,18239,1,10,0:0:0:0:
452,201,18563,6,0,L|462:86,1,98,6|8,1:2|0:0,2:0:0:0:
410,18,19212,2,0,P|341:21|315:44,1,98,2|8,1:2|0:0,0:0:0:0:
296,81,19698,1,2,1:2:0:0:
296,81,19861,2,0,L|183:75,1,98,2|10,0:0|0:0,0:0:0:0:
114,127,20509,2,0,P|102:185|126:235,1,98,2|10,1:2|0:0,0:0:0:0:
204,259,21158,6,0,P|252:233|310:233,2,98,2|8|0,1:2|0:0|1:2,0:0:0:0:
147,340,22131,1,10,0:0:0:0:
147,340,22293,2,0,P|103:352|53:329,1,98,2|0,1:2|1:2,0:0:0:0:
30,290,22780,1,8,0:0:0:0:
22,192,23104,2,0,L|16:77,1,98,2|10,1:2|0:0,0:0:0:0:
112,69,23753,6,0,L|108:2,2,49,2|0|10,1:2|0:0|0:0,0:0:0:0:
143,106,24239,2,0,P|196:114|249:93,1,98,2|2,1:2|1:2,2:0:0:0:
274,67,24726,1,8,0:0:0:0:
359,114,25050,2,0,L|428:106,2,49,2|2|8,0:0|1:2|0:0,2:0:0:0:
324,148,25536,2,0,P|313:209|332:252,1,98,2|2,0:0|1:2,0:0:0:0:
362,273,26023,1,8,0:0:0:0:
300,349,26347,6,0,L|198:355,1,98,2|8,1:2|0:0,0:0:0:0:
159,332,26834,2,0,P|146:291|171:222,1,98,2|2,0:0|1:2,0:0:0:0:
192,204,27320,1,8,0:0:0:0:
192,204,27482,1,2,1:2:0:0:
17,127,28131,1,10,0:0:0:0:
17,127,28293,2,0,L|23:190,1,49,8|8,0:0|0:3,0:0:0:0:
47,217,28617,2,0,L|41:280,1,49,4|4,0:3|0:3,0:0:0:0:
22,308,28942,6,0,P|47:344|107:356,1,93.0999975139619,6|2,1:2|1:2,0:0:0:0:
169,306,29590,2,0,L|161:198,1,93.0999975139619,10|0,0:0|0:0,0:0:0:0:
158,166,30077,1,10,0:0:0:0:
203,84,30401,2,0,P|260:66|308:83,1,93.0999975139619,10|0,0:0|2:0,0:0:0:0:
328,102,30888,2,0,L|332:157,2,46.5499987569809,10|0|2,0:0|2:0|0:0,0:0:0:0:
389,32,31536,6,0,P|448:45|472:86,1,93.0999975139619,2|2,1:2|1:2,0:0:0:0:
511,156,32185,1,10,0:0:0:0:
511,156,32347,2,0,L|507:259,1,93.0999975139619,0|8,2:0|0:0,2:0:0:0:
502,295,32834,1,2,1:2:0:0:
435,359,33158,1,2,1:2:0:0:
358,305,33482,2,0,L|304:303,2,46.5499987569809,2|0|2,0:0|2:0|0:0,0:0:0:0:
395,219,34131,6,0,L|385:122,1,93.0999975139619,6|2,1:2|1:2,0:0:0:0:
309,72,34780,2,0,P|259:67|213:95,1,93.0999975139619,10|2,0:0|0:0,0:0:0:0:
192,121,35266,1,8,0:0:0:0:
192,121,35428,1,0,1:2:0:0:
141,199,35753,2,0,L|29:185,2,93.0999975139619,2|10|2,1:2|0:0|0:0,0:0:0:0:
184,228,36563,1,8,0:0:0:0:
184,228,36726,5,0,1:2:0:0:
246,297,37050,2,0,L|358:283,2,93.0999975139619,2|10|2,1:2|0:0|0:0,2:0:0:0:
211,327,37861,1,0,1:2:0:0:
211,327,38023,1,8,0:0:0:0:
130,280,38347,1,10,0:0:0:0:
164,193,38671,1,2,1:2:0:0:
256,205,38996,2,0,L|321:199,1,46.5499987569809,10|8,0:0|0:0,0:0:0:0:
348,216,39320,6,0,P|359:263|329:326,1,98,6|8,1:2|0:0,0:0:0:0:
260,361,39969,2,0,L|153:357,1,98,0|8,1:2|0:0,0:0:0:0:
64,350,40617,1,0,1:2:0:0:
41,255,40942,1,10,0:0:0:0:
124,203,41266,1,2,1:2:0:0:
199,265,41590,1,10,0:0:0:0:
281,212,41915,6,0,L|287:94,1,98,2|8,1:2|0:0,0:0:0:0:
234,31,42563,1,2,1:2:0:0:
142,65,42888,1,10,0:0:0:0:
166,164,43212,1,2,1:2:0:0:
166,164,43374,2,0,L|175:234,1,49,8|8,0:0|0:3,0:0:0:0:
184,259,43698,2,0,P|241:265|287:238,1,98,10|0,0:3|2:0,0:0:0:0:
311,212,44185,1,10,0:0:0:0:
399,254,44509,6,0,L|408:360,2,98,6|8|0,1:2|0:0|1:2,0:0:0:0:
417,210,45320,1,0,1:2:0:0:
417,210,45482,1,8,0:0:0:0:
354,133,45807,1,0,1:2:0:0:
269,182,46131,1,10,0:0:0:0:
196,116,46455,1,2,1:2:0:0:
235,26,46780,2,0,L|297:32,1,49,10|0,0:0|1:2,0:0:0:0:
333,36,47104,5,6,1:2:0:0:
256,192,47266,12,0,48401,0:0:0:0:
511,116,49698,6,0,L|460:112,1,51.4499984298707,6|0,1:2|2:0,0:0:0:0:
412,110,50023,1,10,0:0:0:0:
412,110,50185,2,0,P|391:158|407:212,1,102.899996859741,2|2,0:0|1:2,0:0:0:0:
432,247,50671,1,8,0:0:0:0:
338,291,50996,2,0,L|287:295,1,51.4499984298707,2|2,0:0|1:2,2:0:0:0:
239,297,51320,1,10,0:0:0:0:
239,297,51482,2,0,P|218:249|234:195,1,102.899996859741,2|2,0:0|1:2,0:0:0:0:
259,160,51969,1,8,0:0:0:0:
190,91,52293,5,2,1:2:0:0:
190,91,52455,2,0,P|159:87|120:100,1,51.4499984298707,2|8,2:0|0:0,0:0:0:0:
96,119,52780,2,0,L|107:238,1,102.899996859741,2|2,0:0|1:2,2:0:0:0:
111,272,53266,1,8,0:0:0:0:
49,354,53590,2,0,P|2:342|-20:345,2,51.4499984298707,2|2|10,0:0|1:2|0:0,0:0:0:0:
96,375,54077,2,0,L|204:361,1,102.899996859741,2|2,0:0|1:2,0:0:0:0:
249,356,54563,1,8,0:0:0:0:
305,269,54888,5,6,1:2:0:0:
393,320,55212,1,10,0:0:0:0:
469,252,55536,1,2,1:2:0:0:
428,159,55861,1,8,0:0:0:0:
428,159,56023,2,0,L|311:175,1,102.899996859741,0|0,1:2|1:2,0:0:0:0:
275,182,56509,1,8,0:0:0:0:
173,163,56834,2,0,L|167:106,2,51.4499984298707,2|2|8,1:2|1:2|0:0,0:0:0:0:
136,199,57320,1,10,0:0:0:0:
136,199,57482,5,2,1:2:0:0:
214,265,57807,1,8,0:0:0:0:
176,359,58131,1,2,1:2:0:0:
74,351,58455,2,0,L|56:283,1,51.4499984298707,10|0,0:0|1:2,0:0:0:0:
47,251,58780,2,0,L|96:201,1,51.4499984298707,12|0,0:0|1:2,0:0:0:0:
121,180,59104,1,10,0:0:0:0:
208,233,59428,1,10,0:3:0:0:
281,161,59753,1,10,0:0:0:0:
228,72,60077,6,0,P|197:69|171:79,1,51.4499984298707,6|0,1:2|2:0,0:0:0:0:
136,102,60401,1,8,0:0:0:0:
136,102,60563,2,0,L|145:215,1,102.899996859741,2|2,0:0|1:2,0:0:0:0:
150,255,61050,1,8,0:0:0:0:
235,312,61374,2,0,P|266:315|292:305,1,51.4499984298707,2|2,0:0|1:2,2:0:0:0:
327,282,61698,1,8,0:0:0:0:
327,282,61861,2,0,L|318:169,1,102.899996859741,2|2,0:0|1:2,2:0:0:0:
316,127,62347,1,8,0:0:0:0:
405,73,62671,5,2,1:2:0:0:
405,73,62834,2,0,P|436:70|462:80,1,51.4499984298707,2|8,2:0|0:0,2:0:0:0:
497,104,63158,2,0,L|490:215,1,102.899996859741,2|2,0:0|1:2,0:0:0:0:
484,258,63644,1,8,0:0:0:0:
406,326,63969,2,0,L|349:330,1,51.4499984298707,2|2,0:0|1:2,0:0:0:0:
311,354,64293,1,10,0:0:0:0:
311,354,64455,2,0,L|199:345,1,102.899996859741,2|2,0:0|1:2,2:0:0:0:
156,341,64942,1,8,0:0:0:0:
88,263,65266,5,6,1:2:0:0:
167,198,65590,1,8,0:0:0:0:
98,120,65915,1,2,1:2:0:0:
179,57,66239,1,10,0:0:0:0:
179,57,66401,2,0,P|231:63|281:38,1,102.899996859741,0|0,1:2|1:2,0:0:0:0:
305,0,66888,1,8,0:0:0:0:
395,48,67212,2,0,L|453:50,2,51.4499984298707,2|2|8,1:2|1:2|0:0,0:0:0:0:
361,87,67698,1,2,0:0:0:0:
361,87,67861,5,10,0:3:0:0:
423,168,68185,1,10,0:0:0:0:
340,228,68509,2,0,L|274:225,1,51.4499984298707,10|8,0:0|0:0,0:0:0:0:
237,221,68834,1,10,0:0:0:0:
192,128,69158,2,0,L|125:135,1,51.4499984298707,8|8,0:0|0:0,2:0:0:0:
89,138,69482,2,0,P|81:186|106:252,2,102.899996859741,8|8|4,0:0|0:3|0:3,2:0:0:0:
30,57,70455,6,0,B|144:44|144:44|189:14|189:14|330:3,1,294,6|0,1:2|0:0,0:0:0:0:
400,50,71753,2,0,P|416:161|272:141,1,294,6|0,1:2|0:0,0:0:0:0:
196,90,73050,2,0,B|149:132|73:119|73:119|28:205|88:274,1,294,6|0,1:2|0:0,0:0:0:0:
174,312,74347,2,0,B|269:307|231:362|320:360,1,147,6|10,1:2|0:0,0:0:0:0:
349,333,74996,2,0,B|403:329|403:329|430:344,2,73.5,8|4|0,0:3|0:3|1:2,0:0:0:0:
328,288,75644,6,0,P|318:233|334:182,1,98,6|2,1:2|0:0,0:0:0:0:
412,143,76293,2,0,P|418:94|403:48,1,98,2|2,1:2|0:0,0:0:0:0:
314,7,76942,2,0,L|194:19,1,98,2|2,1:2|0:0,0:0:0:0:
171,103,77590,2,0,L|291:115,1,98,2|2,1:2|0:0,0:0:0:0:
362,85,78239,5,6,1:2:0:0:
425,162,78563,2,0,L|417:225,1,49,8|8,0:0|0:0,0:0:0:0:
404,257,78888,2,0,L|345:281,1,49,8|8,0:0|0:0,0:0:0:0:
311,286,79212,2,0,L|260:247,1,49,8|8,0:0|0:0,0:0:0:0:
232,227,79536,1,2,0:0:0:0:
136,251,79861,2,0,P|126:310|149:364,2,98,2|2|2,0:0|0:0|0:0,0:0:0:0:
66,57,81158,5,14,0:0:0:0:
66,57,81320,2,0,P|144:61|182:40,1,102.899996859741,2|2,2:0|1:2,0:0:0:0:
205,19,81807,1,8,0:0:0:0:
283,85,82131,2,0,L|280:160,1,51.4499984298707,2|2,1:2|1:2,0:0:0:0:
277,191,82455,1,8,0:0:0:0:
277,191,82617,2,0,P|199:195|161:174,1,102.899996859741,2|2,0:0|2:0,0:0:0:0:
138,153,83104,1,8,0:0:0:0:
67,227,83428,5,2,1:2:0:0:
67,227,83590,2,0,L|69:278,1,51.4499984298707,2|8,0:0|0:0,2:0:0:0:
72,329,83915,2,0,P|150:333|188:312,1,102.899996859741,2|2,0:0|1:2,2:0:0:0:
213,294,84401,1,8,0:0:0:0:
300,347,84726,2,0,L|353:342,1,51.4499984298707,10|2,0:0|1:2,0:0:0:0:
402,337,85050,2,0,L|424:288,1,51.4499984298707,10|2,0:0|1:2,0:0:0:0:
444,243,85374,2,0,L|413:199,1,51.4499984298707,8|10,0:0|0:0,0:3:0:0:
380,162,85698,1,8,0:0:0:0:
292,217,86023,5,6,1:2:0:0:
212,150,86347,1,10,0:0:0:0:
124,206,86671,1,2,1:2:0:0:
150,306,86996,1,10,0:0:0:0:
150,306,87158,2,0,L|258:296,1,102.899996859741,0|0,1:2|1:2,0:0:0:0:
303,294,87644,1,8,0:0:0:0:
356,206,87969,2,0,L|350:139,1,51.4499984298707,10|10,0:0|0:0,2:0:0:0:
345,103,88293,2,0,L|296:67,1,51.4499984298707,8|2,0:0|1:2,0:0:0:0:
260,41,88617,5,10,0:0:0:0:
260,41,89753,2,0,P|219:43|175:94,1,98,6|0,1:2|1:2,0:0:0:0:
163,127,90239,1,8,0:0:0:0:
105,207,90563,1,0,1:2:0:0:
105,207,90726,2,0,L|42:199,1,49,8|8,0:0|0:0,0:0:0:0:
7,194,91050,1,8,0:0:0:0:
