osu file format v14

[General]
AudioFilename: audio.mp3
AudioLeadIn: 0
PreviewTime: 46077
Countdown: 0
SampleSet: Soft
StackLeniency: 0.7
Mode: 0
LetterboxInBreaks: 0
WidescreenStoryboard: 1

[Editor]
Bookmarks: 13374,18563,28942,39320,49698,70455,81158,88617
DistanceSpacing: 1.4
BeatDivisor: 4
GridSize: 4
TimelineZoom: 1.9

[Metadata]
Title:Pride Kakumei (TV Size)
TitleUnicode:プライド革命 (TV Size)
Artist:CHiCO with HoneyWorks
ArtistUnicode:CHiCO with HoneyWorks
Creator:sanairrt
Version:Hard
Source:銀魂゜
Tags:Mocaotic frozz fzl_17 gintama gintama゜ gintoki silver soul opening 2015 anime japanese pop rock jpop j-pop jrock j-rock
BeatmapID:2623006
BeatmapSetID:1208597

[Difficulty]
HPDrainRate:5
CircleSize:3.8
OverallDifficulty:6
ApproachRate:8
SliderMultiplier:1.4
SliderTickRate:1

[Events]
//Background and Video events
0,0,"f smoke.jpg",0,0
Video,1581,"Video.mp4"
//Break Periods
//Storyboard Layer 0 (Background)
//Storyboard Layer 1 (Fail)
//Storyboard Layer 2 (Pass)
//Storyboard Layer 3 (Foreground)
//Storyboard Layer 4 (Overlay)
//Storyboard Sound Samples

[TimingPoints]
1699,324.324324324324,4,2,1,60,1,0
1699,-125,4,2,1,50,0,0
11266,-222.222222222222,4,2,1,50,0,0
11996,-166.666666666667,4,2,1,5,0,0
12077,-166.666666666667,4,2,1,50,0,0
13293,-250,4,2,1,5,0,0
13374,-90.9090909090909,4,2,1,70,0,0
18563,-111.111111111111,4,2,1,60,0,0
28942,-125,4,2,1,50,0,0
38023,-111.111111111111,4,2,1,60,0,0
39320,-100,4,2,1,60,0,0
47104,-250,4,2,1,60,0,0
48401,-250.000000000001,4,2,1,60,0,0
49698,-90.9090909090908,4,2,1,80,0,1
70455,-100,4,2,1,50,0,0
74996,-142.857142857143,4,2,1,50,0,0
75644,-142.857142857143,4,2,1,50,0,0
78239,-111.111111111111,4,2,1,50,0,0
81158,-90.9090909090909,4,2,1,85,0,1
88617,-90.9090909090909,4,2,1,60,0,0
89753,-90.9090909090909,4,2,1,70,0,0

[Colours]
Combo1 : 248,92,97
Combo2 : 170,170,170
Combo3 : 255,170,85

[HitObjects]
141,285,1699,6,0,P|105:290|63:297,2,56,2|2|0,0:0|0:0|2:0,2:0:0:0:
181,217,2185,1,2,0:0:0:0:
181,217,2347,1,2,0:0:0:0:
245,261,2509,2,0,P|298:279|350:262,1,112,2|0,0:0|0:0,0:0:0:0:
405,207,2996,6,0,P|398:146|391:76,1,112,2|2,0:0|0:0,0:0:0:0:
255,21,3644,2,0,P|248:76|243:132,1,112,2|2,0:0|0:0,0:0:0:0:
100,198,4293,6,0,P|72:193|44:189,2,56,2|0|0,0:0|0:0|0:0,0:0:0:0:
139,126,4780,2,0,P|182:111|254:143,1,112
300,184,5266,1,2,0:0:0:0:
332,112,5428,6,0,P|363:136|368:225,1,112,2|0,0:0|0:0,0:0:0:0:
358,281,5915,1,0,0:0:0:0:
358,281,6239,2,0,P|328:275|291:267,2,56,2|2|2,0:0|0:0|0:0,0:0:0:0:
452,155,6888,6,0,P|479:149|506:143,2,56,2|2|2,0:0|0:0|0:0,2:0:0:0:
405,92,7374,2,0,P|361:70|284:89,2,112,2|2|0,0:0|0:0|2:0,0:0:0:0:
452,155,8185,6,0,P|479:160|506:166,2,56,2|2|2,0:0|0:0|0:0,2:0:0:0:
405,218,8671,2,0,P|361:240|284:221,2,112,2|2|2,0:0|0:0|0:0,0:0:0:0:
452,155,9482,6,0,P|447:123|441:86,2,56,2|2|0,0:0|0:0|0:0,2:0:0:0:
311,214,10131,2,0,P|306:241|302:269,2,56,0|2|0,0:0|0:0|0:0,2:0:0:0:
260,153,10617,2,0,P|227:125|160:136,1,112,2|2,0:0|0:0,0:0:0:0:
59,220,11266,2,0,P|72:299|81:361,1,141.749995674133,2|0,0:0|2:0,0:0:0:0:
108,373,12077,6,0,B|198:407|282:338|200:311|309:241|398:286,1,314.999990386963,2|0,0:0|2:0,0:0:0:0:
434,290,13374,6,0,P|440:240|447:186,1,77.0000023498536,6|0,1:2|2:0,0:0:0:0:
459,107,13698,1,8,0:0:0:0:
364,160,13861,2,0,P|304:195|210:173,1,154.000004699707,2|0,1:2|1:2,2:0:0:0:
130,128,14347,1,10,0:0:0:0:
221,70,14509,6,0,P|263:63|314:97,1,77.0000023498536,6|0,1:2|0:0,0:0:0:0:
364,160,14834,2,0,P|356:222|346:320,1,154.000004699707,2|0,1:2|1:2,2:0:0:0:
255,370,15320,2,0,P|202:356|171:348,1,77.0000023498536,2|2,1:2|1:2,2:0:0:0:
101,276,15644,2,0,P|154:262|185:254,1,77.0000023498536,10|8,0:0|0:0,2:0:0:0:
226,237,15888,1,8,0:0:0:0:
226,237,15969,6,0,P|236:192|213:143,1,77.0000023498536,6|0,1:2|2:0,0:0:0:0:
184,64,16293,1,8,0:0:0:0:
294,75,16455,2,0,B|398:49|398:49|459:98,1,154.000004699707,2|0,1:2|1:2,2:0:0:0:
512,155,16942,1,10,0:0:0:0:
436,231,17104,6,0,P|389:224|338:218,1,77.0000023498536,6|0,1:2|0:0,0:0:0:0:
272,157,17428,2,0,P|199:163|112:172,1,154.000004699707,2|0,1:2|0:0,2:0:0:0:
23,222,17915,2,0,P|17:249|9:285,3,38.5000011749268,10|8|10|8,0:0|0:0|0:0|0:0,0:0:0:0:
52,297,18239,2,0,P|46:324|38:360,3,38.5000011749268,10|8|8|8,0:0|0:0|0:0|0:0,2:0:0:0:
76,363,18563,6,0,P|114:374|157:358,2,62.9999980773926,6|2|8,1:2|0:0|0:0,2:0:0:0:
15,297,19050,1,2,0:0:0:0:
76,233,19212,1,2,1:2:0:0:
154,273,19374,2,0,P|210:294|282:268,1,125.999996154785,2|2,1:2|1:2,0:0:0:0:
340,220,19861,6,0,P|332:153|322:76,2,125.999996154785,2|10|2,0:0|0:0|1:2,0:0:0:0:
416,264,20671,1,0,1:2:0:0:
416,264,20834,2,0,P|411:297|406:337,1,62.9999980773926,10|0,0:0|2:0,0:0:0:0:
332,372,21158,6,0,P|295:384|258:374,2,62.9999980773926,2|0|8,1:2|0:0|0:0,0:0:0:0:
407,326,21644,2,0,P|431:269|419:206,1,125.999996154785,0|0,1:2|1:2,2:0:0:0:
377,129,22131,1,10,0:0:0:0:
299,171,22293,6,0,P|238:166|164:160,1,125.999996154785,2|0,1:2|1:2,0:0:0:0:
114,94,22780,2,0,P|109:55|126:19,1,62.9999980773926,8|0,0:0|0:0,0:0:0:0:
197,67,23104,1,2,1:2:0:0:
197,67,23266,1,2,1:2:0:0:
171,151,23428,2,0,P|137:171|91:171,1,62.9999980773926,10|0,0:0|2:0,0:0:0:0:
64,100,23753,6,0,L|50:30,2,62.9999980773926,2|0|10,1:2|0:0|0:0,0:0:0:0:
5,178,24239,2,0,P|-5:211|-2:248,1,62.9999980773926,2|0,1:2|1:2,2:0:0:0:
63,296,24563,2,0,P|116:269|194:287,1,125.999996154785,2|0,1:2|1:2,2:0:0:0:
256,322,25050,6,0,P|247:361|241:394,2,62.9999980773926,2|2|8,0:0|1:2|0:0,2:0:0:0:
322,264,25536,2,0,P|315:233|309:202,1,62.9999980773926,2|0,0:0|1:2,0:0:0:0:
236,150,25861,2,0,P|292:113|361:129,1,125.999996154785,2|2,1:2|0:0,0:0:0:0:
413,179,26347,6,0,P|419:209|425:240,2,62.9999980773926,2|2|8,1:2|0:0|0:0,0:0:0:0:
347,120,26834,2,0,P|353:89|359:58,1,62.9999980773926,2|0,0:0|0:0,0:0:0:0:
441,25,27158,2,0,P|447:55|453:86,2,62.9999980773926,2|8|2,1:2|0:0|1:2,0:0:0:0:
413,179,28131,6,0,L|401:239,2,31.4999990386963,10|8|8,0:0|0:0|0:0,0:0:0:0:
347,120,28455,1,8,0:3:0:0:
287,184,28617,1,4,0:3:0:0:
287,184,28780,1,4,0:3:0:0:
189,121,28942,6,0,P|196:57|203:-7,1,112,6|2,1:2|1:2,0:0:0:0:
59,76,29590,2,0,P|65:126|71:187,1,112,10|0,0:0|0:0,0:0:0:0:
54,265,30077,1,10,0:0:0:0:
54,265,30158,1,8,0:0:0:0:
54,265,30239,5,0,1:2:0:0:
107,322,30401,1,10,0:0:0:0:
169,274,30563,2,0,P|203:268|236:261,2,56,2|0|10,1:2|2:0|0:0,2:0:0:0:
107,322,31050,1,0,2:0:0:0:
54,265,31212,2,0,P|59:228|63:198,1,56,2|8,0:0|0:0,2:0:0:0:
66,170,31455,1,8,0:0:0:0:
66,170,31536,6,0,P|118:142|174:159,2,112,2|2|10,1:2|1:2|0:0,0:0:0:0:
126,220,32347,2,0,P|179:231|227:203,1,112,0|8,2:0|0:0,2:0:0:0:
277,143,32834,6,0,B|272:112|265:68,1,56,2|8,1:2|0:0,0:0:0:0:
314,24,33158,2,0,P|367:12|415:40,1,112,2|2,1:2|0:0,2:0:0:0:
491,126,33807,1,2,0:0:0:0:
310,156,34131,6,0,P|318:213|329:291,1,112,6|2,1:2|1:2,0:0:0:0:
172,233,34780,2,0,P|179:177|187:122,1,112,10|2,0:0|0:0,0:0:0:0:
203,45,35266,1,8,0:0:0:0:
268,87,35428,6,0,P|304:81|342:76,2,56,0|8|2,1:2|0:0|1:2,2:0:0:0:
416,137,36077,2,0,P|442:178|423:257,1,112,10|2,0:0|0:0,0:0:0:0:
398,308,36563,1,8,0:0:0:0:
398,308,36644,1,8,0:0:0:0:
398,308,36726,6,0,P|365:302|321:296,1,56,0|8,1:2|0:0,0:0:0:0:
282,248,37050,2,0,P|241:227|175:248,2,112,2|10|2,1:2|0:0|0:0,2:0:0:0:
342,299,37861,1,0,1:2:0:0:
368,189,38023,6,0,P|378:154|389:111,1,62.9999980773926,8|0,0:0|1:2,0:0:0:0:
342,50,38347,2,0,P|314:24|231:39,1,125.999996154785,10|2,0:0|1:2,0:0:0:0:
170,99,38834,1,8,0:0:0:0:
170,99,38915,1,8,0:0:0:0:
170,99,38996,1,10,0:0:0:0:
92,57,39158,1,8,0:0:0:0:
92,57,39239,1,8,0:0:0:0:
92,57,39320,6,0,P|81:100|72:144,2,70,6|0|8,1:2|2:0|0:0,0:0:0:0:
173,1,39807,2,0,P|223:35|300:15,1,140,2|0,0:0|0:0,2:0:0:0:
361,91,40293,2,0,P|397:75|442:84,1,70,10|0,0:0|0:0,0:0:0:0:
406,173,40617,6,0,P|370:189|325:180,1,70,0|0,1:2|0:0,0:0:0:0:
252,141,40942,2,0,P|238:206|224:290,1,140,10|2,0:0|1:2,0:0:0:0:
142,329,41428,1,0,0:0:0:0:
70,262,41590,2,0,P|60:222|73:185,1,70,10|0,0:0|0:0,0:0:0:0:
130,114,41915,6,0,P|201:101|257:153,2,140,2|8|2,1:2|0:0|1:2,0:0:0:0:
67,194,42726,1,0,0:0:0:0:
105,284,42888,2,0,P|151:276|193:269,1,70,10|0,0:0|0:0,0:0:0:0:
240,200,43212,5,2,1:2:0:0:
292,282,43374,1,8,0:0:0:0:
292,282,43455,1,8,0:0:0:0:
292,282,43536,1,8,0:3:0:0:
367,219,43698,2,0,P|385:154|360:82,1,140,10|0,0:3|2:0,0:0:0:0:
272,47,44185,2,0,P|219:54|170:61,1,70,10|0,0:0|0:0,0:0:0:0:
108,84,44509,6,0,P|112:50|121:-9,2,70,6|0|8,1:2|2:0|0:0,0:0:0:0:
96,181,44996,1,0,1:2:0:0:
96,181,45077,1,8,0:0:0:0:
96,181,45158,1,0,1:2:0:0:
181,133,45320,2,0,P|223:131|256:152,1,70,0|8,1:2|0:0,2:0:0:0:
319,203,45644,1,0,1:2:0:0:
319,203,45726,1,8,0:0:0:0:
319,203,45807,6,0,P|372:195|416:190,1,70,0|0,1:2|2:0,0:0:0:0:
459,125,46131,2,0,P|471:86|455:42,1,70,10|0,0:0|0:0,0:0:0:0:
377,14,46455,2,0,P|317:8|235:2,1,140,2|10,1:2|0:0,0:0:0:0:
155,56,46942,1,0,1:2:0:0:
155,56,47023,1,8,0:0:0:0:
155,56,47104,6,0,P|163:148|255:105,1,224,6|0,1:2|0:0,0:0:0:0:
431,90,49698,6,0,P|447:43|436:3,2,77.0000023498536,6|0|10,1:2|2:0|0:0,0:0:0:0:
360,173,50185,2,0,P|305:164|257:157,1,77.0000023498536,2|0,0:0|1:2,0:0:0:0:
199,94,50509,2,0,P|157:81|73:160,1,154.000004699707,2|2,1:2|1:2,2:0:0:0:
87,249,50996,5,2,0:0:0:0:
87,249,51158,1,2,1:2:0:0:
155,165,51320,1,10,0:0:0:0:
238,232,51482,2,0,P|279:250|330:243,1,77.0000023498536,2|0,0:0|1:2,0:0:0:0:
402,192,51807,2,0,B|424:93|424:93|377:40,1,154.000004699707,2|10,1:2|0:0,2:0:0:0:
347,19,52212,1,8,0:0:0:0:
347,19,52293,5,2,1:2:0:0:
257,78,52455,2,0,P|211:71|153:66,1,77.0000023498536,2|8,2:0|0:0,0:0:0:0:
79,28,52780,2,0,P|54:62|56:119,1,77.0000023498536,2|0,0:0|1:2,2:0:0:0:
137,157,53104,2,0,B|121:262|121:262|144:285|170:312,1,154.000004699707,2|2,1:2|1:2,2:0:0:0:
255,259,53590,6,0,P|245:203|236:160,2,77.0000023498536,2|2|10,0:0|1:2|0:0,0:0:0:0:
352,309,54077,2,0,P|401:333|437:325,1,77.0000023498536,2|0,0:0|1:2,0:0:0:0:
509,264,54401,2,0,B|503:189|496:108,1,154.000004699707,2|10,1:2|0:0,2:0:0:0:
487,56,54807,1,8,0:0:0:0:
487,56,54888,6,0,P|443:20|341:52,2,154.000004699707,6|10|2,1:2|0:0|1:2,0:0:0:0:
505,162,55698,1,0,1:2:0:0:
413,103,55861,1,8,0:0:0:0:
332,174,56023,6,0,P|260:196|198:155,1,154.000004699707,0|0,1:2|1:2,0:0:0:0:
139,65,56509,1,8,0:0:0:0:
139,65,56671,1,2,0:0:0:0:
230,7,56834,1,2,1:2:0:0:
307,82,56996,2,0,B|333:173|333:173|299:193|296:250,1,154.000004699707,2|10,1:2|0:0,2:0:0:0:
279,270,57401,1,8,0:0:0:0:
279,270,57482,6,0,P|333:316|418:283,2,154.000004699707,2|8|2,1:2|0:0|1:2,0:0:0:0:
220,178,58293,1,0,1:2:0:0:
151,261,58455,2,0,P|92:274|52:282,1,77.0000023498536,10|0,0:0|1:2,0:0:0:0:
9,191,58780,6,0,P|-3:147|16:105,1,77.0000023498536,12|0,0:0|1:2,0:0:0:0:
92,54,59104,2,0,B|191:82|191:82|269:40,1,154.000004699707,10|10,0:0|0:3,2:0:0:0:
329,110,59590,1,8,0:0:0:0:
329,110,59671,1,8,0:0:0:0:
329,110,59753,1,10,0:0:0:0:
405,34,59915,1,8,0:0:0:0:
405,34,59996,1,8,0:0:0:0:
405,34,60077,6,0,P|364:25|315:14,1,77.0000023498536,6|0,1:2|2:0,0:0:0:0:
236,57,60401,1,8,0:0:0:0:
274,157,60563,2,0,P|311:148|349:140,1,77.0000023498536,2|0,0:0|1:2,0:0:0:0:
449,182,60888,2,0,P|485:253|447:347,1,154.000004699707,2|2,1:2|1:2,2:0:0:0:
376,266,61374,5,2,0:0:0:0:
376,266,61536,1,2,1:2:0:0:
298,341,61698,1,8,0:0:0:0:
208,279,61861,2,0,P|150:265|113:261,1,77.0000023498536,2|0,0:0|1:2,2:0:0:0:
51,333,62185,2,0,P|27:268|57:185,1,154.000004699707,2|10,1:2|0:0,2:0:0:0:
86,148,62590,1,8,0:0:0:0:
86,148,62671,5,2,1:2:0:0:
185,191,62834,2,0,P|232:183|281:177,1,77.0000023498536,2|8,2:0|0:0,2:0:0:0:
331,90,63158,2,0,P|340:58|323:8,1,77.0000023498536,2|0,0:0|1:2,0:0:0:0:
231,61,63482,2,0,P|200:115|236:224,1,154.000004699707,2|2,1:2|1:2,2:0:0:0:
280,288,63969,5,2,0:0:0:0:
280,288,64131,1,2,1:2:0:0:
358,213,64293,1,10,0:0:0:0:
442,279,64455,2,0,P|481:298|526:289,1,77.0000023498536,2|0,0:0|1:2,2:0:0:0:
494,187,64780,2,0,B|511:84|511:84|453:41,1,154.000004699707,2|10,1:2|0:0,2:0:0:0:
423,29,65185,1,8,0:0:0:0:
423,29,65266,6,0,P|377:67|277:42,2,154.000004699707,6|8|2,1:2|0:0|1:2,0:0:0:0:
512,85,66077,1,0,1:2:0:0:
494,187,66239,2,0,B|450:180|383:171,1,77.0000023498536,10|0,0:0|1:2,0:0:0:0:
339,102,66563,6,0,P|255:112|180:124,1,154.000004699707,2|8,2:0|0:0,2:0:0:0:
102,54,67050,1,2,0:0:0:0:
102,54,67212,1,2,1:2:0:0:
40,142,67374,2,0,P|13:199|37:294,1,154.000004699707,2|2,1:2|0:0,0:0:0:0:
102,366,67861,5,10,0:3:0:0:
171,283,68023,1,8,0:0:0:0:
171,283,68104,1,8,0:0:0:0:
171,283,68185,2,0,P|219:293|261:301,1,77.0000023498536,10|0,0:0|1:2,0:0:0:0:
335,358,68509,2,0,P|338:339|342:320,3,38.5000011749268,10|8|8|8,0:0|0:0|0:0|2:0,0:0:0:0:
382,283,68834,2,0,P|378:246|368:182,1,77.0000023498536,10|8,0:0|0:0,0:0:0:0:
329,173,69077,1,8,2:0:0:0:
329,173,69158,6,0,P|299:177|265:184,2,51.3333348999024,8|8|8,0:0|0:0|0:0,2:0:0:0:
351,126,69482,2,0,P|376:121|401:117,2,51.3333348999024,8|8|8,0:0|0:3|0:3,2:0:0:0:
314,89,69807,2,0,P|288:93|263:97,2,51.3333348999024,8|8|4,0:3|0:3|0:3,2:0:0:0:
336,42,70131,2,0,P|361:37|386:33,2,51.3333348999024,4|4|4,0:3|0:3|0:3,0:0:0:0:
473,38,70455,5,6,1:2:0:0:
473,38,71753,5,6,1:2:0:0:
473,38,73050,5,6,1:2:0:0:
473,38,74347,5,6,1:2:0:0:
473,38,74834,5,10,0:0:0:0:
473,38,74915,1,8,0:0:0:0:
473,38,74996,2,0,P|440:21|388:26,2,73.4999977569581,8|4|0,0:3|0:3|1:2,0:0:0:0:
509,108,75644,6,0,P|499:148|486:211,1,97.9999970092774,6|2,1:2|0:0,0:0:0:0:
371,277,76293,2,0,P|360:229|349:181,1,97.9999970092774,2|2,1:2|0:0,0:0:0:0:
254,82,76942,6,0,P|223:66|144:84,1,97.9999970092774,2|2,1:2|0:0,0:0:0:0:
102,195,77590,2,0,P|133:211|212:193,1,97.9999970092774,2|2,1:2|0:0,0:0:0:0:
254,82,78239,5,6,1:2:0:0:
254,82,78563,1,8,0:0:0:0:
329,129,78726,1,8,0:0:0:0:
329,129,78807,1,8,0:0:0:0:
329,129,78888,1,8,0:0:0:0:
272,196,79050,2,0,P|253:199|218:207,2,31.4999990386963,8|8|8,0:0|0:0|0:0,0:0:0:0:
334,257,79374,1,8,0:0:0:0:
346,260,79455,1,8,0:0:0:0:
359,263,79536,5,2,0:0:0:0:
256,192,79617,12,0,80834,0:0:0:0:
329,129,81158,5,14,0:0:0:0:
238,70,81320,2,0,P|189:78|137:90,1,77.0000023498536,2|0,2:0|1:2,0:0:0:0:
106,175,81644,2,0,P|166:215|242:184,1,154.000004699707,2|2,1:2|1:2,0:0:0:0:
329,129,82131,5,2,1:2:0:0:
329,129,82293,1,2,1:2:0:0:
410,213,82455,1,8,0:0:0:0:
475,127,82617,2,0,P|486:81|475:43,1,77.0000023498536,2|0,0:0|1:2,0:0:0:0:
371,43,82942,2,0,B|267:21|267:21|221:70,1,154.000004699707,2|2,1:2|1:2,2:0:0:0:
175,146,83428,5,2,1:2:0:0:
73,111,83590,2,0,P|61:72|77:21,1,77.0000023498536,2|8,0:0|0:0,2:0:0:0:
171,7,83915,2,0,P|217:17|265:27,1,77.0000023498536,2|0,0:0|1:2,2:0:0:0:
260,129,84239,2,0,B|195:145|195:145|184:173|184:173|107:196,1,154.000004699707,2|2,1:2|1:2,2:0:0:0:
31,236,84726,6,0,P|47:292|58:331,1,77.0000023498536,10|2,0:0|1:2,0:0:0:0:
178,368,85050,2,0,P|189:327|201:289,1,77.0000023498536,10|2,0:0|1:2,0:0:0:0:
288,233,85374,2,0,P|322:240|342:260,3,38.5000011749268,8|8|10|8,0:0|0:0|0:0|0:0,0:0:0:0:
377,253,85698,2,0,P|386:282|380:315,3,38.5000011749268,8|8|10|8,0:0|2:0|0:0|0:0,0:0:0:0:
360,328,86023,6,0,P|310:335|272:341,1,77.0000023498536,6|0,1:2|0:0,0:0:0:0:
189,263,86347,2,0,P|176:223|190:182,1,77.0000023498536,10|0,0:0|0:0,0:0:0:0:
233,94,86671,1,2,1:2:0:0:
233,94,86834,1,0,1:2:0:0:
318,158,86996,2,0,P|371:148|422:140,1,77.0000023498536,10|0,0:0|1:2,0:0:0:0:
401,36,87320,6,0,B|295:15|295:15|244:69,1,154.000004699707,2|8,2:0|0:0,2:0:0:0:
196,133,87807,1,2,0:0:0:0:
91,107,87969,2,0,P|100:143|107:173,3,38.5000011749268,10|8|10|8,0:0|0:0|0:0|0:0,2:0:0:0:
82,195,88293,2,0,P|91:231|100:263,3,38.5000011749268,8|8|2|0,0:0|2:0|1:2|1:2,0:0:0:0:
108,283,88617,5,10,0:0:0:0:
200,326,89753,6,0,P|239:291|346:315,1,154.000004699707,6|0,1:2|1:2,0:0:0:0:
422,241,90239,2,0,P|413:191|404:147,1,77.0000023498536,8|0,0:0|1:2,0:0:0:0:
381,60,90563,1,0,1:2:0:0:
302,134,90726,1,8,0:0:0:0:
302,134,90888,1,8,0:0:0:0:
211,30,91050,1,8,0:0:0:0:
