osu file format v14

[General]
AudioFilename: audio.mp3
AudioLeadIn: 0
PreviewTime: 49617
Countdown: 0
SampleSet: Soft
StackLeniency: 0.7
Mode: 0
LetterboxInBreaks: 0
WidescreenStoryboard: 0

[Editor]
DistanceSpacing: 1.9
BeatDivisor: 4
GridSize: 32
TimelineZoom: 1

[Metadata]
Title:Pride Kakumei (TV Size)
TitleUnicode:プライド革命 (TV Size)
Artist:CHiCO with HoneyWorks
ArtistUnicode:CHiCO with HoneyWorks
Creator:pokeyyyy
Version:Silver Soul
Source:銀魂゜
Tags:gintama gintama゜ gintoki silver soul opening 2015 anime japanese pop rock jpop j-pop jrock j-rock female vocals vocalist [poke] pokey xandeez nuts cirnop lean monster lean_monster dog food leomine leominexd hanakumo rin door weapon GIGAROBLOXIAN21
BeatmapID:3480199
BeatmapSetID:1703318

[Difficulty]
HPDrainRate:6
CircleSize:4
OverallDifficulty:9
ApproachRate:9.2
SliderMultiplier:1.9
SliderTickRate:1

[Events]
//Background and Video events
0,0,"EtOlhRz.jpeg",0,0
//Break Periods
//Storyboard Layer 0 (Background)
//Storyboard Layer 1 (Fail)
//Storyboard Layer 2 (Pass)
//Storyboard Layer 3 (Foreground)
//Storyboard Layer 4 (Overlay)
//Storyboard Sound Samples

[TimingPoints]
1699,324.324324324324,4,2,1,50,1,0
1699,-200,4,2,1,50,0,0
10617,-200,4,2,1,30,0,0
13374,-100,4,2,1,70,0,0
17104,-100,4,2,1,70,0,0
17428,-100,4,2,1,70,0,0
18563,-133.333333333333,4,2,1,60,0,0
18726,-133.333333333333,4,2,1,60,0,0
21158,-133.333333333333,4,2,1,60,0,0
21482,-133.333333333333,4,2,1,60,0,0
23753,-133.333333333333,4,2,1,60,0,0
24077,-133.333333333333,4,2,1,60,0,0
26347,-133.333333333333,4,2,1,60,0,0
26671,-133.333333333333,4,2,1,60,0,0
28942,-133.333333333333,4,2,1,50,0,0
39320,-133.333333333333,4,2,1,60,0,0
44509,-119.047619047619,4,2,1,70,0,0
47104,-333.333333333333,4,2,1,40,0,0
48401,-333.333333333333,4,2,1,30,0,0
49698,-100,4,2,1,80,0,1
70455,-100,4,2,1,60,0,0
74834,-100,4,2,1,60,0,0
75644,-125,4,2,1,60,0,0
78239,-100,4,2,1,60,0,0
79536,-1000,4,2,1,40,0,0
81158,-100,4,2,1,80,0,1
88617,-100,4,2,1,80,0,0

[Colours]
Combo1 : 73,97,228
Combo2 : 225,143,89
Combo3 : 240,106,106
Combo4 : 162,189,232

[HitObjects]
52,68,1699,5,2,0:0:0:0:
52,68,1861,2,0,P|101:77|156:91,1,95,2|2,0:0|0:0,0:0:0:0:
221,108,2347,1,2,0:0:0:0:
221,108,2509,1,2,0:0:0:0:
326,304,2834,1,2,0:0:0:0:
326,304,2996,6,0,P|306:327|270:333,1,47.5,2|0,0:0|0:0,0:0:0:0:
188,303,3320,2,0,P|178:274|190:240,1,47.5,2|0,0:0|0:0,0:0:0:0:
257,186,3644,2,0,P|286:191|310:219,1,47.5,2|0,0:0|0:0,0:0:0:0:
257,265,3969,1,2,0:0:0:0:
456,92,4293,6,0,P|391:110|386:144,2,95,2|0|0,0:0|0:0|0:0,0:0:0:0:
456,92,5104,1,0,0:0:0:0:
497,195,5266,1,2,0:0:0:0:
435,245,5428,2,0,P|451:284|466:336,1,95,2|2,0:0|0:0,0:0:0:0:
353,376,5915,1,0,0:0:0:0:
226,243,6239,5,2,0:1:0:0:
303,223,6401,1,2,0:1:0:0:
222,235,6563,1,2,0:0:0:0:
123,108,6888,5,2,0:1:0:0:
46,88,7050,1,2,0:1:0:0:
127,100,7212,1,2,0:0:0:0:
195,46,7374,2,0,P|227:35|253:49,1,47.5,2|0,0:0|0:0,0:0:0:0:
340,90,7698,2,0,P|318:68|341:1,1,95,2|0,0:0|0:0,0:0:0:0:
479,184,8185,5,2,0:1:0:0:
491,265,8347,1,2,0:1:0:0:
471,188,8509,1,2,0:0:0:0:
394,161,8671,2,0,P|350:176|332:187,1,47.5,2|0,0:0|0:0,0:0:0:0:
282,237,8996,2,0,P|325:254|346:265,1,47.5,2|0,0:0|0:0,0:0:0:0:
369,319,9320,1,2,0:0:0:0:
239,357,9482,5,2,0:1:0:0:
164,337,9644,1,2,0:1:0:0:
82,195,9969,1,2,0:0:0:0:
157,161,10131,5,2,0:1:0:0:
85,204,10293,1,2,0:1:0:0:
165,69,10617,5,2,0:0:0:0:
80,20,10942,1,2,0:0:0:0:
0,70,11266,1,2,0:0:0:0:
4,159,12077,5,2,0:0:0:0:
256,192,12158,12,0,13293,0:0:0:0:
375,75,13374,6,0,P|346:81|320:97,1,47.5,6|0,1:2|0:0,0:0:0:0:
425,227,13536,2,0,P|444:173|467:125,1,95,2|8,0:0|0:2,0:0:0:0:
260,293,13861,1,2,1:2:0:0:
260,293,13942,1,0,1:2:0:0:
260,293,14023,1,2,1:2:0:0:
339,347,14185,1,0,1:2:0:0:
287,197,14347,1,10,0:1:0:0:
123,301,14509,6,0,P|73:315|33:330,1,95,6|0,1:2|0:0,0:0:0:0:
183,243,14834,1,2,1:2:0:0:
45,97,14996,2,0,P|105:148|69:216,1,142.5,10|0,0:2|1:0,0:0:0:0:
90,202,15320,6,0,P|45:185|0:172,1,95,2|2,1:2|1:2,0:0:0:0:
200,32,15644,1,10,0:2:0:0:
232,36,15726,1,0,1:0:0:0:
250,54,15807,1,0,1:2:0:0:
259,80,15888,1,0,1:2:0:0:
255,110,15969,6,0,P|233:117|202:131,1,47.5,6|0,1:2|0:0,0:0:0:0:
360,48,16131,2,0,P|416:68|471:84,1,95,2|8,0:0|0:2,0:0:0:0:
348,151,16455,1,2,1:2:0:0:
348,151,16536,1,0,1:2:0:0:
348,151,16617,1,2,1:2:0:0:
419,194,16780,1,0,1:2:0:0:
191,248,16942,1,10,0:1:0:0:
351,38,17104,6,0,P|329:110|286:244,1,190,6|2,1:2|1:2,0:0:0:0:
446,365,17590,2,0,P|420:304|408:273,1,95,10|0,0:2|0:0,0:0:0:0:
196,329,17915,5,10,0:2:0:0:
227,354,17996,1,8,0:2:0:0:
272,355,18077,1,10,0:2:0:0:
310,338,18158,1,8,0:2:0:0:
328,299,18239,1,10,0:2:0:0:
323,250,18320,1,8,0:2:0:0:
294,219,18401,1,8,0:2:0:0:
251,208,18482,1,8,0:2:0:0:
212,220,18563,6,0,P|157:231|120:237,1,71.2500027179719,2|2,1:2|0:2,0:0:0:0:
34,115,18888,2,0,P|72:124|107:129,1,71.2500027179719,8|2,0:2|0:2,0:0:0:0:
261,8,19212,1,2,1:2:0:0:
261,8,19374,2,0,P|211:26|207:82,1,106.875004076958,2|0,1:2|0:0,0:0:0:0:
203,74,19698,1,2,1:2:0:0:
342,122,19861,6,0,P|297:127|244:141,1,71.2500027179719,2|0,1:2|1:2,0:0:0:0:
412,60,20185,2,0,P|446:67|482:70,1,71.2500027179719,10|0,0:2|0:0,0:0:0:0:
356,200,20509,2,0,P|311:205|258:219,1,71.2500027179719,2|0,1:2|1:2,0:0:0:0:
426,138,20833,2,0,P|460:145|496:148,1,71.2500027179719,10|0,0:2|0:0,0:0:0:0:
494,332,21158,6,0,P|428:299|454:227,1,142.500005435944,2|8,1:2|0:2,0:0:0:0:
364,353,21644,2,0,P|325:348|222:337,1,142.500005435944,0|0,0:0|1:2,0:0:0:0:
63,361,22131,1,10,0:2:0:0:
63,361,22293,1,2,0:0:0:0:
129,253,22617,5,0,1:2:0:0:
129,253,22780,1,8,0:2:0:0:
32,127,23104,5,2,1:2:0:0:
51,40,23266,1,2,1:2:0:0:
129,19,23428,2,0,P|184:32|218:37,1,71.2500027179719,10|0,0:2|0:0,0:0:0:0:
340,104,23753,5,2,1:1:0:0:
340,104,23915,1,2,0:0:0:0:
266,135,24077,1,10,0:2:0:0:
371,193,24239,2,0,P|431:173|455:165,1,71.2500027179719,2|0,0:1|1:2,0:0:0:0:
315,351,24563,2,0,P|267:336|230:328,1,71.2500027179719,2|8,1:0|0:2,0:0:0:0:
368,284,24888,1,0,0:0:0:0:
272,218,25050,5,2,1:1:0:0:
272,218,25212,1,2,1:2:0:0:
195,245,25374,1,10,0:2:0:0:
118,171,25536,2,0,P|135:128|171:116,1,71.2500027179719,2|0,0:1|1:2,0:0:0:0:
63,242,25861,2,0,P|24:219|16:175,1,71.2500027179719,2|8,1:1|0:2,0:0:0:0:
192,254,26185,1,2,0:0:0:0:
101,360,26347,5,2,1:2:0:0:
101,360,26509,2,0,P|48:349|19:346,1,71.2500027179719,2|8,0:0|0:2,0:0:0:0:
196,337,26834,2,0,P|231:332|265:323,1,71.2500027179719,2|0,0:0|1:2,0:0:0:0:
333,293,27158,1,2,1:2:0:0:
391,213,27320,1,8,0:2:0:0:
307,69,27482,5,6,1:1:0:0:
307,69,28131,2,0,L|316:34,2,35.625001358986,10|8|8,0:2|0:0|0:0,0:0:0:0:
273,101,28455,1,4,1:3:0:0:
242,87,28617,1,8,1:3:0:0:
226,98,28780,1,0,1:0:0:0:
23,39,28942,6,0,P|99:53|104:89,1,106.875004076958,6|0,1:2|0:0,0:0:0:0:
105,69,29266,2,0,P|80:113|74:152,1,71.2500027179719,2|0,1:2|0:0,0:0:0:0:
197,246,29590,2,0,P|154:214|122:207,1,71.2500027179719,10|0,1:1|0:0,0:0:0:0:
61,213,29915,1,2,0:0:0:0:
229,136,30077,5,10,0:2:0:0:
229,136,30158,1,8,0:2:0:0:
229,136,30239,1,0,1:2:0:0:
294,182,30401,1,2,0:0:0:0:
416,103,30563,2,0,P|368:85|325:65,1,71.2500027179719,2|2,1:2|0:0,0:0:0:0:
405,239,30888,1,10,1:2:0:0:
435,331,31050,1,2,0:0:0:0:
364,369,31212,2,0,P|330:359|320:308,1,71.2500027179719,2|8,0:0|0:2,0:0:0:0:
317,319,31455,1,8,0:2:0:0:
319,310,31536,6,0,P|281:264|227:277,1,106.875004076958,6|0,1:2|0:0,0:0:0:0:
238,268,31861,1,2,1:2:0:0:
190,114,32185,1,10,1:1:0:0:
121,167,32347,2,0,P|130:213|159:314,1,142.500005435944,2|8,0:0|0:2,0:0:0:0:
163,311,32753,1,8,0:2:0:0:
174,315,32834,5,2,1:2:0:0:
258,180,32996,1,8,0:2:0:0:
127,49,33158,2,0,P|83:28|32:13,1,71.2500027179719,2|0,1:1|0:0,0:0:0:0:
10,74,33482,5,2,0:2:0:0:
240,21,33807,5,2,3:2:0:0:
449,127,34131,6,0,P|405:135|361:147,1,71.2500027179719,4|0,1:2|0:0,0:0:0:0:
250,199,34455,2,0,P|304:258|347:237,1,106.875004076958,2|0,1:2|0:0,0:0:0:0:
320,255,34780,2,0,P|370:275|376:306,1,71.2500027179719,10|0,1:2|0:0,0:0:0:0:
279,380,35104,1,2,0:0:0:0:
212,338,35266,1,0,0:0:0:0:
96,370,35428,6,0,P|111:318|114:280,1,71.2500027179719,0|0,1:2|0:0,0:0:0:0:
20,214,35753,2,0,P|33:157|86:153,1,106.875004076958,2|0,1:2|0:0,0:0:0:0:
74,148,36077,2,0,P|114:151|136:109,1,71.2500027179719,10|0,1:2|0:0,0:0:0:0:
70,34,36401,1,2,0:0:0:0:
210,66,36563,5,8,0:2:0:0:
210,66,36644,1,8,0:2:0:0:
210,66,36726,1,4,1:2:0:0:
291,305,37050,2,0,P|310:263|327:232,1,71.2500027179719,2|0,1:2|0:0,0:0:0:0:
154,200,37374,2,0,P|179:256|197:313,1,106.875004076958,10|0,1:2|0:0,0:0:0:0:
193,299,37698,2,0,P|154:315|102:343,1,71.2500027179719,2|0,0:0|1:2,0:0:0:0:
304,137,38023,5,8,0:2:0:0:
442,254,38185,1,0,1:2:0:0:
294,32,38347,5,10,0:1:0:0:
233,218,38509,1,0,1:2:0:0:
436,77,38671,5,2,1:2:0:0:
204,8,38834,1,8,0:2:0:0:
204,8,38915,1,8,0:2:0:0:
204,8,38996,1,10,0:2:0:0:
114,150,39158,5,8,0:2:0:0:
108,126,39239,1,8,0:2:0:0:
91,111,39320,2,0,P|25:118|12:202,1,142.500005435944,14|8,1:2|0:2,0:0:0:0:
61,240,39807,1,0,0:0:0:0:
84,348,39969,2,0,P|39:338|26:309,1,71.2500027179719,0|0,1:2|0:0,0:0:0:0:
152,239,40293,2,0,P|209:253|238:259,1,71.2500027179719,8|0,0:2|0:0,0:0:0:0:
386,315,40617,6,0,P|322:338|277:355,1,106.875004076958,0|0,1:2|0:0,0:0:0:0:
285,351,40942,2,0,P|326:369|368:389,1,71.2500027179719,10|0,0:2|0:0,0:0:0:0:
438,219,41266,2,0,P|393:180|357:184,1,71.2500027179719,2|0,1:2|0:0,0:0:0:0:
270,70,41590,2,0,P|299:25|369:15,1,106.875004076958,10|0,0:2|0:0,0:0:0:0:
348,10,41915,6,0,P|368:43|409:55,1,71.2500027179719,2|0,1:2|0:0,0:0:0:0:
512,0,42239,1,8,0:2:0:0:
512,0,42401,1,0,0:0:0:0:
316,137,42563,2,0,P|260:164|198:194,1,106.875004076958,2|0,1:2|0:0,0:0:0:0:
219,183,42888,2,0,P|269:202|282:234,1,71.2500027179719,10|0,0:0|0:0,0:0:0:0:
199,78,43212,5,2,1:2:0:0:
69,186,43374,1,8,0:2:0:0:
40,164,43455,1,8,0:2:0:0:
36,126,43536,1,0,1:2:0:0:
106,59,43698,1,2,0:0:0:0:
154,220,43861,1,0,1:2:0:0:
154,220,44023,1,0,0:0:0:0:
0,313,44185,2,0,P|58:332|108:354,1,106.875004076958,10|0,0:1|0:0,0:0:0:0:
100,350,44509,6,0,P|81:287|65:275,1,79.7999975646973,2|0,1:2|0:0,0:0:0:0:
276,238,44834,2,0,P|227:286|224:338,1,119.699996347046,8|0,0:2|1:2,0:0:0:0:
223,334,45158,1,0,1:2:0:0:
338,371,45320,1,0,1:0:0:0:
449,263,45482,1,8,0:2:0:0:
400,197,45644,1,0,1:2:0:0:
500,83,45807,6,0,P|488:128|481:160,1,79.7999975646973,0|0,1:2|0:0,0:0:0:0:
273,35,46131,2,0,P|297:96|312:153,1,119.699996347046,10|0,0:2|1:2,0:0:0:0:
310,148,46455,1,2,1:2:0:0:
276,238,46617,1,0,1:0:0:0:
162,100,46780,1,10,0:2:0:0:
0,163,46942,5,8,0:2:0:0:
0,163,47023,1,8,0:2:0:0:
0,163,47104,2,0,P|23:234|52:391,1,227.999993041992,6|2,1:1|0:2,0:0:0:0:
193,344,49698,5,6,1:2:0:0:
13,320,49861,2,0,P|94:306|137:288,1,95,2|8,0:2|0:2,0:0:0:0:
281,384,50185,2,0,P|327:370|376:364,1,95,2|0,1:2|1:2,0:0:0:0:
490,194,50509,2,0,P|464:131|378:136,1,142.5,2|0,1:1|0:0,0:0:0:0:
396,123,50834,2,0,P|400:144|394:176,1,47.5,2|0,1:2|0:0,0:0:0:0:
266,298,50996,5,2,0:1:0:0:
420,271,51158,1,2,1:2:0:0:
279,133,51320,1,10,0:1:0:0:
105,211,51482,1,2,1:1:0:0:
127,249,51563,1,0,1:2:0:0:
174,265,51644,1,0,1:2:0:0:
331,59,51807,2,0,P|307:15|251:0,1,95,2|8,1:2|0:2,0:0:0:0:
148,138,52131,5,2,1:2:0:0:
148,138,52212,1,0,1:2:0:0:
148,138,52293,2,0,P|180:114|218:117,1,47.5,6|0,1:2|0:0,0:0:0:0:
13,273,52455,2,0,P|-6:236|9:173,1,95,2|8,0:0|0:2,0:0:0:0:
272,257,52780,1,2,1:2:0:0:
301,217,52861,1,0,1:2:0:0:
287,169,52942,1,0,1:2:0:0:
132,384,53104,2,0,P|202:360|278:338,1,142.5,2|0,1:2|0:0,0:0:0:0:
267,340,53428,2,0,P|252:360|236:391,1,47.5,2|0,1:2|0:0,0:0:0:0:
180,209,53590,5,2,0:0:0:0:
281,91,53753,1,2,1:2:0:0:
428,153,53915,1,10,0:2:0:0:
371,207,54077,1,2,1:2:0:0:
371,207,54158,1,0,1:2:0:0:
371,207,54239,1,0,1:2:0:0:
490,65,54401,2,0,P|430:48|388:34,1,95,2|8,1:2|0:2,0:0:0:0:
94,78,54726,5,2,1:2:0:0:
112,114,54807,1,0,1:2:0:0:
146,133,54888,2,0,P|214:116|296:99,1,142.5,6|0,1:2|0:0,0:0:0:0:
284,101,55212,2,0,P|269:49|197:39,1,95,10|0,0:1|1:2,0:0:0:0:
227,31,55455,1,0,1:2:0:0:
217,30,55536,1,2,1:2:0:0:
358,142,55698,1,0,1:2:0:0:
147,221,55861,1,10,0:2:0:0:
205,286,56023,6,0,B|142:294|120:249|127:241|134:233|94:182|36:216,1,190,0|0,1:2|1:2,0:0:0:0:
238,369,56509,1,8,0:2:0:0:
317,323,56671,1,2,1:2:0:0:
98,347,56834,1,2,1:2:0:0:
216,169,56996,2,0,P|260:188|305:205,1,95,2|8,1:2|0:2,0:0:0:0:
503,345,57320,5,2,1:2:0:0:
509,315,57401,1,0,1:2:0:0:
492,290,57482,2,0,P|438:310|370:342,1,95,6|0,1:2|0:0,0:0:0:0:
492,122,57807,2,0,P|440:180|393:247,1,142.5,10|0,0:2|1:2,0:0:0:0:
403,233,58131,2,0,P|434:217|467:206,1,47.5,2|0,1:2|0:0,0:0:0:0:
379,125,58293,1,0,1:2:0:0:
260,302,58455,2,0,P|228:286|195:275,1,47.5,10|0,0:2|0:0,0:0:0:0:
72,234,58617,1,0,1:2:0:0:
261,126,58780,6,0,P|199:138|183:181,1,95,8|0,0:2|1:2,0:0:0:0:
127,335,59104,2,0,P|134:277|68:233,1,142.5,10|0,0:2|0:0,0:0:0:0:
72,234,59428,2,0,P|57:259|19:280,1,47.5,10|0,0:2|0:0,0:0:0:0:
54,83,59590,1,0,1:2:0:0:
80,45,59671,1,0,1:2:0:0:
124,20,59753,1,10,0:2:0:0:
176,9,59834,1,8,0:2:0:0:
229,18,59915,1,8,0:2:0:0:
261,43,59996,1,8,0:2:0:0:
278,82,60077,6,0,P|269:100|258:134,1,47.5,6|0,1:2|0:0,0:0:0:0:
354,316,60239,1,2,0:0:0:0:
501,216,60401,1,10,0:2:0:0:
238,199,60563,1,2,1:2:0:0:
205,213,60644,1,0,1:2:0:0:
191,248,60726,1,0,1:2:0:0:
459,129,60888,1,2,1:2:0:0:
229,18,61050,1,8,0:2:0:0:
336,147,61212,1,2,1:2:0:0:
455,16,61374,5,2,0:1:0:0:
148,138,61536,2,0,P|63:170|14:188,1,142.5,2|0,1:1|0:0,0:0:0:0:
14,187,61861,2,0,P|36:195|82:224,1,47.5,2|0,1:2|1:2,0:0:0:0:
121,312,62023,1,0,1:2:0:0:
34,87,62185,2,0,P|42:31|97:9,1,95,2|8,1:2|0:2,0:0:0:0:
263,195,62509,5,2,1:2:0:0:
229,169,62590,1,0,1:2:0:0:
223,124,62671,2,0,P|245:108|282:97,1,47.5,6|0,1:1|0:0,0:0:0:0:
487,244,62834,2,0,P|435:239|411:200,1,95,2|8,0:0|0:2,0:0:0:0:
431,62,63158,1,2,1:2:0:0:
431,62,63239,1,0,1:0:0:0:
431,62,63320,1,0,1:2:0:0:
321,275,63482,2,0,P|256:294|205:313,1,95,2|8,1:2|0:2,0:0:0:0:
187,370,63807,1,2,1:2:0:0:
280,182,63969,6,0,P|249:171|213:148,1,47.5,2|0,0:1|0:0,0:0:0:0:
18,299,64131,2,0,P|39:288|61:281,1,47.5,2|0,1:2|0:0,0:0:0:0:
189,35,64293,1,10,0:2:0:0:
16,142,64455,1,2,1:1:0:0:
39,176,64536,1,0,1:2:0:0:
85,186,64617,1,0,1:2:0:0:
333,30,64780,2,0,P|297:51|285:100,1,95,2|8,1:2|0:2,0:0:0:0:
478,173,65104,5,2,1:2:0:0:
443,150,65185,1,0,1:2:0:0:
408,161,65266,2,0,P|419:235|497:257,1,142.5,6|0,1:2|0:0,0:0:0:0:
475,260,65590,2,0,P|422:280|372:303,1,95,10|0,0:2|1:2,0:0:0:0:
254,359,65915,1,2,1:2:0:0:
331,384,66077,1,0,1:2:0:0:
162,287,66239,1,10,0:2:0:0:
184,178,66401,6,0,P|227:197|271:213,1,95,0|0,1:2|0:0,0:0:0:0:
294,286,66726,1,0,1:2:0:0:
161,369,66888,1,8,0:2:0:0:
41,270,67050,1,2,1:2:0:0:
88,189,67212,1,2,1:2:0:0:
14,60,67374,2,0,P|45:23|153:38,1,142.5,2|0,1:2|0:0,0:0:0:0:
133,21,67698,1,2,1:2:0:0:
260,123,67861,6,0,P|251:116|243:67,1,47.5,6|0,1:2|0:0,0:0:0:0:
459,109,68023,1,8,0:2:0:0:
444,140,68104,1,8,0:2:0:0:
410,152,68185,1,10,0:2:0:0:
339,65,68347,1,0,1:2:0:0:
314,233,68509,1,10,0:2:0:0:
336,261,68590,1,8,0:2:0:0:
371,268,68671,1,8,0:2:0:0:
445,242,68834,1,2,3:2:0:0:
208,235,68996,5,8,0:0:0:0:
174,196,69077,1,8,0:0:0:0:
128,201,69158,2,0,P|116:230|109:267,2,63.3333333333333,8|8|8,0:0|0:0|0:0,0:0:0:0:
292,137,69482,2,0,P|304:108|311:71,2,63.3333333333333,8|4|4,0:0|1:3|1:3,0:0:0:0:
59,99,69807,6,0,P|38:89|0:79,2,63.3333333333333,8|8|8,1:3|1:3|1:3,0:0:0:0:
208,25,70131,2,0,P|238:17|267:4,2,63.3333333333333,0|0|0,1:0|1:0|1:0,0:0:0:0:
178,115,70455,5,6,1:2:0:0:
160,191,71753,1,6,1:2:0:0:
211,248,73050,1,6,1:2:0:0:
290,238,74347,1,6,1:2:0:0:
404,29,74834,6,0,L|459:15,1,47.5,8|8,0:0|0:0,0:0:0:0:
391,43,74996,5,4,1:3:0:0:
398,121,75239,5,8,1:3:0:0:
471,143,75482,5,2,1:2:0:0:
198,277,75644,6,0,P|249:288|280:299,1,76,6|0,1:2|0:0,0:0:0:0:
90,149,75969,2,0,P|47:184|71:258,1,114,2|0,0:0|0:0,0:0:0:0:
52,239,76293,2,0,P|97:224|135:217,1,76,2|0,1:2|0:0,0:0:0:0:
230,127,76617,2,0,P|298:147|360:162,1,114,2|0,0:0|0:0,0:0:0:0:
339,157,76942,5,0,1:2:0:0:
455,287,77104,2,0,P|443:327|396:355,1,76
333,241,77428,1,2,0:0:0:0:
262,360,77590,1,2,1:2:0:0:
334,324,77753,2,0,P|282:306|197:284,1,114,2|0,0:0|0:0,0:0:0:0:
225,290,78077,1,2,0:0:0:0:
401,121,78239,6,0,P|452:111|497:95,1,95,6|0,1:2|0:0,0:0:0:0:
427,268,78563,1,8,0:0:0:0:
262,206,78726,1,8,0:0:0:0:
262,206,78807,1,8,0:0:0:0:
262,206,78888,1,0,1:0:0:0:
494,0,79050,5,0,1:0:0:0:
494,0,79131,1,0,1:0:0:0:
494,0,79212,2,0,L|513:44,1,47.5,8|0,0:0|0:0,0:0:0:0:
274,109,79374,2,0,L|292:65,1,47.5,8|8,0:0|0:0,0:0:0:0:
402,19,79536,6,0,P|389:36|400:15,1,76,0|2,1:0|0:0,0:0:0:0:
221,284,81158,6,0,B|160:308|143:255|149:246|156:236|97:177|45:240,1,190,6|0,1:2|1:0,0:0:0:0:
17,296,81644,1,2,1:2:0:0:
206,181,81807,1,8,0:0:0:0:
100,127,81969,1,2,1:2:0:0:
330,90,82131,5,2,0:1:0:0:
278,381,82293,2,0,P|293:329|301:284,1,95,2|8,1:2|0:1,0:0:0:0:
423,94,82617,2,0,P|490:116|482:189,1,142.5,2|0,1:1|0:0,0:0:0:0:
490,178,82942,2,0,P|457:186|421:200,1,47.5,2|0,1:2|0:0,0:0:0:0:
216,80,83104,1,8,0:2:0:0:
312,4,83266,1,2,1:2:0:0:
82,32,83428,5,6,1:2:0:0:
228,219,83590,2,0,P|187:201|129:184,1,95,2|8,0:0|0:2,0:0:0:0:
18,328,83915,1,2,1:2:0:0:
49,315,83996,1,0,1:2:0:0:
63,289,84077,1,0,1:2:0:0:
93,104,84239,2,0,P|47:117|5:136,1,95,2|8,1:2|0:2,0:0:0:0:
139,186,84563,1,2,1:2:0:0:
375,97,84726,5,10,2:1:0:0:
215,43,84888,1,2,1:2:0:0:
180,274,85050,5,10,0:2:0:0:
446,166,85212,1,2,1:1:0:0:
132,351,85374,5,8,0:0:0:0:
169,375,85455,1,8,0:0:0:0:
219,384,85536,1,10,0:1:0:0:
266,363,85617,1,8,0:0:0:0:
295,333,85699,1,8,0:0:0:0:
321,320,85780,1,8,0:0:0:0:
343,320,85861,1,8,0:0:0:0:
357,328,85942,1,8,0:0:0:0:
418,378,86023,6,0,P|462:351|461:292,1,95,6|0,1:2|0:0,0:0:0:0:
293,92,86347,2,0,P|321:155|343:229,1,142.5,10|0,0:1|1:2,0:0:0:0:
342,225,86671,2,0,P|289:208|240:202,1,95,2|0,1:2|1:2,0:0:0:0:
172,312,86996,1,10,0:2:0:0:
0,190,87158,6,0,P|56:104|142:132,1,190,0|0,1:2|1:2,0:0:0:0:
163,319,87644,2,0,P|101:300|94:233,1,95,8|2,0:2|0:0,0:0:0:0:
225,119,87969,5,10,0:2:0:0:
269,99,88050,1,8,0:2:0:0:
310,109,88131,1,10,0:2:0:0:
339,144,88212,1,8,0:2:0:0:
342,183,88293,1,0,1:2:0:0:
316,222,88374,1,0,1:2:0:0:
278,235,88455,2,0,L|217:226,1,47.5,2|0,1:2|1:2,0:0:0:0:
431,147,88617,5,10,0:2:0:0:
431,147,89753,6,0,P|361:157|245:176,1,142.5,4|0,1:2|0:0,0:0:0:0:
290,168,90077,1,0,1:2:0:0:
391,351,90239,1,12,0:2:0:0:
273,295,90401,1,0,1:2:0:0:
189,332,90563,1,0,1:2:0:0:
428,229,90726,5,8,0:0:0:0:
267,308,90888,5,8,0:0:0:0:
111,143,91050,5,8,0:0:0:0:
