osu file format v14

[General]
AudioFilename: audio.mp3
AudioLeadIn: 0
PreviewTime: 49617
Countdown: 0
SampleSet: Soft
StackLeniency: 0.5
Mode: 0
LetterboxInBreaks: 0
WidescreenStoryboard: 1

[Editor]
Bookmarks: 1699,12077,13374,18563,28942,39320,47104,49698,68509,70455,75644,80834,81158,88617,89753,91212
DistanceSpacing: 1.9
BeatDivisor: 4
GridSize: 8
TimelineZoom: 3.199999

[Metadata]
Title:Pride Kakumei (TV Size)
TitleUnicode:プライド革命 (TV Size)
Artist:CHiCO with HoneyWorks
ArtistUnicode:CHiCO with HoneyWorks
Creator:pokeyyyy
Version:Normal
Source:銀魂゜
Tags:gintama gintama゜ gintoki silver soul opening 2015 anime japanese pop rock jpop j-pop jrock j-rock female vocals vocalist [poke] pokey xandeez nuts cirnop lean monster lean_monster dog food leomine leominexd hanakumo rin door weapon GIGAROBLOXIAN21
BeatmapID:3541564
BeatmapSetID:1703318

[Difficulty]
HPDrainRate:3
CircleSize:3.4
OverallDifficulty:4
ApproachRate:5
SliderMultiplier:1.1
SliderTickRate:1

[Events]
//Background and Video events
0,0,"EtOlhRz.jpeg",0,0
//Break Periods
2,70655,74444
//Storyboard Layer 0 (Background)
//Storyboard Layer 1 (Fail)
//Storyboard Layer 2 (Pass)
//Storyboard Layer 3 (Foreground)
//Storyboard Layer 4 (Overlay)
//Storyboard Sound Samples

[TimingPoints]
1699,324.324324324324,4,2,1,30,1,0
13374,-111.111111111111,4,2,1,70,0,0
18563,-117.647058823529,4,2,1,60,0,0
28942,-111.111111111111,4,2,1,50,0,0
44509,-111.111111111111,4,2,1,70,0,0
47104,-111.111111111111,4,2,1,40,0,0
48401,-111.111111111111,4,2,1,30,0,0
49698,-100,4,2,1,80,0,1
70455,-100,4,2,1,60,0,0
79536,-100,4,2,1,40,0,0
81158,-100,4,2,1,80,0,1
88617,-100,4,2,1,80,0,0

[Colours]
Combo1 : 73,97,228
Combo2 : 225,143,89
Combo3 : 240,106,106
Combo4 : 162,189,232

[HitObjects]
453,84,13374,5,6,1:2:0:0:
453,84,13536,2,0,P|443:161|436:205,1,98.9999969787599,2|2,0:0|1:2,0:0:0:0:
470,214,14023,1,2,1:2:0:0:
449,303,14347,1,10,0:1:0:0:
449,303,14509,2,0,P|411:339|356:327,1,98.9999969787599,6|2,1:2|1:2,0:0:0:0:
337,301,14996,2,0,P|268:282|219:270,1,98.9999969787599,10|2,0:2|1:2,0:0:0:0:
166,323,15644,2,0,L|106:341,1,49.4999984893799,10|0,0:2|1:2,0:0:0:0:
83,365,15969,6,0,P|35:338|36:283,1,98.9999969787599,6|8,1:2|0:2,0:0:0:0:
58,263,16455,1,2,1:2:0:0:
58,263,16617,1,2,1:2:0:0:
34,176,16942,1,10,0:1:0:0:
34,176,17104,2,0,P|73:129|121:133,1,98.9999969787599,6|2,1:2|1:2,0:0:0:0:
148,145,17590,1,10,0:2:0:0:
178,61,17915,2,0,L|243:46,1,49.4999984893799,10|10,0:2|0:2,0:0:0:0:
261,76,18239,2,0,L|326:91,1,49.4999984893799,10|8,0:2|0:2,0:0:0:0:
349,63,18563,6,0,P|382:98|372:153,1,93.500001783371,2|8,1:2|0:2,0:0:0:0:
311,205,19212,1,2,1:2:0:0:
311,205,19374,2,0,L|206:241,1,93.500001783371,2|2,1:2|1:2,0:0:0:0:
209,280,19861,2,0,P|232:354|240:388,1,93.500001783371,2|10,1:2|0:2,0:0:0:0:
329,375,20509,1,2,1:2:0:0:
406,315,20834,1,10,0:2:0:0:
452,233,21158,6,0,P|424:158|416:130,1,93.500001783371,2|8,1:2|0:2,0:0:0:0:
431,99,21644,2,0,P|400:51|360:50,1,93.500001783371,0|0,0:0|1:2,0:0:0:0:
330,74,22131,1,10,0:2:0:0:
330,74,22293,1,2,1:2:0:0:
259,135,22617,2,0,L|196:147,1,46.7500008916855,0|8,1:0|0:0,0:0:0:0:
167,62,23104,2,0,L|111:49,1,46.7500008916855,2|2,1:2|1:2,0:0:0:0:
87,19,23428,1,10,0:2:0:0:
32,94,23753,6,0,P|40:146|42:194,1,93.500001783371,2|10,1:1|0:2,0:0:0:0:
8,219,24239,1,2,0:1:0:0:
78,278,24563,1,2,1:0:0:0:
78,278,24726,1,8,0:2:0:0:
151,221,25050,2,0,L|161:156,2,46.7500008916855,2|2|10,1:1|1:2|0:2,0:0:0:0:
189,246,25536,2,0,P|235:264|280:287,1,93.500001783371,2|2,0:1|1:1,0:0:0:0:
291,327,26023,1,8,0:2:0:0:
364,269,26347,5,2,1:2:0:0:
364,269,26509,1,2,0:0:0:0:
450,306,26834,1,2,0:0:0:0:
486,220,27158,2,0,L|473:170,1,46.7500008916855,2|8,1:2|0:2,0:0:0:0:
437,146,27482,1,6,1:1:0:0:
108,65,28942,6,0,P|41:46|-5:39,2,98.9999969787599,6|2|10,1:2|1:2|1:1,0:0:0:0:
145,156,29915,2,0,L|155:209,1,49.4999984893799,2|10,1:2|0:0,0:0:0:0:
73,259,30401,1,2,0:0:0:0:
73,259,30563,2,0,L|59:314,1,49.4999984893799,2|2,1:2|0:0,0:0:0:0:
89,347,30888,1,10,1:2:0:0:
172,294,31212,1,2,0:0:0:0:
266,322,31536,6,0,P|292:360|349:369,2,98.9999969787599,6|2|10,1:2|1:2|1:1,0:0:0:0:
289,278,32347,2,0,P|278:214|268:175,1,98.9999969787599,2|8,0:0|0:2,0:0:0:0:
235,145,32834,1,2,1:2:0:0:
298,69,33158,2,0,P|369:46|408:34,1,98.9999969787599,2|2,1:1|0:2,0:0:0:0:
490,212,34131,6,0,P|461:246|398:250,1,98.9999969787599,4|2,1:2|1:2,0:0:0:0:
313,228,34780,1,10,1:2:0:0:
230,273,35104,2,0,P|183:257|163:207,1,98.9999969787599,2|2,1:2|1:2,0:0:0:0:
174,116,35752,1,2,0:0:0:0:
90,67,36077,1,10,1:2:0:0:
23,130,36401,2,0,P|29:157|32:188,1,49.4999984893799,2|8,0:0|0:2,0:0:0:0:
2,219,36726,5,4,1:2:0:0:
11,317,37050,1,2,1:2:0:0:
95,369,37374,2,0,P|162:353|204:351,1,98.9999969787599,10|2,1:2|0:0,0:0:0:0:
239,365,37861,1,0,1:2:0:0:
239,365,38023,1,8,0:2:0:0:
296,284,38347,2,0,L|278:226,1,49.4999984893799,10|0,0:1|1:2,0:0:0:0:
242,205,38671,1,10,0:2:0:0:
290,118,38996,2,0,L|305:70,1,49.4999984893799,10|8,1:2|0:2,0:0:0:0:
294,23,39320,6,0,P|386:1|410:-3,1,98.9999969787599,14|8,1:2|0:2,0:0:0:0:
412,44,39807,2,0,P|439:81|500:80,1,98.9999969787599
507,136,40293,1,8,0:2:0:0:
507,136,40455,1,0,0:2:0:0:
471,231,40780,1,0,0:0:0:0:
471,231,40942,2,0,P|402:242|357:250,1,98.9999969787599,10|2,0:2|1:2,0:0:0:0:
323,332,41590,1,10,0:2:0:0:
228,319,41915,6,0,P|215:270|236:226,1,98.9999969787599,2|8,1:2|0:2,0:0:0:0:
309,162,42563,1,2,1:2:0:0:
272,80,42888,1,10,0:1:0:0:
185,44,43212,1,2,1:2:0:0:
185,44,43374,2,0,L|127:59,1,49.4999984893799,8|0,0:2|1:2,0:0:0:0:
88,46,43698,1,2,0:0:0:0:
27,125,44023,1,0,1:0:0:0:
27,125,44185,1,10,0:1:0:0:
77,209,44509,6,0,P|123:197|143:192,2,49.4999984893799,2|0|8,1:2|0:0|0:2,0:0:0:0:
56,251,44996,1,0,1:2:0:0:
105,342,45320,1,0,1:0:0:0:
105,342,45482,2,0,L|165:322,1,49.4999984893799,8|0,0:2|1:2,0:0:0:0:
187,291,45807,1,0,1:2:0:0:
253,364,46131,2,0,L|312:378,1,49.4999984893799,10|0,0:2|1:2,0:0:0:0:
347,357,46455,1,2,1:2:0:0:
415,285,46780,2,0,P|407:256|400:225,1,49.4999984893799,10|8,0:2|0:2,0:0:0:0:
435,200,47104,5,6,1:1:0:0:
152,367,49698,5,6,1:2:0:0:
152,367,49861,2,0,P|137:323|129:305,1,55,2|8,0:2|0:2,0:0:0:0:
86,287,50185,1,2,1:2:0:0:
20,198,50509,2,0,P|37:150|99:136,1,110,2|2,1:1|1:2,0:0:0:0:
134,165,50996,1,2,0:1:0:0:
228,106,51320,1,10,0:1:0:0:
228,106,51482,2,0,L|286:122,1,55,2|0,1:1|1:2,0:0:0:0:
330,96,51807,1,2,1:2:0:0:
424,37,52131,1,2,1:2:0:0:
424,37,52293,6,0,P|477:42|495:100,1,110,6|8,1:2|0:2,0:0:0:0:
457,128,52780,1,2,1:2:0:0:
490,232,53104,2,0,P|474:300|463:360,1,110,2|2,1:2|1:2,0:0:0:0:
422,372,53590,2,0,P|388:360|357:348,1,55,2|2,0:0|1:2,0:0:0:0:
320,370,53915,1,10,0:2:0:0:
320,370,54077,1,2,1:2:0:0:
252,283,54401,1,2,1:2:0:0:
148,312,54726,1,2,1:2:0:0:
148,312,54888,6,0,P|89:299|80:242,1,110,6|10,1:2|0:1,0:0:0:0:
106,212,55374,1,0,1:2:0:0:
106,212,55536,1,2,1:2:0:0:
46,125,55861,1,10,0:2:0:0:
46,125,56023,2,0,P|67:56|82:8,1,110,0|0,1:2|1:2,0:0:0:0:
130,4,56509,1,8,0:2:0:0:
213,84,56834,1,2,1:2:0:0:
213,84,56996,2,0,P|282:74|347:71,1,110,2|2,1:2|1:2,0:0:0:0:
372,93,57482,6,0,P|381:135|392:161,1,55,6|0,1:2|0:0,0:0:0:0:
436,166,57807,1,10,0:2:0:0:
496,257,58131,2,0,P|483:298|477:330,1,55,2|0,1:2|1:2,0:0:0:0:
490,363,58455,1,10,0:2:0:0:
369,384,58780,2,0,P|322:373|293:368,1,55,8|0,0:2|1:2,0:0:0:0:
285,325,59104,2,0,P|208:294|210:257,1,110,10|10,0:2|0:2,0:0:0:0:
248,243,59590,1,0,1:2:0:0:
248,243,59753,2,0,P|231:201|224:180,1,55,10|8,0:2|0:2,0:0:0:0:
185,157,60077,5,6,1:2:0:0:
86,121,60401,1,10,0:2:0:0:
86,121,60563,2,0,P|60:158|56:184,1,55,2|0,1:2|1:2,0:0:0:0:
7,190,60888,1,2,1:2:0:0:
39,300,61212,1,2,1:2:0:0:
39,300,61374,2,0,L|-2:347,2,55,2|2|8,0:1|1:1|0:2,0:0:0:0:
89,278,61861,2,0,P|156:269|210:253,1,110,2|2,1:2|1:2,0:0:0:0:
270,346,62509,1,2,1:2:0:0:
270,346,62671,6,0,P|340:325|357:277,1,110,6|8,1:1|0:2,0:0:0:0:
345,241,63158,1,2,1:2:0:0:
434,175,63482,1,2,1:2:0:0:
434,175,63644,2,0,P|446:136|446:109,1,55,8|2,0:2|1:2,0:0:0:0:
413,77,63969,1,2,0:1:0:0:
318,130,64293,1,10,0:2:0:0:
318,130,64455,1,2,1:1:0:0:
211,100,64780,2,0,P|221:62|227:24,1,55,2|8,1:2|0:2,0:0:0:0:
191,9,65104,1,2,1:2:0:0:
191,9,65266,5,6,1:2:0:0:
104,76,65590,2,0,P|53:97|-19:123,1,110,10|2,0:2|1:2,0:0:0:0:
23,228,66239,1,10,0:2:0:0:
23,228,66401,2,0,P|36:274|114:292,1,110,0|0,1:2|1:2,0:0:0:0:
142,284,66888,2,0,P|161:251|168:222,1,55,8|2,0:2|1:2,0:0:0:0:
220,218,67212,1,2,1:2:0:0:
220,218,67374,1,2,1:2:0:0:
321,172,67698,1,2,1:2:0:0:
321,172,67861,5,6,1:2:0:0:
378,265,68185,2,0,P|393:304|402:338,1,55,10|0,0:2|1:2,0:0:0:0:
433,357,68509,1,10,0:2:0:0:
498,268,68834,2,0,P|505:241|512:214,1,55,2|8,3:2|0:0,0:0:0:0:
477,172,69158,2,0,P|465:132|446:55,1,110,8|8,0:0|0:0,0:0:0:0:
346,107,69807,2,0,P|314:147|314:192,2,73.3333333333333,8|12|0,1:3|1:3|1:0,1:0:0:0:
298,41,70455,5,6,1:2:0:0:
100,103,75644,6,0,P|86:63|22:35,2,110,6|2|2,1:2|0:0|1:2,0:0:0:0:
27,185,76617,1,2,0:0:0:0:
29,286,76942,2,0,P|84:292|141:315,1,110,0|0,1:2|0:0,0:0:0:0:
218,363,77590,1,2,1:2:0:0:
218,363,77753,2,0,P|266:312|255:268,1,110,2|2,0:0|0:0,0:0:0:0:
221,247,78239,5,6,1:2:0:0:
247,151,78563,2,0,P|254:108|258:81,1,55,8|8,0:0|0:0,0:0:0:0:
294,65,78888,1,0,1:0:0:0:
378,115,79212,2,0,P|422:108|451:100,1,55,8|8,0:0|0:0,0:0:0:0:
476,128,79536,5,0,1:0:0:0:
476,227,79861,1,2,0:0:0:0:
407,297,80185,1,2,0:0:0:0:
309,283,80509,1,2,0:0:0:0:
137,154,81158,5,6,1:2:0:0:
137,154,81320,2,0,P|93:183|87:251,1,110,2|2,0:2|1:2,0:0:0:0:
105,286,81807,1,8,0:0:0:0:
210,247,82131,1,2,0:1:0:0:
210,247,82293,2,0,P|256:259|330:294,1,110,2|2,1:2|1:1,0:0:0:0:
400,359,82942,1,2,1:2:0:0:
400,359,83104,2,0,P|444:347|470:341,1,55,8|2,0:2|1:2,0:0:0:0:
499,364,83428,5,6,1:2:0:0:
499,364,83590,1,2,0:0:0:0:
492,253,83915,2,0,P|481:218|459:134,1,110,2|2,1:2|1:2,0:0:0:0:
375,88,84563,1,2,1:2:0:0:
375,88,84726,2,0,P|383:45|385:13,2,55,10|2|10,2:1|1:2|0:2,0:0:0:0:
335,125,85212,1,2,1:1:0:0:
241,66,85536,2,0,P|190:53|165:46,1,55,10|8,0:1|0:0,0:0:0:0:
143,75,85861,1,8,0:0:0:0:
143,75,86023,6,0,P|150:171|149:208,1,110,6|10,1:2|0:1,0:0:0:0:
70,260,86671,2,0,P|62:301|58:327,1,55,2|0,1:2|1:2,0:0:0:0:
90,354,86996,1,10,0:2:0:0:
90,354,87158,2,0,P|152:343|205:329,1,110,0|0,1:2|1:2,0:0:0:0:
247,354,87644,1,8,0:2:0:0:
347,304,87969,1,10,0:2:0:0:
347,304,88131,2,0,P|335:256|330:231,1,55,10|0,0:2|1:2,0:0:0:0:
355,207,88455,1,2,1:2:0:0:
355,207,88617,1,10,0:2:0:0:
61,14,89753,6,0,P|75:85|79:140,1,110,4|0,1:2|1:2,0:0:0:0:
41,163,90239,1,12,0:2:0:0:
85,269,90563,1,0,1:2:0:0:
85,269,90726,2,0,P|136:290|151:294,2,55,8|8|8,0:0|0:0|0:0,0:0:0:0:
