osu file format v14

[General]
AudioFilename: audio.mp3
AudioLeadIn: 0
PreviewTime: 49617
Countdown: 0
SampleSet: Soft
StackLeniency: 0.5
Mode: 0
LetterboxInBreaks: 0
WidescreenStoryboard: 0

[Editor]
Bookmarks: 1699,12077,13374,18563,28942,39320,47104,49698,68509,70455,75644,80834,81158,88617,89753,91212
DistanceSpacing: 1.9
BeatDivisor: 4
GridSize: 8
TimelineZoom: 3.199999

[Metadata]
Title:Pride Kakumei (TV Size)
TitleUnicode:プライド革命 (TV Size)
Artist:CHiCO with HoneyWorks
ArtistUnicode:CHiCO with HoneyWorks
Creator:pokeyyyy
Version:Leomine's Hard
Source:銀魂゜
Tags:gintama gintama゜ gintoki silver soul opening 2015 anime japanese pop rock jpop j-pop jrock j-rock female vocals vocalist [poke] pokey xandeez nuts cirnop lean monster lean_monster dog food leomine leominexd hanakumo rin door weapon GIGAROBLOXIAN21
BeatmapID:3578798
BeatmapSetID:1703318

[Difficulty]
HPDrainRate:4
CircleSize:3.2
OverallDifficulty:6.5
ApproachRate:8
SliderMultiplier:1.3
SliderTickRate:1

[Events]
//Background and Video events
0,0,"EtOlhRz.jpeg",0,0
//Break Periods
//Storyboard Layer 0 (Background)
//Storyboard Layer 1 (Fail)
//Storyboard Layer 2 (Pass)
//Storyboard Layer 3 (Foreground)
//Storyboard Layer 4 (Overlay)
//Storyboard Sound Samples

[TimingPoints]
1699,324.324324324324,4,2,1,50,1,0
1699,-133.333333333333,4,2,1,50,0,0
10617,-153.846153846153,4,2,1,30,0,0
13374,-111.111111111111,4,2,1,70,0,0
18563,-117.647058823529,4,2,1,60,0,0
28942,-142.857142857143,4,2,1,50,0,0
39320,-117.647058823529,4,2,1,60,0,0
44509,-117.647058823529,4,2,1,70,0,0
47104,-117.647058823529,4,2,1,40,0,0
48401,-117.647058823529,4,2,1,30,0,0
49698,-105.263157894737,4,2,1,80,0,1
70455,-100,4,2,1,60,0,0
75644,-125,4,2,1,60,0,0
79536,-125,4,2,1,40,0,0
81158,-105.263157894737,4,2,1,80,0,1
88617,-105.263157894737,4,2,1,80,0,0

[Colours]
Combo1 : 73,97,228
Combo2 : 225,143,89
Combo3 : 240,106,106
Combo4 : 162,189,232

[HitObjects]
31,107,1699,5,2,0:0:0:0:
31,107,1861,2,0,L|126:89,1,97.5000037193299,2|2,0:0|0:0,0:0:0:0:
201,136,2347,1,2,0:0:0:0:
201,136,2509,2,0,P|174:176|177:223,1,97.5000037193299,2|2,0:0|0:0,0:0:0:0:
234,295,2996,6,0,L|281:286,1,48.750001859665,2|0,0:0|0:0,0:0:0:0:
311,201,3320,2,0,L|358:192,1,48.750001859665,2|0,0:0|0:0,0:0:0:0:
437,241,3644,2,0,P|450:195|440:148,1,97.5000037193299,2|2,0:0|0:0,0:0:0:0:
326,48,4293,6,0,L|227:66,1,97.5000037193299,2|0,0:0|0:0,0:0:0:0:
101,147,4942,2,0,P|74:106|80:59,1,97.5000037193299,0|2,0:0|0:0,0:0:0:0:
158,15,5428,1,2,0:0:0:0:
230,65,5590,6,0,L|212:160,1,97.5000037193299
108,290,6239,2,0,L|60:277,2,48.750001859665,2|2|2,0:1|0:1|0:0,0:0:0:0:
275,369,6888,2,0,L|323:356,2,48.750001859665,2|2|2,0:1|0:1|0:0,0:0:0:0:
423,374,7374,2,0,P|403:329|407:281,1,97.5000037193299,2|2,0:0|0:0,0:0:0:0:
489,150,8023,1,0,0:0:0:0:
402,103,8185,6,0,P|393:68|387:42,2,48.750001859665,2|2|2,0:1|2:1|0:0,0:0:0:0:
324,164,8671,2,0,P|277:176|229:188,1,97.5000037193299,2|2,0:0|0:0,0:0:0:0:
57,94,9320,1,2,0:0:0:0:
123,33,9482,5,2,0:1:0:0:
123,33,9644,2,0,L|219:53,1,97.5000037193299,2|2,0:1|0:0,0:0:0:0:
300,87,10131,1,2,0:1:0:0:
300,87,10293,2,0,L|347:75,1,48.750001859665,2|0,0:1|0:0,0:0:0:0:
430,16,10617,5,2,0:0:0:0:
512,102,10942,1,2,0:0:0:0:
447,200,11266,2,0,P|425:281|415:365,1,168.999992263794,2|0,0:0|0:0,0:0:0:0:
317,384,12077,2,0,P|243:314|270:217,1,211.249990329743,2|0,0:0|0:0,0:0:0:0:
268,218,13374,6,0,P|212:200|155:186,1,116.999996429443,6|8,1:2|0:2,0:0:0:0:
47,195,13861,1,2,1:2:0:0:
47,195,13942,1,0,1:2:0:0:
47,195,14023,2,0,P|60:166|63:139,1,58.4999982147217,2|0,1:2|1:2,0:0:0:0:
0,59,14347,1,10,0:1:0:0:
94,6,14509,6,0,B|137:18|137:18|149:39|149:39|194:54,1,116.999996429443,6|2,1:2|1:2,0:0:0:0:
272,116,14996,1,10,0:2:0:0:
345,44,15158,1,0,1:0:0:0:
345,44,15239,1,0,1:0:0:0:
345,44,15320,6,0,L|407:58,1,58.4999982147217,2|2,1:2|1:2,0:0:0:0:
501,51,15644,2,0,L|487:113,1,58.4999982147217,10|0,0:2|1:2,0:0:0:0:
461,133,15888,1,0,1:2:0:0:
461,133,15969,6,0,B|438:195|489:184|470:250,1,116.999996429443,6|8,1:2|0:2,0:0:0:0:
415,327,16455,1,2,1:2:0:0:
415,327,16536,1,0,1:2:0:0:
415,327,16617,2,0,P|387:318|358:311,1,58.4999982147217,2|0,1:2|1:2,0:0:0:0:
276,255,16942,1,10,0:1:0:0:
189,319,17104,6,0,P|174:259|156:201,1,116.999996429443,6|2,1:2|1:2,0:0:0:0:
74,154,17590,2,0,L|90:95,1,58.4999982147217,10|0,0:2|0:0,0:0:0:0:
173,33,17915,2,0,L|163:0,2,29.2499991073609,10|8|10,0:2|0:2|0:2,0:0:0:0:
246,109,18239,2,0,L|236:141,2,29.2499991073609,10|8|8,0:2|0:2|0:2,0:0:0:0:
322,18,18563,5,2,1:2:0:0:
322,18,18726,2,0,B|377:9|377:9|423:39,1,110.50000210762,2|2,0:2|0:2,0:0:0:0:
483,111,19212,1,2,1:2:0:0:
483,111,19374,2,0,P|454:157|461:211,1,110.50000210762,2|2,1:2|1:2,0:0:0:0:
501,292,19861,6,0,P|473:297|447:305,1,55.2500010538101,2|0,1:2|1:2,0:0:0:0:
361,342,20185,2,0,P|356:314|348:288,1,55.2500010538101,10|0,0:2|0:0,0:0:0:0:
269,239,20509,2,0,L|281:185,2,55.2500010538101,2|0|10,1:2|1:2|0:2,0:0:0:0:
76,347,21158,6,0,P|66:292|48:240,1,110.50000210762,2|8,1:2|0:2,0:0:0:0:
1,163,21644,1,0,0:0:0:0:
1,163,21807,2,0,L|15:106,1,55.2500010538101,0|0,1:2|1:2,0:0:0:0:
83,45,22131,1,10,0:2:0:0:
158,106,22293,6,0,P|211:114|256:84,1,110.50000210762,2|0,0:0|1:2,0:0:0:0:
256,84,22780,1,8,0:2:0:0:
159,251,23104,1,2,1:2:0:0:
159,251,23266,1,2,1:2:0:0:
234,303,23428,2,0,P|273:290|314:284,1,82.8750015807152,10|0,0:2|0:0,0:0:0:0:
338,260,23753,6,0,L|393:272,1,55.2500010538101,2|2,1:1|0:0,0:0:0:0:
471,323,24077,1,10,0:2:0:0:
471,323,24239,2,0,L|496:212,1,110.50000210762,2|2,0:1|1:0,0:0:0:0:
445,136,24726,1,8,0:2:0:0:
360,182,24888,1,0,0:0:0:0:
360,182,25050,6,0,P|332:180|309:165,1,55.2500010538101,2|2,1:1|1:2,0:0:0:0:
257,88,25374,1,10,0:2:0:0:
319,19,25536,2,0,P|372:13|417:43,1,110.50000210762,2|2,0:1|1:1,0:0:0:0:
445,136,26023,1,8,0:2:0:0:
360,182,26185,1,2,0:0:0:0:
360,182,26347,6,0,L|386:292,1,110.50000210762,2|8,1:2|0:2,0:0:0:0:
318,356,26834,2,0,P|292:345|264:342,1,55.2500010538101,2|0,0:0|1:2,0:0:0:0:
214,264,27158,2,0,P|188:274|160:277,1,55.2500010538101,2|8,1:2|0:2,0:0:0:0:
62,337,27482,5,6,1:1:0:0:
62,337,28131,1,10,0:2:0:0:
62,337,28212,1,8,0:0:0:0:
62,337,28293,6,0,L|48:282,1,55.2500010538101,8|4,0:0|1:3,0:0:0:0:
17,192,28617,2,0,L|3:137,1,55.2500010538101,8|0,1:3|1:0,0:0:0:0:
71,52,28942,6,0,B|108:78|108:78|153:77,1,90.9999972229005,6|2,1:2|1:2,0:0:0:0:
289,24,29590,2,0,P|270:65|272:110,1,90.9999972229005,10|2,1:1|0:0,0:0:0:0:
340,178,30077,1,10,0:2:0:0:
340,178,30158,1,8,0:2:0:0:
340,178,30239,6,0,L|332:225,1,45.4999986114502,0|2,1:2|0:0,0:0:0:0:
241,251,30563,2,0,L|233:298,1,45.4999986114502,2|2,1:2|0:0,0:0:0:0:
304,364,30888,2,0,P|342:341|387:345,1,90.9999972229005,10|2,1:2|0:0,0:0:0:0:
487,355,31374,1,8,0:2:0:0:
487,355,31455,1,8,0:2:0:0:
487,355,31536,6,0,P|464:316|468:271,1,90.9999972229005,6|2,1:2|1:2,0:0:0:0:
512,132,32185,1,10,1:1:0:0:
512,132,32347,2,0,B|470:124|470:124|464:118|464:118|421:111,1,90.9999972229005,2|8,0:0|0:2,0:0:0:0:
397,90,32753,1,8,0:2:0:0:
397,90,32834,6,0,L|350:99,1,45.4999986114502,2|8,1:2|0:2,0:0:0:0:
283,164,33158,2,0,P|245:139|200:139,2,90.9999972229005,2|2|2,1:1|0:2|3:2,0:0:0:0:
134,206,34131,6,0,P|109:168|109:123,1,90.9999972229005,4|2,1:2|1:2,0:0:0:0:
202,11,34780,2,0,P|246:20|290:31,1,90.9999972229005,10|2,1:2|0:0,0:0:0:0:
352,98,35266,1,0,0:0:0:0:
352,98,35428,6,0,P|327:135|330:179,1,90.9999972229005,0|2,1:2|1:2,0:0:0:0:
454,258,36077,2,0,P|457:302|432:339,1,90.9999972229005,10|2,1:2|0:0,0:0:0:0:
344,381,36563,1,8,0:2:0:0:
344,381,36644,1,8,0:2:0:0:
344,381,36726,6,0,B|310:372|310:372|295:353|295:353|257:343,1,90.9999972229005,4|2,1:2|1:2,0:0:0:0:
187,236,37374,2,0,L|91:260,1,90.9999972229005,10|2,0:0|1:2,0:0:0:0:
9,295,37861,1,0,0:0:0:0:
0,200,38023,6,0,L|12:153,1,45.4999986114502,8|0,0:2|1:2,0:0:0:0:
86,96,38347,2,0,L|132:108,1,45.4999986114502,10|0,0:1|1:2,0:0:0:0:
204,168,38671,1,2,1:2:0:0:
278,87,38834,1,8,0:2:0:0:
278,87,38915,1,8,0:2:0:0:
278,87,38996,2,0,L|306:94,3,22.7499993057251,10|8|8|8,0:2|0:0|0:2|0:2,0:0:0:0:
331,78,39320,6,0,B|385:67|385:67|433:96,2,110.50000210762,14|8|0,1:2|0:2|1:2,0:0:0:0:
270,150,40131,1,0,0:0:0:0:
270,150,40293,2,0,L|283:203,1,55.2500010538101,8|0,0:2|0:0,0:0:0:0:
357,257,40617,6,0,P|371:308|343:354,1,110.50000210762,0|10,1:2|0:2,0:0:0:0:
246,359,41104,1,0,0:0:0:0:
246,359,41266,2,0,L|259:305,1,55.2500010538101,2|0,1:2|0:0,0:0:0:0:
166,300,41590,2,0,L|179:246,1,55.2500010538101,10|0,0:2|0:0,0:0:0:0:
85,243,41915,6,0,L|112:132,1,110.50000210762,2|8,1:2|0:2,0:0:0:0:
181,77,42401,1,0,0:0:0:0:
254,136,42563,2,0,P|280:128|311:121,1,55.2500010538101,2|0,1:2|0:0,0:0:0:0:
352,39,42888,2,0,P|378:46|409:53,1,55.2500010538101,10|0,0:1|0:0,0:0:0:0:
486,120,43212,5,2,1:2:0:0:
422,192,43374,1,8,0:2:0:0:
422,192,43455,1,8,0:2:0:0:
422,192,43536,2,0,P|429:218|436:249,1,55.2500010538101,0|2,1:2|0:0,0:0:0:0:
366,309,43861,2,0,L|333:300,3,27.6250005269051,0|0|0|0,1:2|1:0|1:0|1:0,0:0:0:0:
313,280,44185,2,0,P|272:277|239:301,1,82.8750015807152,10|0,0:1|0:0,0:0:0:0:
221,332,44509,6,0,P|195:320|168:316,1,55.2500010538101,2|0,1:2|0:0,0:0:0:0:
71,320,44834,2,0,L|84:263,1,55.2500010538101,8|0,0:2|1:2,0:0:0:0:
110,238,45077,1,0,1:2:0:0:
110,238,45158,2,0,L|97:183,1,55.2500010538101,0|0,1:2|1:0,0:0:0:0:
27,118,45482,1,8,0:2:0:0:
93,44,45644,1,0,1:2:0:0:
93,44,45807,6,0,L|146:56,1,55.2500010538101,0|0,1:2|0:0,0:0:0:0:
205,131,46131,1,10,0:0:0:0:
300,93,46293,2,0,L|290:51,2,27.6250005269051,0|0|2,1:0|1:0|1:2,0:0:0:0:
385,146,46617,1,0,1:0:0:0:
385,146,46780,1,10,0:2:0:0:
334,233,46942,1,8,0:2:0:0:
334,233,47023,1,8,0:2:0:0:
334,233,47104,5,6,1:1:0:0:
308,80,49698,6,0,B|245:92|258:35|191:48,1,123.499996702194,6|8,1:2|0:2,0:0:0:0:
93,36,50185,1,2,1:2:0:0:
93,36,50266,1,0,1:2:0:0:
93,36,50347,2,0,P|100:65|104:96,1,61.7499983510972,0|2,1:2|1:1,0:0:0:0:
59,184,50671,1,8,0:2:0:0:
143,237,50834,6,0,P|199:218|249:251,1,123.499996702194,2|2,1:2|1:2,0:0:0:0:
311,329,51320,1,10,0:1:0:0:
391,266,51482,1,2,1:1:0:0:
391,266,51563,1,0,1:2:0:0:
391,266,51644,2,0,L|458:287,1,61.7499983510972,0|2,1:2|1:2,0:0:0:0:
478,189,51969,2,0,L|419:170,1,61.7499983510972,8|2,0:2|1:2,0:0:0:0:
322,190,52293,6,0,P|323:129|364:85,1,123.499996702194,6|8,1:2|0:2,0:0:0:0:
445,27,52780,1,2,1:2:0:0:
445,27,52861,1,0,1:2:0:0:
445,27,52942,2,0,L|503:45,1,61.7499983510972,0|2,1:2|1:2,0:0:0:0:
364,85,53266,1,8,0:2:0:0:
296,9,53428,6,0,B|250:21|250:21|233:51|233:51|181:65,1,123.499996702194,2|2,1:2|1:2,0:0:0:0:
101,25,53915,1,10,0:2:0:0:
35,98,54077,1,2,1:2:0:0:
35,98,54158,1,0,1:2:0:0:
35,98,54239,2,0,L|50:157,1,61.7499983510972,0|2,1:2|1:2,0:0:0:0:
153,157,54563,1,8,0:0:0:0:
109,245,54726,1,2,1:2:0:0:
109,245,54807,1,0,1:0:0:0:
109,245,54888,6,0,P|69:289|80:347,1,123.499996702194,6|10,1:2|0:1,0:0:0:0:
178,329,55374,1,0,1:2:0:0:
178,329,55455,1,0,1:2:0:0:
178,329,55536,2,0,P|208:322|238:317,1,61.7499983510972,2|0,1:2|1:2,0:0:0:0:
327,363,55861,1,10,0:2:0:0:
391,284,56023,6,0,L|368:162,1,123.499996702194,0|0,1:2|1:2,0:0:0:0:
407,72,56509,1,8,0:2:0:0:
323,15,56671,1,2,1:2:0:0:
323,15,56753,1,0,1:2:0:0:
323,15,56834,2,0,L|256:27,1,61.7499983510972,2|2,1:2|1:2,0:0:0:0:
212,111,57158,2,0,L|146:95,1,61.7499983510972,8|2,0:2|1:2,0:0:0:0:
76,28,57482,6,0,P|48:81|58:141,1,123.499996702194,6|10,1:2|0:2,0:0:0:0:
136,209,57969,1,0,1:2:0:0:
136,209,58050,1,0,1:2:0:0:
136,209,58131,2,0,P|125:237|117:267,1,61.7499983510972,2|0,1:2|1:2,0:0:0:0:
28,309,58455,2,0,P|38:337|46:367,1,61.7499983510972,10|0,0:2|1:2,0:0:0:0:
163,349,58780,6,0,B|233:333|215:386|279:372,1,123.499996702194,8|10,0:2|0:2,0:0:0:0:
421,236,59428,2,0,P|406:208|406:178,1,61.7499983510972,10|0,0:2|1:2,0:0:0:0:
428,150,59671,1,0,1:2:0:0:
428,150,59753,1,10,0:2:0:0:
359,63,59915,1,8,0:2:0:0:
359,63,59996,1,8,0:2:0:0:
359,63,60077,6,0,P|364:32|374:3,1,61.7499983510972,6|2,1:2|0:0,0:0:0:0:
308,144,60401,1,10,0:0:0:0:
214,129,60563,2,0,B|171:117|171:117|153:87|153:87|108:75,1,123.499996702194,2|2,1:2|1:2,0:0:0:0:
41,17,61050,1,8,0:2:0:0:
41,17,61212,1,2,1:2:0:0:
11,115,61374,5,2,0:1:0:0:
90,174,61536,2,0,P|81:203|75:233,1,61.7499983510972,2|8,1:1|0:2,0:0:0:0:
26,320,61861,1,2,1:2:0:0:
26,320,61942,1,0,1:2:0:0:
26,320,62023,2,0,P|45:343|73:356,1,61.7499983510972,0|2,1:2|1:2,0:0:0:0:
153,310,62347,2,0,P|182:317|205:338,1,61.7499983510972,8|2,0:2|1:2,0:0:0:0:
304,377,62671,6,0,P|314:316|328:256,1,123.499996702194,6|8,1:1|0:2,0:0:0:0:
409,189,63158,2,0,P|412:158|399:130,1,61.7499983510972,2|0,1:2|1:2,0:0:0:0:
345,48,63482,2,0,P|315:58|286:67,1,61.7499983510972,2|8,1:2|0:2,0:0:0:0:
204,128,63807,1,2,1:2:0:0:
119,72,63969,6,0,P|129:42|138:13,1,61.7499983510972,2|2,0:1|1:2,0:0:0:0:
204,128,64293,1,10,0:2:0:0:
113,180,64455,1,2,1:1:0:0:
113,180,64536,1,0,1:2:0:0:
113,180,64617,2,0,P|123:209|132:238,1,61.7499983510972,0|2,1:2|1:2,0:0:0:0:
217,291,64942,1,8,0:2:0:0:
169,377,65104,1,2,1:2:0:0:
169,377,65185,1,0,1:2:0:0:
169,377,65266,6,0,P|109:373|77:323,1,123.499996702194,6|10,1:2|0:2,0:0:0:0:
132,238,65753,1,0,1:2:0:0:
132,238,65834,1,0,1:2:0:0:
132,238,65915,2,0,L|190:219,1,61.7499983510972,2|0,1:2|1:2,0:0:0:0:
255,144,66239,1,10,0:2:0:0:
317,223,66401,6,0,P|377:234|424:198,1,123.499996702194,0|0,1:2|1:2,0:0:0:0:
468,109,66888,1,8,0:2:0:0:
382,49,67050,1,2,1:2:0:0:
382,49,67131,1,0,1:2:0:0:
382,49,67212,2,0,L|317:65,1,61.7499983510972,2|2,1:2|1:2,0:0:0:0:
255,144,67536,2,0,L|190:128,1,61.7499983510972,8|2,0:2|1:2,0:0:0:0:
111,71,67861,6,0,L|120:41,3,30.8749991755486,6|0|8|8,1:2|0:0|0:2|0:2,0:0:0:0:
87,98,68185,2,0,L|103:157,1,61.7499983510972,10|0,0:2|1:2,0:0:0:0:
179,230,68509,2,0,L|208:221,3,30.8749991755486,10|8|8|8,0:2|0:2|0:2|0:2,0:0:0:0:
246,238,68834,1,2,3:2:0:0:
325,174,68996,1,8,0:0:0:0:
325,174,69077,1,8,0:0:0:0:
325,174,69158,6,0,P|365:173|400:194,1,82.3333311347962,8|8,0:0|0:0,0:0:0:0:
415,224,69482,6,0,L|403:263,2,41.1666655673981,8|4|4,0:0|1:3|1:3,0:0:0:0:
369,131,69807,6,0,L|381:92,2,41.1666655673981,8|8|8,1:3|1:3|1:3,0:0:0:0:
277,177,70131,6,0,L|266:217,2,41.1666655673981,0|0|0,1:0|1:0|1:0,0:0:0:0:
203,104,70455,5,6,1:2:0:0:
203,104,71753,1,6,1:2:0:0:
203,104,73050,1,6,1:2:0:0:
203,104,74347,1,6,1:2:0:0:
96,204,74834,5,10,0:0:0:0:
96,204,74915,1,8,0:0:0:0:
96,204,74996,2,0,P|88:155|76:108,2,97.5,4|8|2,1:3|1:3|1:2,0:0:0:0:
182,258,75644,6,0,P|214:296|211:347,1,104,6|2,1:2|0:0,0:0:0:0:
211,347,76293,2,0,P|249:314|300:317,1,104,2|2,1:2|0:0,0:0:0:0:
300,317,76942,2,0,P|267:278|270:227,1,104,0|0,1:2|0:0,0:0:0:0:
270,227,77590,2,0,P|231:259|180:256,1,104,2|0,1:2|0:0,0:0:0:0:
180,256,78239,6,0,L|194:177,1,78,6|0,1:2|0:0,0:0:0:0:
162,148,78563,2,0,L|137:156,3,26,8|0|8|8,0:0|0:0|0:0|0:0,0:0:0:0:
160,100,78888,2,0,L|134:96,3,26,0|0|0|0,1:0|0:0|1:0|1:0,0:0:0:0:
179,57,79212,2,0,L|156:43,3,26,8|0|8|8,0:0|0:0|0:0|0:0,0:0:0:0:
179,57,81158,5,6,1:2:0:0:
257,117,81320,2,0,P|315:98|375:82,1,123.499996702194,2|2,0:2|1:2,0:0:0:0:
447,14,81807,1,8,0:0:0:0:
447,14,81969,1,2,1:2:0:0:
512,78,82131,5,2,0:1:0:0:
450,147,82293,2,0,P|461:175|469:205,1,61.7499983510972,2|8,1:2|0:1,0:0:0:0:
494,304,82617,1,2,1:1:0:0:
494,304,82698,1,0,1:2:0:0:
494,304,82780,2,0,P|465:292|435:284,1,61.7499983510972,0|2,1:2|1:2,0:0:0:0:
363,213,83104,2,0,P|334:224|304:232,1,61.7499983510972,8|2,0:2|1:2,0:0:0:0:
235,311,83428,6,0,P|199:262|206:202,1,123.499996702194,6|8,1:2|0:2,0:0:0:0:
272,128,83915,2,0,P|263:98|252:69,1,61.7499983510972,2|0,1:2|1:2,0:0:0:0:
165,17,84239,2,0,P|135:25|106:36,1,61.7499983510972,2|8,1:2|0:2,0:0:0:0:
54,120,84563,1,2,1:2:0:0:
107,202,84726,6,0,L|84:281,1,61.7499983510972,10|2,2:1|1:2,0:0:0:0:
144,342,85050,1,10,0:2:0:0:
144,342,85212,1,2,1:1:0:0:
239,332,85374,2,0,L|268:340,3,30.8749991755486,8|8|10|8,0:0|0:0|0:1|0:0,0:0:0:0:
305,329,85698,2,0,L|334:337,3,30.8749991755486,8|8|8|8,0:0|0:0|0:0|0:0,0:0:0:0:
377,327,86023,6,0,P|369:266|382:205,1,123.499996702194,6|10,1:2|0:1,0:0:0:0:
465,142,86509,1,0,1:2:0:0:
465,142,86590,1,0,1:2:0:0:
465,142,86671,2,0,P|469:111|462:81,1,61.7499983510972,2|0,1:2|1:2,0:0:0:0:
386,18,86996,1,10,0:2:0:0:
313,84,87158,6,0,B|249:74|281:29|209:20,1,123.499996702194,0|0,1:2|1:2,0:0:0:0:
115,8,87644,1,8,0:2:0:0:
136,108,87807,1,2,0:0:0:0:
136,108,87969,6,0,L|128:137,3,30.8749991755486,10|8|10|8,0:2|0:2|0:2|0:2,0:0:0:0:
145,174,88293,2,0,L|137:203,3,30.8749991755486,0|0|2|0,1:2|1:2|1:2|1:2,0:0:0:0:
154,240,88617,5,10,0:2:0:0:
154,240,89753,6,0,P|204:204|264:211,1,123.499996702194,4|0,1:2|1:2,0:0:0:0:
333,280,90239,2,0,P|324:310|318:342,2,61.7499983510972,12|0|0,0:2|1:2|1:2,0:0:0:0:
413,221,90726,1,8,0:0:0:0:
377,129,90888,1,8,0:0:0:0:
281,107,91050,5,8,0:0:0:0:
