osu file format v14

[General]
AudioFilename: audio.mp3
AudioLeadIn: 0
PreviewTime: 49617
Countdown: 0
SampleSet: Soft
StackLeniency: 0.4
Mode: 0
LetterboxInBreaks: 0
WidescreenStoryboard: 1

[Editor]
DistanceSpacing: 1.2
BeatDivisor: 4
GridSize: 4
TimelineZoom: 1.9

[Metadata]
Title:Pride Kakumei (TV Size)
TitleUnicode:プライド革命 (TV Size)
Artist:CHiCO with HoneyWorks
ArtistUnicode:CHiCO with HoneyWorks
Creator:Smoke
Version:Normal
Source:銀魂゜
Tags:gintama゜ gintama anime japanese female vocals vocalist rock J-Rock JRock pop opening op 15 akitoshi alevi Corinn -Laura- shinpachi kagura sakata gintoki
BeatmapID:3980903
BeatmapSetID:1908253

[Difficulty]
HPDrainRate:3
CircleSize:3
OverallDifficulty:3.5
ApproachRate:4.5
SliderMultiplier:0.800000005960464
SliderTickRate:1

[Events]
//Background and Video events
0,0,"gintama cute.jpg",0,0
Video,1581,"Video.mp4"
//Break Periods
//Storyboard Layer 0 (Background)
//Storyboard Layer 1 (Fail)
//Storyboard Layer 2 (Pass)
//Storyboard Layer 3 (Foreground)
//Storyboard Layer 4 (Overlay)
//Storyboard Sound Samples

[TimingPoints]
1699,324.324324324324,4,2,1,55,1,0
1699,-100,4,2,1,55,0,0
10536,-100,4,2,1,5,0,0
10617,-100,4,2,1,55,0,0
13293,-100,4,2,1,5,0,0
13374,-100,4,2,1,75,0,0
18563,-100,4,2,1,65,0,0
28942,-100,4,2,1,60,0,0
33401,-100,4,2,1,5,0,0
33482,-100,4,2,1,60,0,0
34050,-100,4,2,1,5,0,0
34131,-100,4,2,1,60,0,0
38023,-100,4,2,1,70,0,0
38590,-100,4,2,1,5,0,0
38671,-100,4,2,1,70,0,0
39320,-100,4,2,1,70,0,0
41834,-100,4,2,1,5,0,0
41915,-100,4,2,1,70,0,0
44428,-100,4,2,1,5,0,0
44509,-100,4,2,1,70,0,0
47104,-100,4,2,1,70,0,0
48401,-100,4,2,1,40,0,0
49698,-100,4,2,1,80,0,0
59347,-100,4,2,1,5,0,0
59428,-100,4,2,1,80,0,0
70455,-100,4,2,1,65,0,0
74753,-100,4,2,1,5,0,0
74834,-100,4,2,1,65,0,0
75158,-100,4,2,1,5,0,0
75239,-100,4,2,1,65,0,0
75401,-100,4,2,1,5,0,0
75482,-100,4,2,1,65,0,0
75563,-100,4,2,1,5,0,0
75644,-100,4,2,1,65,0,0
76942,-100,4,2,1,65,0,0
78239,-100,4,2,1,75,0,0
78888,-100,4,2,1,75,0,0
79536,-100,4,2,1,70,0,0
79780,-100,4,2,1,5,0,0
79861,-100,4,2,1,55,0,0
80185,-100,4,2,1,65,0,0
80509,-100,4,2,1,75,0,0
80834,-100,4,2,1,60,0,0
81158,-100,4,2,1,80,0,0
84726,-100,4,2,1,85,0,0
86023,-100,4,2,1,80,0,0
86266,-100,4,2,1,5,0,0
86347,-100,4,2,1,80,0,0
88617,-100,4,2,1,70,0,0
89753,-100,4,2,1,80,0,0

[Colours]
Combo1 : 75,224,241
Combo2 : 240,154,38
Combo3 : 213,47,17
Combo4 : 65,175,241

[HitObjects]
76,322,1699,6,0,P|124:314|165:308,1,80.0000005960464,2|0,0:0|0:0,0:0:0:0:
235,361,2347,1,2,0:0:0:0:
407,275,2996,2,0,P|399:227|393:186,1,80.0000005960464,2|2,0:0|0:0,0:0:0:0:
314,142,3644,2,0,P|321:94|327:53,1,80.0000005960464,2|2,0:0|0:0,0:0:0:0:
242,16,4293,6,0,P|176:14|141:162,1,240.000001788139,2|2,0:0|0:0,0:0:0:0:
163,195,5428,1,2,0:0:0:0:
375,82,6239,1,2,0:0:0:0:
454,135,6563,1,2,0:0:0:0:
412,221,6888,6,0,P|404:264|427:310,1,80.0000005960464,2|2,0:0|0:0,0:0:0:0:
448,332,7374,1,2,0:0:0:0:
366,383,7698,1,2,0:0:0:0:
234,324,8185,2,0,P|191:316|145:339,1,80.0000005960464,2|2,0:0|0:0,0:0:0:0:
123,360,8671,1,2,0:0:0:0:
72,278,8995,1,2,0:0:0:0:
159,163,9482,6,0,P|198:170|253:179,1,80.0000005960464,2|0,0:0|0:0,0:0:0:0:
269,140,9969,2,0,P|270:104|243:59,1,80.0000005960464,2|2,0:0|0:0,0:0:0:0:
157,40,10617,1,2,0:0:0:0:
83,101,10942,1,2,0:0:0:0:
107,193,11266,2,0,B|233:210|159:260|292:275,1,200.000001490116,2|2,0:0|0:0,0:0:0:0:
456,28,13374,6,0,B|431:62|431:62|446:101,1,80.0000005960464,6|8,3:1|0:0,0:0:0:0:
485,184,14023,2,0,P|488:236|466:273,1,80.0000005960464,0|10,3:2|0:0,0:0:0:0:
447,298,14509,2,0,P|410:284|361:290,1,80.0000005960464,4|2,3:2|3:2,0:0:0:0:
328,311,14996,1,8,0:0:0:0:
246,260,15320,1,2,3:2:0:0:
167,315,15644,1,10,0:0:0:0:
96,247,15969,6,0,P|80:214|83:158,1,80.0000005960464,6|8,3:1|0:0,0:0:0:0:
160,121,16617,2,0,P|199:129|239:136,1,80.0000005960464,0|10,3:2|0:0,0:0:0:0:
267,174,17104,2,0,P|306:166|346:159,1,80.0000005960464,4|2,3:2|3:2,0:0:0:0:
392,149,17590,1,8,0:0:0:0:
455,76,17915,1,10,0:0:0:0:
382,12,18239,1,10,0:0:0:0:
291,42,18563,6,0,P|252:34|212:27,1,80.0000005960464,4|8,3:2|0:0,0:0:0:0:
132,81,19212,1,2,3:2:0:0:
48,34,19536,1,8,0:0:0:0:
7,121,19861,2,0,P|17:162|28:211,1,80.0000005960464,2|10,0:0|0:0,0:0:0:0:
5,292,20509,2,0,P|15:333|26:382,1,80.0000005960464,2|10,3:2|0:0,0:0:0:0:
114,337,21158,6,0,P|152:334|198:360,1,80.0000005960464,6|8,3:2|0:0,0:0:0:0:
252,278,21807,2,0,P|290:281|336:255,1,80.0000005960464,0|10,3:2|0:0,0:0:0:0:
360,229,22293,2,0,P|350:181|341:139,1,80.0000005960464,6|0,3:2|3:2,0:0:0:0:
335,103,22780,1,8,0:0:0:0:
406,39,23104,1,2,3:2:0:0:
493,77,23428,1,10,0:0:0:0:
476,171,23753,6,0,P|467:210|459:249,1,80.0000005960464,6|8,3:2|0:0,0:0:0:0:
439,343,24401,1,0,3:2:0:0:
358,290,24726,1,8,0:0:0:0:
277,341,25050,2,0,P|237:332|198:324,1,80.0000005960464,2|8,0:0|0:0,0:0:0:0:
105,304,25698,1,0,3:2:0:0:
158,223,26023,1,8,0:0:0:0:
86,159,26347,6,0,P|96:118|129:86,1,80.0000005960464,6|8,3:2|0:0,0:0:0:0:
156,58,26834,1,2,0:0:0:0:
230,118,27158,1,2,3:2:0:0:
315,75,27482,1,6,3:2:0:0:
472,256,28293,1,8,0:0:0:0:
408,327,28617,1,8,3:3:0:0:
318,293,28942,6,0,B|276:301|292:319|242:330,1,80.0000005960464,6|2,3:2|3:2,0:0:0:0:
157,360,29590,2,0,P|127:326|129:279,1,80.0000005960464,10|2,0:0|0:0,0:0:0:0:
86,263,30077,2,0,P|96:224|106:185,1,80.0000005960464,2|2,1:2|0:0,0:0:0:0:
119,139,30563,1,2,3:2:0:0:
200,190,30888,1,10,0:0:0:0:
282,141,31212,1,2,0:0:0:0:
357,200,31536,6,0,P|353:241|334:277,2,80.0000005960464,2|2|10,1:2|3:2|0:0,0:0:0:0:
387,162,32347,2,0,P|378:126|365:71,1,80.0000005960464,2|0,0:0|1:2,0:0:0:0:
356,37,32834,1,2,1:2:0:0:
264,7,33158,1,6,3:2:0:0:
200,78,33482,1,2,0:0:0:0:
106,54,33807,2,0,P|63:61|22:95,1,80.0000005960464,2|4,3:0|3:2,0:0:0:0:
81,163,34455,5,2,3:2:0:0:
27,242,34780,1,10,0:0:0:0:
97,306,35104,2,0,P|136:299|194:289,1,80.0000005960464,2|0,0:0|3:2,0:0:0:0:
235,217,35753,1,2,3:2:0:0:
181,138,36078,1,10,0:0:0:0:
251,74,36402,2,0,P|290:81|348:91,1,80.0000005960464,2|0,0:0|3:2,0:0:0:0:
423,108,37050,5,2,3:2:0:0:
478,186,37374,1,10,0:0:0:0:
416,259,37698,2,0,P|393:298|391:339,1,80.0000005960464,2|12,0:0|0:0,0:0:0:0:
302,372,38347,1,12,0:0:0:0:
229,309,38671,1,2,3:2:0:0:
141,349,38996,1,10,0:0:0:0:
65,289,39320,6,0,P|57:251|45:201,2,80.0000005960464,6|8|0,3:1|0:0|3:2,0:0:0:0:
141,349,40293,2,0,P|179:344|230:320,1,80.0000005960464,8|0,0:0|3:2,0:0:0:0:
281,256,40942,1,10,0:0:0:0:
218,183,41266,1,2,3:2:0:0:
287,116,41590,1,10,0:0:0:0:
229,38,41915,6,0,P|190:36|140:59,1,80.0000005960464,2|8,3:2|0:0,0:0:0:0:
76,109,42563,1,2,3:2:0:0:
140,180,42888,1,10,0:0:0:0:
90,262,43212,2,0,B|136:274|117:288|169:298,1,80.0000005960464,2|0,3:2|3:2,0:0:0:0:
197,328,43698,2,0,B|243:316|224:302|276:292,1,80.0000005960464,2|0,3:2|3:2,0:0:0:0:
314,306,44185,1,14,0:0:0:0:
404,337,44509,6,0,P|443:309|456:265,1,80.0000005960464,6|8,3:1|0:0,0:0:0:0:
399,201,45158,1,0,3:2:0:0:
463,130,45482,2,0,P|454:95|443:45,1,80.0000005960464,8|0,0:0|3:2,0:0:0:0:
356,13,46131,1,10,0:0:0:0:
275,65,46455,1,2,3:2:0:0:
309,154,46780,1,10,0:0:0:0:
229,206,47104,6,0,P|149:154|182:289,1,320.000002384186,6|2,3:1|0:0,0:0:0:0:
33,78,49698,6,0,P|63:57|117:50,1,80.0000005960464,6|8,3:1|0:0,0:0:0:0:
149,66,50185,1,2,1:2:0:0:
233,20,50509,2,0,P|273:29|317:38,1,80.0000005960464,2|6,3:2|3:2,0:0:0:0:
326,82,50996,2,0,P|366:73|410:64,1,80.0000005960464,2|10,0:0|0:0,0:0:0:0:
451,55,51482,1,2,1:2:0:0:
503,135,51807,2,0,P|492:175|482:214,1,80.0000005960464,2|2,3:2|1:2,0:0:0:0:
492,259,52293,6,0,P|453:268|421:297,1,80.0000005960464,6|8,3:2|0:0,0:0:0:0:
390,329,52780,1,2,1:2:0:0:
301,365,53104,2,0,P|291:328|278:282,1,80.0000005960464,2|6,3:2|3:2,0:0:0:0:
237,264,53590,2,0,B|194:273|214:285|163:295,1,80.0000005960464,2|10,0:0|0:0,0:0:0:0:
119,275,54077,1,2,1:2:0:0:
47,210,54401,2,0,P|58:170|68:122,1,80.0000005960464,2|0,3:2|1:2,0:0:0:0:
79,85,54888,5,6,3:2:0:0:
166,46,55212,1,10,0:0:0:0:
237,109,55536,1,2,3:2:0:0:
197,196,55861,2,0,B|171:246|171:246|204:358,1,160.000001192093,10|8,0:0|0:0,0:0:0:0:
285,301,56834,1,2,3:2:0:0:
363,356,57158,1,8,0:0:0:0:
446,308,57482,6,0,P|467:270|469:217,1,80.0000005960464,6|10,3:2|0:0,0:0:0:0:
404,164,58131,1,2,3:2:0:0:
473,98,58455,2,0,P|467:58|447:24,1,80.0000005960464,10|12,0:0|0:0,0:0:0:0:
353,5,59104,1,14,0:0:0:0:
293,80,59428,1,0,3:2:0:0:
201,49,59753,1,10,0:0:0:0:
109,21,60077,6,0,P|88:51|81:105,1,80.0000005960464,6|8,3:1|0:0,0:0:0:0:
97,137,60564,1,2,1:2:0:0:
157,211,60888,2,0,P|197:220|241:229,1,80.0000005960464,2|6,3:2|3:2,0:0:0:0:
281,239,61375,2,0,B|297:276|297:276|282:315,1,80.0000005960464,2|10,0:0|0:0,0:0:0:0:
266,358,61861,1,2,1:2:0:0:
170,370,62186,2,0,P|130:359|91:349,1,80.0000005960464,2|2,3:2|1:2,0:0:0:0:
60,314,62672,6,0,P|50:271|37:228,1,80.0000005960464,6|8,3:2|0:0,0:0:0:0:
24,190,63159,1,2,1:2:0:0:
76,109,63483,2,0,P|113:99|159:86,1,80.0000005960464,2|6,3:2|3:2,0:0:0:0:
188,55,63969,2,0,B|231:64|211:76|262:86,1,80.0000005960464,2|10,0:0|0:0,0:0:0:0:
294,120,64456,1,2,1:2:0:0:
387,98,64780,2,0,P|427:87|475:77,1,80.0000005960464,2|0,3:2|1:2,0:0:0:0:
498,113,65267,5,6,3:2:0:0:
440,190,65591,1,10,0:0:0:0:
495,267,65915,1,2,3:2:0:0:
428,336,66240,2,0,B|358:323|358:323|346:326|346:326|264:309,1,160.000001192093,10|8,0:0|0:0,0:0:0:0:
177,288,67213,1,2,3:2:0:0:
140,199,67537,1,8,0:0:0:0:
219,145,67861,6,0,P|240:107|242:54,1,80.0000005960464,6|10,3:2|0:0,0:0:0:0:
175,4,68510,1,10,0:0:0:0:
81,23,68834,2,0,P|61:57|55:96,1,80.0000005960464,10|8,0:0|0:0,0:0:0:0:
126,162,69482,1,8,0:0:0:0:
53,225,69807,1,8,3:2:0:0:
103,306,70131,1,8,3:2:0:0:
193,275,70455,6,0,B|254:284|254:284|280:312|280:312|351:323,1,160.000001192093,6|0,3:1|0:0,0:0:0:0:
487,198,71753,2,0,P|441:144|457:52,1,160.000001192093,6|0,3:1|0:0,0:0:0:0:
297,174,73050,2,0,B|267:145|267:145|153:179,1,160.000001192093,6|0,3:1|0:0,0:0:0:0:
24,321,74347,2,0,P|50:256|18:171,1,160.000001192093,6|8,3:1|3:2,0:0:0:0:
151,33,75644,6,0,P|227:49|316:69,2,160.000001192093,6|6|4,3:2|3:2|3:2,0:0:0:0:
22,175,77590,1,6,3:2:0:0:
159,309,78239,2,0,P|203:298|245:287,1,80.0000005960464,6|6,3:2|3:2,0:0:0:0:
323,330,78888,1,6,3:2:0:0:
412,294,79212,2,0,P|429:255|429:206,1,80.0000005960464,6|0,3:2|3:2,0:0:0:0:
430,218,81158,6,0,B|363:212|393:181|314:174,1,120.00000089407,6|2,3:1|3:2,0:0:0:0:
275,201,81807,1,8,0:0:0:0:
181,245,82131,2,0,P|160:207|163:161,1,80.0000005960464,2|8,0:0|0:0,0:0:0:0:
124,132,82617,2,0,P|133:100|147:46,1,80.0000005960464,2|2,1:2|3:2,0:0:0:0:
160,5,83104,1,8,0:0:0:0:
244,65,83428,6,0,P|282:51|330:39,1,80.0000005960464,6|8,3:2|0:0,0:0:0:0:
361,8,83915,2,0,P|403:3|449:26,1,80.0000005960464,2|2,1:2|3:2,0:0:0:0:
482,41,84401,1,8,0:0:0:0:
416,122,84726,1,14,0:0:0:0:
476,206,85050,1,14,0:0:0:0:
413,288,85374,1,12,0:0:0:0:
316,249,85698,1,8,0:0:0:0:
232,311,86023,6,0,P|195:312|141:287,1,80.0000005960464,4|10,3:2|0:0,0:0:0:0:
83,221,86671,1,2,3:2:0:0:
158,148,86996,2,0,B|256:161|214:197|319:207,1,160.000001192093,10|8,0:0|0:0,0:0:0:0:
399,161,87969,1,10,3:2:0:0:
420,59,88293,1,8,3:2:0:0:
330,5,88617,1,10,0:0:0:0:
330,5,89753,6,0,P|290:15|239:27,1,80.0000005960464,6|0,3:1|3:2,0:0:0:0:
202,39,90239,2,0,P|198:82|217:123,1,80.0000005960464,12|0,0:0|3:2,0:0:0:0:
254,144,90726,1,12,0:0:0:0:
181,217,91050,1,12,0:0:0:0:
