osu file format v14

[General]
AudioFilename: audio.mp3
AudioLeadIn: 0
PreviewTime: 49617
Countdown: 0
SampleSet: Soft
StackLeniency: 0.3
Mode: 0
LetterboxInBreaks: 0
WidescreenStoryboard: 1

[Editor]
DistanceSpacing: 1
BeatDivisor: 4
GridSize: 4
TimelineZoom: 1.9

[Metadata]
Title:Pride Kakumei (TV Size)
TitleUnicode:プライド革命 (TV Size)
Artist:CHiCO with HoneyWorks
ArtistUnicode:CHiCO with HoneyWorks
Creator:Smoke
Version:Another
Source:銀魂゜
Tags:gintama゜ gintama anime japanese female vocals vocalist rock J-Rock JRock pop opening op 15 akitoshi alevi Corinn -Laura- shinpachi kagura sakata gintoki
BeatmapID:3935460
BeatmapSetID:1908253

[Difficulty]
HPDrainRate:5.2
CircleSize:3.7
OverallDifficulty:8.4
ApproachRate:9
SliderMultiplier:1.6
SliderTickRate:1

[Events]
//Background and Video events
0,0,"gintama cute.jpg",0,0
Video,1581,"Video.mp4"
//Break Periods
//Storyboard Layer 0 (Background)
//Storyboard Layer 1 (Fail)
//Storyboard Layer 2 (Pass)
//Storyboard Layer 3 (Foreground)
//Storyboard Layer 4 (Overlay)
//Storyboard Sound Samples

[TimingPoints]
1699,324.324324324324,4,2,1,55,1,0
1699,-125,4,2,1,55,0,0
10536,-125,4,2,1,5,0,0
10617,-125,4,2,1,55,0,0
13293,-125,4,2,1,5,0,0
13374,-86.9565217391304,4,2,1,75,0,0
18563,-100,4,2,1,65,0,0
28942,-111.111111111111,4,2,1,60,0,0
33401,-111.111111111111,4,2,1,5,0,0
33482,-111.111111111111,4,2,1,60,0,0
34050,-111.111111111111,4,2,1,5,0,0
34131,-111.111111111111,4,2,1,60,0,0
38023,-105.263157894737,4,2,1,70,0,0
38590,-105.263157894737,4,2,1,5,0,0
38671,-105.263157894737,4,2,1,70,0,0
39320,-99.9999999999999,4,2,1,70,0,0
41834,-99.9999999999999,4,2,1,5,0,0
41915,-99.9999999999999,4,2,1,70,0,0
44428,-99.9999999999999,4,2,1,5,0,0
44509,-90.9090909090909,4,2,1,70,0,0
47104,-166.666666666667,4,2,1,70,0,0
48401,-166.666666666667,4,2,1,40,0,0
49698,-83.3333333333333,4,2,1,80,0,0
59347,-83.3333333333333,4,2,1,5,0,0
59428,-83.3333333333333,4,2,1,80,0,0
70455,-166.666666666667,4,2,1,65,0,0
74347,-142.857142857143,4,2,1,65,0,0
74753,-142.857142857143,4,2,1,5,0,0
74834,-142.857142857143,4,2,1,65,0,0
75158,-142.857142857143,4,2,1,5,0,0
75239,-142.857142857143,4,2,1,65,0,0
75401,-142.857142857143,4,2,1,5,0,0
75482,-142.857142857143,4,2,1,65,0,0
75563,-142.857142857143,4,2,1,5,0,0
75644,-142.857142857143,4,2,1,65,0,0
76942,-125,4,2,1,65,0,0
78239,-99.9999999999999,4,2,1,75,0,0
78888,-90.9090909090909,4,2,1,75,0,0
79536,-142.857142857143,4,2,1,70,0,0
79780,-142.857142857143,4,2,1,5,0,0
79861,-142.857142857143,4,2,1,55,0,0
80185,-142.857142857143,4,2,1,65,0,0
80509,-142.857142857143,4,2,1,75,0,0
80834,-111.111111111111,4,2,1,60,0,0
81158,-76.9230769230769,4,2,1,80,0,0
84726,-71.4285714285714,4,2,1,85,0,0
86023,-83.3333333333333,4,2,1,80,0,0
86266,-83.3333333333333,4,2,1,5,0,0
86347,-83.3333333333333,4,2,1,80,0,0
88617,-111.111111111111,4,2,1,70,0,0
89753,-83.3333333333333,4,2,1,80,0,0

[Colours]
Combo1 : 75,224,241
Combo2 : 240,154,38
Combo3 : 213,47,17
Combo4 : 65,175,241

[HitObjects]
84,267,1699,5,2,0:0:0:0:
84,267,1861,2,0,B|168:278|115:318|207:330,1,128,2|2,0:0|0:0,0:0:0:0:
268,280,2347,1,2,0:0:0:0:
268,280,2509,2,0,P|277:217|241:156,1,128,2|2,0:0|0:0,0:0:0:0:
116,89,2996,6,0,P|147:94|178:101,1,64,2|0,0:0|0:0,0:0:0:0:
311,33,3320,2,0,P|280:38|249:46,1,64,2|0,0:0|0:0,0:0:0:0:
354,160,3644,2,0,P|369:136|377:91,1,64,2|0,0:0|0:0,0:0:0:0:
476,232,3969,2,0,P|461:208|453:163,1,64,2|0,0:0|0:0,0:0:0:0:
311,284,4293,6,0,P|379:287|436:324,2,128,2|0|0,0:0|0:0|0:0,0:0:0:0:
151,362,5266,1,2,0:0:0:0:
151,362,5428,6,0,B|183:306|183:306|153:244,1,128,2|0,0:0|0:0,0:0:0:0:
81,300,5915,1,0,0:0:0:0:
26,129,6239,1,2,0:0:0:0:
114,149,6401,1,2,0:0:0:0:
202,170,6563,1,2,0:0:0:0:
345,61,6888,6,0,P|382:52|422:46,2,64,2|2|2,0:0|0:0|0:0,0:0:0:0:
258,37,7374,2,0,P|255:71|276:115,1,64,2|0,0:0|0:0,0:0:0:0:
167,24,7698,2,0,P|161:75|187:152,1,128,2|0,0:0|0:0,0:0:0:0:
64,296,8185,6,0,P|27:287|-13:281,2,64,2|2|2,0:0|0:0|0:0,0:0:0:0:
151,271,8671,2,0,B|155:305|155:305|133:349,1,64,2|0,0:0|0:0,0:0:0:0:
243,257,8995,2,0,B|251:323|251:323|219:383,1,128,2|2,0:0|0:0,0:0:0:0:
424,297,9482,5,2,0:0:0:0:
424,297,9644,2,0,P|409:232|396:169,1,128,2|2,0:0|0:0,0:0:0:0:
460,108,10131,1,0,0:0:0:0:
460,108,10293,2,0,P|451:73|437:21,1,64,2|0,0:0|0:0,0:0:0:0:
365,2,10617,5,2,0:0:0:0:
234,125,10942,1,2,0:0:0:0:
78,36,11266,2,0,B|138:-10|138:-10|81:254,1,320,2|2,0:0|0:0,0:0:0:0:
446,370,13374,5,6,3:1:0:0:
361,245,13536,2,0,P|371:205|384:151,1,92.0000017547608,2|8,0:0|0:0,0:0:0:0:
230,295,13861,1,2,0:0:0:0:
230,295,13942,1,8,0:0:0:0:
230,295,14023,2,0,P|189:297|126:335,1,92.0000017547608,0|0,3:2|3:2,0:0:0:0:
299,360,14347,1,10,0:0:0:0:
82,242,14509,6,0,B|41:187|41:187|85:64,1,184.000003509522,4|2,3:2|3:2,0:0:0:0:
273,76,14996,2,0,P|227:68|188:44,1,92.0000017547608,8|2,0:0|0:0,0:0:0:0:
155,21,15239,1,8,0:0:0:0:
155,21,15320,1,2,3:2:0:0:
219,159,15482,1,2,3:2:0:0:
352,21,15644,2,0,P|397:28|436:52,1,92.0000017547608,10|8,0:0|0:0,0:0:0:0:
472,81,15888,5,8,0:0:0:0:
472,81,15969,1,6,3:1:0:0:
362,227,16131,2,0,P|373:272|385:325,1,92.0000017547608,2|8,0:0|0:0,0:0:0:0:
210,267,16455,1,2,0:0:0:0:
210,267,16536,1,8,0:0:0:0:
210,267,16617,2,0,P|221:312|233:365,1,92.0000017547608,0|0,3:2|3:2,0:0:0:0:
273,193,16942,1,10,0:0:0:0:
77,376,17104,6,0,P|101:291|128:195,1,184.000003509522,4|2,3:2|3:2,0:0:0:0:
3,75,17590,2,0,P|55:66|103:55,1,92.0000017547608,8|0,0:0|0:0,0:0:0:0:
251,166,17915,1,10,0:0:0:0:
278,140,17996,1,8,0:0:0:0:
313,127,18077,1,10,0:0:0:0:
349,129,18158,1,8,0:0:0:0:
383,144,18239,2,0,P|408:152|429:157,3,46.0000008773804,10|8|8|8,0:0|0:0|0:0|0:0,0:0:0:0:
469,77,18563,5,4,3:2:0:0:
469,77,18726,2,0,P|429:65|375:50,1,80,2|8,0:0|0:0,0:0:0:0:
324,2,19050,1,2,0:0:0:0:
206,95,19212,1,2,3:2:0:0:
206,95,19375,2,0,P|166:83|112:68,1,80,2|8,3:2|0:0,0:0:0:0:
61,20,19699,1,2,3:2:0:0:
106,157,19861,6,0,P|144:167|182:179,1,80,2|0,0:0|3:2,0:0:0:0:
316,227,20185,2,0,P|277:237|239:249,1,80,10|0,0:0|0:0,0:0:0:0:
380,161,20509,1,2,3:2:0:0:
380,161,20671,1,0,3:2:0:0:
502,254,20834,2,0,P|503:297|476:334,1,80,10|0,0:0|0:0,0:0:0:0:
277,384,21158,6,0,P|220:343|118:344,2,160,6|8|0,3:2|0:0|3:2,0:0:0:0:
354,341,21969,1,0,3:2:0:0:
210,186,22131,1,10,0:0:0:0:
327,115,22293,6,0,P|303:200|286:271,1,160,6|0,3:2|3:2,0:0:0:0:
132,339,22780,2,0,P|121:303|104:256,1,80,8|0,0:0|0:0,0:0:0:0:
45,199,23104,1,2,3:2:0:0:
103,132,23266,1,2,3:2:0:0:
7,28,23428,2,0,P|47:37|90:45,1,80,10|0,0:0|0:0,0:0:0:0:
260,150,23753,6,0,P|224:167|185:169,1,80,6|2,3:2|0:0,0:0:0:0:
207,71,24077,1,8,0:0:0:0:
343,192,24239,2,0,P|379:208|418:210,1,80,2|0,0:0|3:2,0:0:0:0:
396,112,24563,1,2,3:2:0:0:
272,248,24726,2,0,P|285:297|294:341,1,80,8|0,0:0|3:2,0:0:0:0:
99,375,25050,6,0,B|86:339|86:339|123:281,1,80,2|2,0:0|3:2,0:0:0:0:
186,348,25374,1,8,0:0:0:0:
89,215,25536,2,0,B|102:179|102:179|65:121,1,80,2|0,0:0|3:2,0:0:0:0:
2,188,25860,1,2,3:2:0:0:
143,82,26023,2,0,P|184:94|227:106,1,80,8|2,0:0|0:0,0:0:0:0:
399,45,26347,5,6,3:2:0:0:
290,0,26509,2,0,P|300:39|314:95,1,80,2|8,0:0|0:0,0:0:0:0:
428,205,26834,2,0,P|438:166|448:128,1,80,2|0,0:0|3:2,0:0:0:0:
322,305,27158,1,2,3:2:0:0:
512,251,27320,1,8,0:0:0:0:
309,77,27482,1,6,3:2:0:0:
249,146,28131,5,10,0:0:0:0:
249,146,28212,1,8,0:0:0:0:
249,146,28293,1,8,0:0:0:0:
179,77,28455,1,8,3:3:0:0:
91,87,28617,1,8,3:3:0:0:
46,164,28780,1,8,3:3:0:0:
46,164,28942,6,0,P|56:207|65:255,1,71.9999978027344,6|0,3:2|0:0,0:0:0:0:
135,278,29266,2,0,P|145:321|154:369,1,71.9999978027344,2|0,3:2|0:0,0:0:0:0:
282,290,29590,2,0,P|350:284|417:321,1,143.999995605469,10|2,0:0|0:0,0:0:0:0:
489,271,30077,5,2,1:2:0:0:
489,271,30158,1,0,1:2:0:0:
489,271,30239,2,0,P|480:232|471:191,1,71.9999978027344,0|2,1:2|0:0,0:0:0:0:
394,165,30563,2,0,P|403:126|412:85,1,71.9999978027344,2|2,3:2|0:0,0:0:0:0:
302,2,30888,1,10,0:0:0:0:
231,51,31050,1,2,0:0:0:0:
153,13,31212,2,0,P|119:11|70:32,1,71.9999978027344,2|0,0:0|1:2,0:0:0:0:
60,60,31455,1,0,1:2:0:0:
60,60,31536,6,0,P|69:98|76:132,1,71.9999978027344,2|0,1:2|0:0,0:0:0:0:
29,203,31861,2,0,P|67:212|101:219,1,71.9999978027344,2|0,3:2|0:0,0:0:0:0:
264,253,32185,1,10,0:0:0:0:
195,167,32347,2,0,P|181:238|166:313,1,143.999995605469,2|0,0:0|1:2,0:0:0:0:
81,335,32834,5,2,1:2:0:0:
264,253,32996,1,8,0:0:0:0:
104,94,33158,2,0,P|144:87|200:74,1,71.9999978027344,6|0,3:2|0:0,0:0:0:0:
241,25,33482,1,2,0:0:0:0:
324,45,33644,1,2,0:0:0:0:
405,69,33807,2,0,B|442:109|442:109|415:170,1,107.999996704102,2|0,3:0|0:0,0:0:0:0:
405,198,34131,5,4,3:2:0:0:
497,343,34455,2,0,P|467:329|413:328,1,71.9999978027344,2|0,3:2|0:0,0:0:0:0:
282,297,34780,2,0,P|312:283|366:282,1,71.9999978027344,10|0,0:0|0:0,0:0:0:0:
225,364,35104,2,0,P|195:350|141:349,1,71.9999978027344,2|0,0:0|0:0,0:0:0:0:
74,372,35428,5,0,3:2:0:0:
74,372,35753,2,0,P|68:339|55:280,1,71.9999978027344,2|0,3:2|0:0,0:0:0:0:
148,184,36077,2,0,P|140:219|134:254,1,71.9999978027344,10|0,0:0|0:0,0:0:0:0:
71,136,36401,2,0,P|64:100|57:65,1,71.9999978027344,2|0,0:0|1:2,0:0:0:0:
51,26,36644,1,0,1:2:0:0:
51,26,36726,6,0,P|78:9|130:9,1,71.9999978027344,0|0,3:2|0:0,0:0:0:0:
183,66,37050,2,0,B|214:83|214:83|248:73,1,71.9999978027344,2|0,3:2|0:0,0:0:0:0:
368,7,37374,1,10,0:0:0:0:
368,7,37536,2,0,B|337:-11|337:-11|303:-1,1,71.9999978027344,0|2,3:2|0:0,0:0:0:0:
398,91,37861,1,0,3:2:0:0:
505,12,38023,5,12,0:0:0:0:
417,182,38185,1,0,3:2:0:0:
249,72,38347,2,0,P|189:79|137:124,1,113.999996955872,12|0,0:0|0:0,0:0:0:0:
131,144,38671,2,0,P|149:175|146:225,1,75.9999979705811,2|8,3:2|0:0,0:0:0:0:
147,256,38915,1,8,0:0:0:0:
147,256,38996,1,10,0:0:0:0:
29,346,39158,1,8,0:0:0:0:
29,346,39239,1,8,0:0:0:0:
29,346,39320,6,0,B|45:318|75:314|75:314|113:360|171:348,1,160,6|8,3:1|0:0,0:0:0:0:
323,274,39807,1,0,0:0:0:0:
229,242,39969,2,0,P|240:286|250:341,1,80,0|0,3:2|0:0,0:0:0:0:
385,383,40293,2,0,P|392:343|402:305,1,80,8|0,0:0|0:0,0:0:0:0:
506,184,40617,1,0,3:2:0:0:
506,184,40942,2,0,P|469:185|422:157,1,80,10|0,0:0|0:0,0:0:0:0:
326,30,41266,2,0,P|363:29|410:57,1,80,2|0,3:2|0:0,0:0:0:0:
230,176,41590,2,0,P|167:159|91:144,1,120,10|0,0:0|0:0,0:0:0:0:
99,109,41915,6,0,P|140:69|259:91,1,160,2|8,3:2|0:0,0:0:0:0:
309,123,42401,1,0,0:0:0:0:
482,26,42563,2,0,B|499:64|499:64|479:119,1,80,2|0,3:2|0:0,0:0:0:0:
369,264,42888,2,0,B|355:227|355:227|372:189,1,80,10|0,0:0|0:0,0:0:0:0:
508,354,43212,6,0,P|475:335|429:334,1,80,2|8,3:2|0:0,0:0:0:0:
400,359,43455,1,8,0:0:0:0:
400,359,43536,1,0,3:2:0:0:
199,229,43698,2,0,P|232:210|278:209,1,80,2|0,3:2|3:2,0:0:0:0:
154,311,44023,1,0,3:2:0:0:
38,185,44185,2,0,P|47:143|59:83,1,80,14|0,0:0|0:0,0:0:0:0:
301,62,44509,6,0,B|191:71|249:126|140:133,1,176.000005371094,6|8,3:1|0:0,0:0:0:0:
40,284,44996,1,8,0:0:0:0:
40,284,45077,1,8,0:0:0:0:
40,284,45158,2,0,B|77:311|77:311|130:297,1,88.000002685547,0|0,3:2|3:2,0:0:0:0:
297,159,45482,2,0,P|341:172|394:184,1,88.000002685547,8|0,0:0|0:0,0:0:0:0:
449,253,45807,6,0,P|471:222|478:170,1,88.000002685547,0|0,3:2|0:0,0:0:0:0:
309,57,46131,2,0,P|264:70|212:82,1,88.000002685547,10|8,0:0|0:0,0:0:0:0:
185,95,46374,1,8,0:0:0:0:
185,95,46455,2,0,P|172:139|157:185,1,88.000002685547,2|0,3:2|3:2,0:0:0:0:
118,30,46780,1,10,0:0:0:0:
239,242,46942,1,8,0:0:0:0:
239,242,47023,1,8,0:0:0:0:
239,242,47104,6,0,B|405:278|289:348|476:384|476:384|431:372|409:302,1,383.99998828125,6|2,3:1|0:0,0:0:0:0:
57,369,49698,5,6,3:1:0:0:
57,369,49861,2,0,P|85:331|91:271,1,95.9999970703126,2|8,0:0|0:0,0:0:0:0:
18,131,50185,1,2,1:2:0:0:
18,131,50266,1,0,1:2:0:0:
18,131,50347,1,0,3:2:0:0:
156,196,50509,2,0,P|208:184|271:174,1,95.9999970703126,2|8,3:2|0:0,0:0:0:0:
321,116,50834,1,6,3:2:0:0:
455,274,50996,5,2,0:0:0:0:
342,209,51158,1,2,3:2:0:0:
479,171,51320,1,10,0:0:0:0:
323,308,51482,1,2,1:2:0:0:
323,308,51563,1,0,1:2:0:0:
323,308,51644,1,0,3:2:0:0:
156,196,51807,2,0,P|179:93|198:0,1,191.999994140625,2|2,3:2|1:2,0:0:0:0:
429,79,52293,5,6,3:2:0:0:
429,79,52455,2,0,P|379:89|327:102,1,95.9999970703126,2|8,0:0|0:0,0:0:0:0:
505,20,52780,1,2,1:2:0:0:
505,20,52861,1,0,1:2:0:0:
505,20,52942,1,0,3:2:0:0:
365,199,53104,2,0,P|320:187|263:176,1,95.9999970703126,2|8,3:2|0:0,0:0:0:0:
194,126,53428,1,6,3:2:0:0:
41,266,53590,5,2,0:0:0:0:
112,178,53753,1,2,3:2:0:0:
167,300,53915,1,10,0:0:0:0:
23,152,54077,1,2,1:2:0:0:
23,152,54158,1,0,1:2:0:0:
23,152,54239,1,0,3:2:0:0:
168,38,54401,2,0,B|215:29|215:29|278:67,1,95.9999970703126,2|8,3:2|0:0,0:0:0:0:
349,219,54726,1,0,1:2:0:0:
349,219,54807,1,0,1:2:0:0:
349,219,54888,6,0,P|398:231|467:250,1,95.9999970703126,6|0,3:2|0:0,0:0:0:0:
233,315,55212,2,0,P|184:327|115:346,1,95.9999970703126,10|0,0:0|1:2,0:0:0:0:
98,357,55455,1,0,1:2:0:0:
98,357,55536,2,0,P|70:316|75:265,1,95.9999970703126,2|0,3:2|3:2,0:0:0:0:
0,381,55861,1,10,0:0:0:0:
150,219,56023,6,0,B|284:234|199:283|331:297,1,191.999994140625,4|0,3:2|3:2,0:0:0:0:
500,204,56509,1,8,0:0:0:0:
320,128,56671,1,2,1:2:0:0:
320,128,56753,1,0,1:2:0:0:
320,128,56834,1,2,3:2:0:0:
396,226,56996,2,0,P|406:183|421:130,1,95.9999970703126,2|8,3:2|0:0,0:0:0:0:
512,0,57320,1,10,0:0:0:0:
512,0,57401,1,8,0:0:0:0:
512,0,57482,6,0,P|473:10|408:25,1,95.9999970703126,6|0,3:2|0:0,0:0:0:0:
291,140,57807,2,0,P|252:130|187:115,1,95.9999970703126,10|0,0:0|1:2,0:0:0:0:
175,80,58050,1,0,1:2:0:0:
175,80,58131,2,0,B|127:67|127:67|84:95,1,95.9999970703126,2|0,3:2|3:2,0:0:0:0:
248,35,58455,5,10,0:0:0:0:
248,35,58617,1,0,3:2:0:0:
104,206,58780,5,12,0:0:0:0:
291,140,58942,1,0,3:2:0:0:
59,7,59104,6,0,P|12:43|8:131,1,143.999995605469,14|0,0:0|0:0,0:0:0:0:
17,170,59428,1,0,3:2:0:0:
248,35,59590,1,8,0:0:0:0:
248,35,59671,1,8,0:0:0:0:
248,35,59753,2,0,L|314:52,3,47.9999985351563,10|8|8|8,0:0|0:0|0:0|0:0,0:0:0:0:
380,68,60077,6,0,P|406:110|413:163,1,95.9999970703126,6|2,3:1|0:0,0:0:0:0:
478,35,60401,1,8,0:0:0:0:
328,199,60563,1,2,1:2:0:0:
328,199,60644,1,0,1:2:0:0:
328,199,60726,1,0,3:2:0:0:
476,298,60888,2,0,P|486:251|499:204,1,95.9999970703126,2|8,3:2|0:0,0:0:0:0:
367,349,61212,1,6,3:2:0:0:
210,239,61374,5,2,0:0:0:0:
328,199,61536,1,2,3:2:0:0:
229,335,61698,1,10,0:0:0:0:
112,207,61861,1,2,1:2:0:0:
112,207,61942,1,0,1:2:0:0:
112,207,62023,1,0,3:2:0:0:
26,287,62185,2,0,P|80:299|125:312,1,95.9999970703126,2|8,3:2|0:0,0:0:0:0:
233,80,62509,1,2,1:2:0:0:
233,80,62590,1,0,1:2:0:0:
233,80,62671,5,6,3:2:0:0:
139,29,62834,2,0,B|118:73|118:73|141:121,1,95.9999970703126,2|8,0:0|0:0,0:0:0:0:
319,31,63158,1,2,1:2:0:0:
319,31,63239,1,0,1:2:0:0:
319,31,63320,1,0,3:2:0:0:
468,105,63482,2,0,B|489:149|489:149|466:197,1,95.9999970703126,2|8,3:2|0:0,0:0:0:0:
428,279,63807,1,6,3:2:0:0:
245,168,63969,5,2,0:0:0:0:
330,285,64131,1,2,3:2:0:0:
378,118,64293,1,10,0:0:0:0:
214,268,64455,1,2,1:2:0:0:
214,268,64536,1,0,1:2:0:0:
214,268,64617,1,0,3:2:0:0:
399,368,64780,2,0,P|420:336|422:254,1,95.9999970703126,2|8,3:2|0:0,0:0:0:0:
220,154,65104,1,0,1:2:0:0:
220,154,65185,1,0,1:2:0:0:
220,154,65266,6,0,P|173:165|114:178,1,95.9999970703126,6|0,3:2|0:0,0:0:0:0:
25,306,65590,2,0,P|71:316|118:327,1,95.9999970703126,10|0,0:0|1:2,0:0:0:0:
300,219,65915,1,2,3:2:0:0:
300,219,66077,1,0,3:2:0:0:
201,375,66239,1,10,0:0:0:0:
126,175,66401,6,0,P|129:91|227:32,1,191.999994140625,4|0,3:2|3:2,0:0:0:0:
395,156,66888,1,8,0:0:0:0:
300,219,67050,1,2,1:2:0:0:
300,219,67131,1,0,1:2:0:0:
300,219,67212,1,2,3:2:0:0:
415,49,67374,2,0,B|462:35|462:35|513:75,1,95.9999970703126,2|8,3:2|0:0,0:0:0:0:
395,156,67698,1,2,0:0:0:0:
211,32,67861,6,0,P|162:42|103:54,1,95.9999970703126,6|8,3:2|0:0,0:0:0:0:
73,63,68104,1,8,0:0:0:0:
73,63,68185,2,0,P|42:104|35:154,1,95.9999970703126,10|8,0:0|3:2,0:0:0:0:
186,300,68509,1,10,0:0:0:0:
209,275,68590,1,8,0:0:0:0:
239,262,68671,1,8,0:0:0:0:
272,261,68753,1,8,0:0:0:0:
303,272,68834,2,0,P|323:325|336:370,1,95.9999970703126,10|8,0:0|0:0,0:0:0:0:
374,379,69077,1,8,0:0:0:0:
374,379,69158,6,0,P|402:371|438:342,2,63.9999980468751,8|8|8,0:0|0:0|0:0,0:0:0:0:
486,277,69482,2,0,P|458:269|422:240,2,63.9999980468751,8|8|8,0:0|3:2|3:2,0:0:0:0:
353,184,69807,2,0,P|381:176|417:147,2,63.9999980468751,8|8|8,3:2|3:2|3:2,0:0:0:0:
490,110,70131,5,8,3:2:0:0:
453,74,70239,5,8,3:2:0:0:
403,63,70347,5,8,3:2:0:0:
354,80,70455,6,0,B|218:150|99:132|99:132|123:97|177:94,1,335.999989746094,6|0,3:1|0:0,0:0:0:0:
350,341,71753,6,0,P|411:286|277:297,1,335.999989746094,6|0,3:1|0:0,0:0:0:0:
63,342,73050,6,0,B|29:345|12:374|12:374|87:106,1,335.999989746094,6|0,3:1|0:0,0:0:0:0:
364,30,74347,6,0,P|314:58|257:56,1,111.999996582031,6|0,3:1|0:0,0:0:0:0:
161,26,74834,1,10,0:0:0:0:
161,26,74915,1,8,0:0:0:0:
161,26,74996,6,0,P|169:58|178:98,1,55.9999982910157,8|0,3:2|0:0,0:0:0:0:
237,141,75239,6,0,P|228:173|220:213,1,55.9999982910157,8|0,3:2|0:0,0:0:0:0:
291,252,75482,6,0,L|301:290,1,27.9999991455078,10|0,3:2|0:0,0:0:0:0:
512,145,75644,6,0,P|476:139|407:175,1,111.999996582031,6|2,3:2|0:0,0:0:0:0:
272,40,76293,2,0,P|308:34|377:70,1,111.999996582031,6|2,3:2|0:0,0:0:0:0:
223,195,76942,6,0,P|187:201|107:154,1,128,4|0,3:2|0:0,0:0:0:0:
149,80,77428,1,2,0:0:0:0:
32,194,77590,1,6,3:2:0:0:
32,194,77753,2,0,P|44:254|58:327,1,128,2|2,0:0|0:0,0:0:0:0:
254,382,78239,6,0,B|275:348|275:348|262:298,1,80,6|0,3:2|0:0,0:0:0:0:
370,110,78563,2,0,B|349:144|349:144|362:194,1,80,6|8,3:2|0:0,0:0:0:0:
393,212,78807,1,8,0:0:0:0:
393,212,78888,2,0,P|438:222|482:232,1,88.000002685547,6|8,3:2|0:0,0:0:0:0:
509,270,79131,1,8,0:0:0:0:
509,270,79212,1,6,3:2:0:0:
451,52,79374,1,8,0:0:0:0:
451,52,79455,1,8,0:0:0:0:
451,52,79536,1,0,3:2:0:0:
370,110,79861,6,0,P|316:79|249:80,2,111.999996582031,2|2|2,0:0|0:0|0:0,0:0:0:0:
370,110,80834,1,2,0:0:0:0:
98,351,81158,6,0,B|60:379|60:379|102:220,1,207.999990478516,6|0,3:1|3:2,0:0:0:0:
270,331,81644,2,0,P|227:303|159:304,1,103.999995239258,2|8,3:2|0:0,0:0:0:0:
319,254,81969,1,6,3:2:0:0:
98,351,82131,5,2,0:0:0:0:
196,210,82293,1,2,3:2:0:0:
201,384,82455,1,8,0:0:0:0:
80,231,82617,1,2,1:2:0:0:
80,231,82698,1,0,1:2:0:0:
80,231,82780,1,0,3:2:0:0:
236,100,82942,2,0,P|286:114|344:131,1,103.999995239258,2|8,3:2|0:0,0:0:0:0:
200,15,83266,1,2,0:0:0:0:
398,201,83428,5,6,3:2:0:0:
398,201,83590,2,0,P|453:186|511:174,1,103.999995239258,2|8,0:0|0:0,0:0:0:0:
275,341,83915,1,2,1:2:0:0:
275,341,83996,1,0,1:2:0:0:
275,341,84077,1,0,3:2:0:0:
235,249,84239,2,0,B|287:234|287:234|355:284,1,103.999995239258,2|8,3:2|0:0,0:0:0:0:
405,342,84563,1,2,3:2:0:0:
484,94,84726,5,14,0:0:0:0:
327,263,84888,1,2,3:2:0:0:
384,57,85050,5,14,0:0:0:0:
491,295,85212,1,2,3:2:0:0:
260,138,85374,5,12,0:0:0:0:
219,128,85455,1,8,0:0:0:0:
178,130,85536,1,10,0:0:0:0:
139,146,85617,1,8,0:0:0:0:
106,173,85698,1,8,0:0:0:0:
0,0,85861,1,8,0:0:0:0:
0,0,85942,1,8,0:0:0:0:
0,0,86023,6,0,P|40:24|105:28,1,95.9999970703126,4|0,3:2|0:0,0:0:0:0:
260,138,86347,2,0,P|212:144|171:168,1,95.9999970703126,10|0,0:0|0:0,0:0:0:0:
50,303,86671,1,2,3:2:0:0:
50,303,86834,1,0,3:2:0:0:
249,245,86996,1,10,0:0:0:0:
62,128,87158,6,0,B|22:183|22:183|55:322,1,191.999994140625,0|0,3:2|3:2,0:0:0:0:
249,245,87644,1,8,0:0:0:0:
171,167,87807,1,2,0:0:0:0:
345,74,87969,1,10,3:2:0:0:
380,81,88050,1,8,0:0:0:0:
415,89,88131,1,10,0:0:0:0:
450,97,88212,1,8,0:0:0:0:
485,105,88293,2,0,P|497:129|498:156,1,47.9999985351563,8|8,3:2|0:0,0:0:0:0:
396,241,88455,1,2,3:2:0:0:
396,241,88536,1,0,3:2:0:0:
396,241,88617,1,10,0:0:0:0:
39,25,89753,6,0,B|158:55|83:96|212:130,1,191.999994140625,6|0,3:1|3:2,0:0:0:0:
357,25,90239,1,12,0:0:0:0:
263,52,90401,1,0,3:2:0:0:
196,125,90563,1,0,3:2:0:0:
377,198,90726,5,12,0:0:0:0:
169,34,90888,1,12,0:0:0:0:
234,289,91050,1,12,0:0:0:0:
