osu file format v14

[General]
AudioFilename: audio.mp3
AudioLeadIn: 0
PreviewTime: 49617
Countdown: 0
SampleSet: Soft
StackLeniency: 0.3
Mode: 0
LetterboxInBreaks: 0
WidescreenStoryboard: 1

[Editor]
DistanceSpacing: 1.9
BeatDivisor: 4
GridSize: 32
TimelineZoom: 1.9

[Metadata]
Title:Pride Kakumei (TV Size)
TitleUnicode:プライド革命 (TV Size)
Artist:CHiCO with HoneyWorks
ArtistUnicode:CHiCO with HoneyWorks
Creator:Smoke
Version:Akitoshi's Expert
Source:銀魂゜
Tags:gintama゜ gintama anime japanese female vocals vocalist rock J-Rock JRock pop opening op 15 akitoshi alevi Corinn -Laura- shinpachi kagura sakata gintoki
BeatmapID:3936197
BeatmapSetID:1908253

[Difficulty]
HPDrainRate:5.8
CircleSize:4
OverallDifficulty:8.8
ApproachRate:9.2
SliderMultiplier:1.7
SliderTickRate:1

[Events]
//Background and Video events
0,0,"gintama cute.jpg",0,0
Video,1581,"Video.mp4"
//Break Periods
//Storyboard Layer 0 (Background)
//Storyboard Layer 1 (Fail)
//Storyboard Layer 2 (Pass)
//Storyboard Layer 3 (Foreground)
//Storyboard Layer 4 (Overlay)
//Storyboard Sound Samples

[TimingPoints]
1699,324.324324324324,4,2,1,55,1,0
1699,-142.857142857143,4,2,1,55,0,0
2671,-142.857142857143,4,2,1,60,0,0
2834,-142.857142857143,4,2,1,55,0,0
4455,-142.857142857143,4,2,1,60,0,0
4617,-142.857142857143,4,2,1,55,0,0
10455,-142.857142857143,4,2,1,60,0,0
10617,-142.857142857143,4,2,1,55,0,0
11266,-166.666666666667,4,2,1,55,0,0
12077,-333.333333333334,4,2,1,55,0,0
12401,-333.333333333334,4,2,1,25,0,0
13212,-333.333333333334,4,2,1,5,0,0
13374,-100,4,2,1,75,0,0
15888,-100,4,2,1,60,0,0
15969,-100,4,2,1,75,0,0
18563,-125,4,2,1,65,0,0
20428,-125,4,2,1,60,0,0
20509,-125,4,2,1,65,0,0
21644,-125,4,2,1,60,0,0
21807,-125,4,2,1,65,0,0
28942,-142.857142857143,4,2,1,60,0,0
33401,-142.857142857143,4,2,1,5,0,0
33482,-142.857142857143,4,2,1,60,0,0
38023,-142.857142857143,4,2,1,70,0,0
38347,-111.111111111111,4,2,1,70,0,0
39077,-111.111111111111,4,2,1,60,0,0
39158,-111.111111111111,4,2,1,70,0,0
40780,-111.111111111111,4,2,1,60,0,0
40942,-111.111111111111,4,2,1,70,0,0
41752,-111.111111111111,4,2,1,60,0,0
41915,-111.111111111111,4,2,1,70,0,0
44347,-111.111111111111,4,2,1,60,0,0
44509,-100,4,2,1,70,0,0
47104,-250,4,2,1,70,0,0
47185,-250,4,2,1,60,0,0
48401,-166.666666666667,4,2,1,40,0,0
49698,-83.3333333333333,4,2,1,80,0,1
49861,-83.3333333333333,4,2,1,80,0,0
51969,-83.3333333333333,4,2,1,60,0,0
52131,-83.3333333333333,4,2,1,80,0,0
52212,-83.3333333333333,4,2,1,60,0,0
52293,-83.3333333333333,4,2,1,80,0,0
59104,-76.9230769230769,4,2,1,80,0,0
59347,-76.9230769230769,4,2,1,5,0,0
59428,-71.4285714285714,4,2,1,80,0,0
59509,-71.4285714285714,4,2,1,60,0,0
59590,-71.4285714285714,4,2,1,80,0,0
59753,-66.6666666666667,4,2,1,80,0,0
60077,-83.3333333333333,4,2,1,80,0,1
60239,-83.3333333333333,4,2,1,80,0,0
63969,-66.6666666666667,4,2,1,80,0,0
65266,-83.3333333333333,4,2,1,80,0,0
68428,-83.3333333333333,4,2,1,60,0,0
68509,-83.3333333333333,4,2,1,80,0,0
69482,-100,4,2,1,80,0,0
69807,-125,4,2,1,80,0,0
70131,-166.666666666667,4,2,1,80,0,0
70455,-250,4,2,1,65,0,0
71753,-166.666666666667,4,2,1,65,0,0
73050,-200,4,2,1,65,0,0
74347,-250,4,2,1,65,0,0
74671,-250,4,2,1,60,0,0
74834,-250,4,2,1,65,0,0
74996,-166.666666666667,4,2,1,65,0,0
75644,-142.857142857143,4,2,1,65,0,0
76942,-125,4,2,1,65,0,0
77915,-125,4,2,1,60,0,0
78077,-125,4,2,1,65,0,0
78239,-111.111111111111,4,2,1,75,0,0
78888,-100,4,2,1,75,0,0
79536,-200,4,2,1,70,0,0
80833,-200,4,2,1,60,0,0
81158,-83.3333333333333,4,2,1,80,0,1
81320,-83.3333333333333,4,2,1,80,0,0
84726,-66.6666666666667,4,2,1,85,0,0
85779,-66.6666666666667,4,2,1,60,0,0
85861,-66.6666666666667,4,2,1,85,0,0
86023,-83.3333333333333,4,2,1,80,0,0
86266,-83.3333333333333,4,2,1,5,0,0
86347,-83.3333333333333,4,2,1,80,0,0
88617,-83.3333333333333,4,2,1,70,0,0
89753,-83.3333333333333,4,2,1,80,0,0
89915,-83.3333333333333,4,2,1,60,0,0
90077,-83.3333333333333,4,2,1,80,0,0

[Colours]
Combo1 : 75,224,241
Combo2 : 240,154,38
Combo3 : 213,47,17
Combo4 : 65,175,241

[HitObjects]
293,229,1699,5,2,0:0:0:0:
370,258,1861,2,0,P|380:224|360:131,1,118.999996368408,2|2,0:0|0:0,0:0:0:0:
293,83,2347,1,2,0:0:0:0:
216,139,2509,2,0,P|178:131|145:122,1,59.4999981842042,2|0,0:0|0:0,0:0:0:0:
81,91,2834,1,2,0:0:0:0:
18,145,2996,6,0,P|24:201|45:265,2,118.999996368408,2|2|2,0:0|0:0|0:0,0:0:0:0:
81,91,3807,1,0,0:0:0:0:
158,125,3969,2,0,P|168:94|173:52,1,59.4999981842042,2|0,0:0|0:0,0:0:0:0:
248,1,4293,6,0,P|252:30|262:58,1,59.4999981842042,2|0,0:0|0:0,0:0:0:0:
315,151,4617,2,0,P|344:133|437:118,1,118.999996368408
426,116,5266,1,2,0:0:0:0:
457,193,5428,1,2,0:0:0:0:
485,271,5590,6,0,P|476:312|474:330,1,59.4999981842042
396,361,5915,2,0,P|392:331|385:302,1,59.4999981842042
293,226,6239,1,2,0:0:0:0:
270,342,6401,1,2,0:0:0:0:
180,264,6563,1,2,0:0:0:0:
180,264,6888,5,2,0:0:0:0:
293,226,7050,1,2,0:0:0:0:
219,175,7212,1,2,0:0:0:0:
299,135,7374,2,0,P|322:142|368:149,1,59.4999981842042,2|0,0:0|0:0,0:0:0:0:
401,70,7698,2,0,P|348:37|278:53,1,118.999996368408,2|0,0:0|0:0,0:0:0:0:
194,109,8185,5,2,0:0:0:0:
134,5,8347,1,2,0:0:0:0:
194,109,8509,1,2,0:0:0:0:
106,92,8671,2,0,P|58:101|37:107,1,59.4999981842042,2|0,0:0|0:0,0:0:0:0:
9,184,8996,2,0,P|57:192|135:216,1,118.999996368408,2|2,0:0|0:0,0:0:0:0:
233,258,9482,5,2,0:0:0:0:
306,164,9644,2,0,P|352:157|432:195,1,118.999996368408,2|2,0:0|0:0,0:0:0:0:
509,259,10131,1,0,0:0:0:0:
403,313,10293,2,0,P|362:322|334:336,1,59.4999981842042,2|0,0:0|0:0,0:0:0:0:
273,369,10617,5,2,0:0:0:0:
273,369,10942,1,2,0:0:0:0:
172,267,11266,2,0,P|109:280|17:188,1,203.999993774414,2|0,0:0|0:0,0:0:0:0:
53,112,12077,6,0,B|95:121|95:121|121:140|121:140|168:112|168:112|219:122,1,178.499994552612,2|0,0:0|0:0,0:0:0:0:
295,137,13374,6,0,B|306:105|306:105|291:44,1,85,6|2,3:1|0:0,0:0:0:0:
187,229,13698,1,8,0:0:0:0:
394,191,13861,1,2,0:0:0:0:
394,191,13942,1,8,0:0:0:0:
394,191,14023,1,0,3:2:0:0:
282,307,14185,1,0,3:2:0:0:
215,121,14347,1,10,0:0:0:0:
115,308,14509,6,0,B|62:324|5:345|5:345|19:322|28:285,1,170,4|2,3:2|3:2,0:0:0:0:
59,101,14996,1,8,0:0:0:0:
217,232,15158,1,2,0:0:0:0:
217,232,15239,1,8,0:0:0:0:
217,232,15320,1,2,3:2:0:0:
58,204,15482,1,2,3:2:0:0:
213,101,15644,1,10,0:0:0:0:
270,324,15807,1,8,0:0:0:0:
270,324,15888,1,8,0:0:0:0:
270,324,15969,5,6,3:1:0:0:
362,213,16131,2,0,P|361:170|346:125,1,85,2|8,0:0|0:0,0:0:0:0:
147,175,16455,1,2,0:0:0:0:
147,175,16536,1,8,0:0:0:0:
147,175,16617,1,0,3:2:0:0:
249,310,16780,1,0,3:2:0:0:
324,129,16942,1,10,0:0:0:0:
483,268,17104,6,0,B|510:304|511:368|471:381|471:381|414:347,1,170,4|2,3:2|3:2,0:0:0:0:
282,232,17590,2,0,P|325:212|364:213,1,85,8|0,0:0|0:0,0:0:0:0:
509,127,17915,5,10,0:0:0:0:
491,89,17996,1,8,0:0:0:0:
464,56,18077,1,10,0:0:0:0:
430,30,18158,1,8,0:0:0:0:
391,13,18239,1,10,0:0:0:0:
350,7,18320,1,8,0:0:0:0:
307,9,18401,1,8,0:0:0:0:
267,22,18482,1,8,0:0:0:0:
231,43,18563,6,0,P|243:92|247:118,1,68,4|2,3:2|0:0,0:0:0:0:
118,162,18888,2,0,P|124:128|132:95,1,68,8|2,0:0|0:0,0:0:0:0:
201,199,19212,1,2,3:2:0:0:
98,251,19374,2,0,P|62:243|29:240,1,68,2|8,3:2|0:0,0:0:0:0:
129,335,19698,1,2,3:2:0:0:
210,299,19861,6,0,P|226:345|227:370,1,68,2|0,0:0|3:2,0:0:0:0:
329,363,20185,2,0,P|333:329|346:298,1,68,10|2,0:0|0:0,0:0:0:0:
346,298,20428,1,2,0:0:0:0:
346,298,20509,1,2,3:2:0:0:
428,357,20671,1,0,3:2:0:0:
511,289,20834,2,0,P|503:251|498:222,1,68,10|0,0:0|0:0,0:0:0:0:
377,176,21158,6,0,P|319:193|252:142,1,136,6|8,3:2|0:0,0:0:0:0:
256,60,21644,1,2,0:0:0:0:
256,60,21726,1,2,0:0:0:0:
256,60,21807,1,0,3:2:0:0:
328,111,21969,1,0,3:2:0:0:
366,16,22131,1,10,0:0:0:0:
478,78,22293,6,0,B|499:157|449:138|480:228,1,136,6|0,3:2|3:2,0:0:0:0:
433,305,22780,2,0,P|397:291|353:289,1,68,8|0,0:0|0:0,0:0:0:0:
286,322,23104,1,2,3:2:0:0:
355,375,23266,1,2,3:2:0:0:
295,237,23428,1,10,0:0:0:0:
295,237,23753,6,0,P|299:203|312:171,1,68,6|2,3:2|0:0,0:0:0:0:
364,84,24077,1,8,0:0:0:0:
454,131,24239,2,0,P|465:128|490:122,2,34,2|2|0,0:0|0:0|3:2,0:0:0:0:
394,195,24563,1,2,3:2:0:0:
490,230,24726,2,0,P|482:270|476:304,1,68,8|0,0:0|3:2,0:0:0:0:
451,381,25050,5,2,0:0:0:0:
370,343,25212,2,0,P|320:347|297:361,1,68,2|8,3:2|0:0,0:0:0:0:
259,241,25536,2,0,P|237:286|238:313,1,68,2|0,0:0|3:2,0:0:0:0:
344,258,25861,1,2,3:2:0:0:
274,153,26023,2,0,P|235:162|196:173,1,68,8|2,0:0|0:0,0:0:0:0:
88,195,26347,5,6,3:2:0:0:
132,103,26509,2,0,P|119:73|119:35,1,68,2|8,0:0|0:0,0:0:0:0:
205,55,26834,2,0,P|224:28|257:9,1,68,2|0,0:0|3:2,0:0:0:0:
342,8,27158,1,2,3:2:0:0:
407,86,27320,1,8,0:0:0:0:
274,153,27482,1,6,3:2:0:0:
274,153,28131,5,10,0:0:0:0:
279,169,28212,1,8,0:0:0:0:
285,184,28293,1,8,0:0:0:0:
282,265,28455,1,8,3:3:0:0:
206,296,28617,1,8,3:3:0:0:
129,266,28780,1,8,3:3:0:0:
109,187,28942,6,0,P|80:183|50:179,1,59.4999981842042,6|0,3:2|0:0,0:0:0:0:
121,107,29266,2,0,P|91:103|61:99,1,59.4999981842042,2|0,3:2|0:0,0:0:0:0:
184,26,29590,2,0,P|237:13|301:44,1,118.999996368408,10|2,0:0|0:0,0:0:0:0:
354,125,30077,5,2,1:2:0:0:
358,139,30158,1,0,1:2:0:0:
362,153,30239,2,0,P|356:190|352:217,1,59.4999981842042,0|2,1:2|0:0,0:0:0:0:
450,168,30563,2,0,P|444:205|440:232,1,59.4999981842042,2|2,3:2|0:0,0:0:0:0:
424,333,30888,1,10,0:0:0:0:
348,368,31050,1,2,0:0:0:0:
264,363,31212,1,2,0:0:0:0:
206,303,31374,1,0,1:2:0:0:
194,312,31455,1,0,1:2:0:0:
182,321,31536,6,0,P|147:310|117:302,1,59.4999981842042,2|0,1:2|0:0,0:0:0:0:
183,220,31861,2,0,P|148:209|118:201,1,59.4999981842042,2|0,3:2|0:0,0:0:0:0:
52,125,32185,1,10,0:0:0:0:
119,76,32347,1,2,0:0:0:0:
191,116,32509,2,0,P|226:121|256:113,1,59.4999981842042,0|0,0:0|1:2,0:0:0:0:
355,60,32834,5,2,1:2:0:0:
249,5,32996,1,8,0:0:0:0:
355,60,33158,2,0,P|415:46|466:37,1,89.2499972763062,6|0,3:2|0:0,0:0:0:0:
453,50,33482,5,2,0:0:0:0:
390,178,33807,1,2,3:0:0:0:
390,178,34131,6,0,P|404:222|407:240,1,59.4999981842042,4|0,3:2|0:0,0:0:0:0:
498,259,34455,2,0,P|484:303|481:321,1,59.4999981842042,2|0,3:2|0:0,0:0:0:0:
380,367,34780,2,0,P|331:336|263:332,1,118.999996368408,10|2,0:0|0:0,0:0:0:0:
271,330,35428,6,0,P|263:295|254:270,1,59.4999981842042,0|0,3:2|0:0,0:0:0:0:
176,218,35753,2,0,P|166:246|160:275,1,59.4999981842042,2|0,3:2|0:0,0:0:0:0:
79,354,36077,2,0,P|54:297|43:220,1,118.999996368408,10|2,0:0|0:0,0:0:0:0:
48,122,36563,5,0,1:2:0:0:
60,129,36644,1,0,1:2:0:0:
73,136,36726,2,0,P|104:127|136:119,1,59.4999981842042,0|0,3:2|0:0,0:0:0:0:
200,55,37050,2,0,P|171:46|142:39,1,59.4999981842042,2|0,3:2|0:0,0:0:0:0:
311,3,37374,1,10,0:0:0:0:
282,93,37536,2,0,P|294:145|310:215,1,118.999996368408,0|0,3:2|3:2,0:0:0:0:
440,312,38023,5,12,0:0:0:0:
457,182,38185,1,0,3:2:0:0:
318,302,38347,2,0,B|283:297|283:297|266:300|266:300|230:294,1,76.4999976654053,12|0,0:0|0:0,0:0:0:0:
90,278,38671,5,2,3:2:0:0:
214,152,38834,1,8,0:0:0:0:
214,152,38915,1,8,0:0:0:0:
214,152,38996,2,0,L|203:102,1,38.2499988327027,10|0,0:0|0:0,0:0:0:0:
140,60,39158,1,8,0:0:0:0:
140,60,39239,1,8,0:0:0:0:
140,60,39320,6,0,B|96:101|104:165|104:165|135:192,1,152.999995330811,6|8,3:1|0:0,0:0:0:0:
286,136,39807,2,0,P|238:139|207:157,1,76.4999976654053,2|0,0:0|3:2,0:0:0:0:
319,229,40131,1,2,0:0:0:0:
358,66,40293,1,8,0:0:0:0:
457,136,40455,6,0,P|470:196|462:227,1,76.4999976654053,2|0,0:0|3:2,0:0:0:0:
429,327,40780,1,2,0:0:0:0:
319,229,40942,2,0,P|258:238|225:246,1,76.4999976654053,10|0,0:0|0:0,0:0:0:0:
146,369,41266,2,0,P|168:311|178:279,1,76.4999976654053,2|2,3:2|0:0,0:0:0:0:
111,149,41590,2,0,P|149:197|172:221,1,76.4999976654053,10|0,0:0|0:0,0:0:0:0:
319,229,41915,6,0,P|341:163|318:71,1,152.999995330811,2|8,3:2|0:0,0:0:0:0:
217,21,42401,1,2,0:0:0:0:
111,149,42563,2,0,P|68:142|23:134,1,76.4999976654053,2|0,3:2|0:0,0:0:0:0:
243,241,42888,2,0,P|286:234|331:226,1,76.4999976654053,10|0,0:0|0:0,0:0:0:0:
474,199,43212,5,2,3:2:0:0:
332,322,43374,1,8,0:0:0:0:
332,322,43455,1,8,0:0:0:0:
332,322,43536,1,0,3:2:0:0:
362,148,43698,1,2,3:2:0:0:
434,288,43861,2,0,P|425:335|420:368,1,76.4999976654053,0|0,3:2|3:2,0:0:0:0:
243,241,44185,2,0,P|237:203|229:165,1,76.4999976654053,14|0,0:0|0:0,0:0:0:0:
5,189,44509,6,0,B|98:221|98:221|141:206|148:155,1,170,6|8,3:1|0:0,0:0:0:0:
285,15,44996,1,8,0:0:0:0:
285,15,45077,1,8,0:0:0:0:
285,15,45158,1,0,3:2:0:0:
255,169,45320,1,0,3:2:0:0:
99,80,45482,2,0,P|51:82|-2:107,1,85,8|0,0:0|0:0,0:0:0:0:
32,317,45807,6,0,P|80:315|133:290,1,85,0|0,3:2|0:0,0:0:0:0:
271,159,46131,1,10,0:0:0:0:
250,376,46293,1,8,0:0:0:0:
250,376,46374,1,8,0:0:0:0:
250,376,46455,1,2,3:2:0:0:
145,171,46617,1,0,3:2:0:0:
381,239,46780,1,10,0:0:0:0:
257,31,46942,1,8,0:0:0:0:
257,31,47023,1,8,0:0:0:0:
257,31,47104,5,6,3:1:0:0:
256,192,47185,12,2,48401,0:0:0:0:
216,209,49698,6,0,B|178:228|178:228|151:226|118:208,1,101.999996887207,6|2,3:1|0:0,0:0:0:0:
319,82,50023,1,8,0:0:0:0:
270,317,50185,1,2,1:2:0:0:
270,317,50266,1,0,1:2:0:0:
270,317,50347,1,0,3:2:0:0:
164,130,50509,1,2,3:2:0:0:
386,205,50671,2,0,P|436:192|489:181,1,101.999996887207,8|6,0:0|3:2,0:0:0:0:
260,19,50996,5,2,0:0:0:0:
164,268,51158,1,2,3:2:0:0:
62,18,51320,1,10,0:0:0:0:
276,150,51482,1,2,1:2:0:0:
276,150,51563,1,0,1:2:0:0:
276,150,51644,1,0,3:2:0:0:
71,214,51807,1,2,3:2:0:0:
295,312,51969,2,0,P|344:327|406:315,1,101.999996887207,8|2,0:0|1:2,0:0:0:0:
479,282,52212,1,8,0:0:0:0:
479,282,52293,6,0,B|448:257|442:204|474:157|474:157|444:178|410:180,1,203.999993774414,6|8,3:2|0:0,0:0:0:0:
260,11,52780,1,2,1:2:0:0:
260,11,52861,1,0,1:2:0:0:
260,11,52942,1,0,3:2:0:0:
446,61,53104,1,2,3:2:0:0:
259,170,53266,2,0,P|198:159|150:153,1,101.999996887207,8|6,0:0|3:2,0:0:0:0:
331,107,53590,5,2,0:0:0:0:
221,259,53753,1,2,3:2:0:0:
171,62,53915,1,10,0:0:0:0:
78,210,54077,1,2,1:2:0:0:
78,210,54158,1,0,1:2:0:0:
78,210,54239,2,0,P|65:264|83:331,1,101.999996887207,0|2,3:2|3:2,0:0:0:0:
270,350,54563,1,8,0:0:0:0:
140,138,54726,1,0,1:2:0:0:
140,138,54807,1,0,1:2:0:0:
140,138,54888,6,0,B|98:132|98:132|85:120|85:120|36:112,1,101.999996887207,6|0,3:2|0:0,0:0:0:0:
172,266,55212,2,0,P|237:255|281:248,1,101.999996887207,10|0,0:0|1:2,0:0:0:0:
272,249,55455,1,0,1:2:0:0:
272,249,55536,1,2,3:2:0:0:
185,373,55698,1,0,3:2:0:0:
180,138,55861,1,10,0:0:0:0:
397,186,56023,6,0,B|374:255|374:255|406:300|406:300|383:380,1,203.999993774414,4|0,3:2|3:2,0:0:0:0:
286,143,56509,1,8,0:0:0:0:
486,246,56671,1,2,1:2:0:0:
486,246,56753,1,0,1:2:0:0:
486,246,56834,1,2,3:2:0:0:
280,257,56996,1,2,3:2:0:0:
425,74,57158,1,8,0:0:0:0:
212,126,57320,1,10,0:0:0:0:
212,126,57401,1,8,0:0:0:0:
212,126,57482,6,0,P|153:127|112:106,1,101.999996887207,6|0,3:2|0:0,0:0:0:0:
354,12,57807,1,10,0:0:0:0:
270,244,57969,1,0,1:2:0:0:
270,244,58050,1,0,1:2:0:0:
270,244,58131,1,2,3:2:0:0:
242,32,58293,1,0,3:2:0:0:
389,159,58455,2,0,P|442:148|493:137,1,101.999996887207,10|0,0:0|3:2,0:0:0:0:
373,317,58780,5,12,0:0:0:0:
299,101,58942,1,0,3:2:0:0:
154,340,59104,2,0,B|99:344|43:373|43:373|56:349|58:326,1,165.749992412568,14|0,0:0|0:0,0:0:0:0:
86,235,59428,6,0,B|81:208|81:208|82:204|82:204|75:170,1,59.4999981842042,0|0,3:2|0:0,0:0:0:0:
62,86,59590,1,8,0:0:0:0:
87,54,59671,1,8,0:0:0:0:
123,33,59752,1,10,0:0:0:0:
164,25,59833,1,8,0:0:0:0:
204,31,59914,1,8,0:0:0:0:
240,52,59995,1,8,0:0:0:0:
267,83,60077,6,0,B|243:118|243:118|242:149|266:192,1,101.999996887207,6|2,3:1|0:0,0:0:0:0:
458,332,60401,1,8,0:0:0:0:
390,149,60563,1,2,1:2:0:0:
390,149,60644,1,0,1:2:0:0:
390,149,60726,1,0,3:2:0:0:
253,303,60888,1,2,3:2:0:0:
500,258,61050,2,0,P|504:203|480:149,1,101.999996887207,8|6,0:0|3:2,0:0:0:0:
299,2,61374,5,2,0:0:0:0:
347,250,61536,1,2,3:2:0:0:
470,13,61698,1,10,0:0:0:0:
283,113,61861,1,2,1:2:0:0:
283,113,61942,1,0,1:2:0:0:
283,113,62023,2,0,P|215:94|164:87,1,101.999996887207,0|2,3:2|3:2,0:0:0:0:
9,267,62347,1,8,0:0:0:0:
255,216,62509,1,2,1:2:0:0:
255,216,62590,1,0,1:2:0:0:
255,216,62671,5,6,3:2:0:0:
83,100,62834,2,0,P|73:50|87:2,1,101.999996887207,2|8,0:0|0:0,0:0:0:0:
312,131,63158,1,2,1:2:0:0:
312,131,63239,1,0,1:2:0:0:
312,131,63320,1,0,3:2:0:0:
114,199,63482,1,2,3:2:0:0:
230,1,63644,2,0,P|285:11|341:22,1,101.999996887207,8|6,0:0|3:2,0:0:0:0:
454,252,63969,5,2,0:0:0:0:
187,143,64131,1,2,3:2:0:0:
453,49,64293,1,10,0:0:0:0:
312,299,64455,1,2,1:2:0:0:
312,299,64536,1,0,1:2:0:0:
312,299,64617,5,0,3:2:0:0:
225,27,64780,1,2,3:2:0:0:
467,157,64942,1,8,0:0:0:0:
200,257,65104,1,0,1:2:0:0:
200,257,65185,1,0,1:2:0:0:
200,257,65266,6,0,B|89:233|89:233|106:246|119:280,1,152.999995330811,6|0,3:2|0:0,0:0:0:0:
115,356,65590,2,0,P|162:371|217:364,1,101.999996887207,10|0,0:0|1:2,0:0:0:0:
395,271,65915,1,2,3:2:0:0:
207,235,66077,1,0,3:2:0:0:
351,378,66239,1,10,0:0:0:0:
378,165,66401,6,0,B|265:175|302:99|161:113,1,203.999993774414,4|0,3:2|3:2,0:0:0:0:
451,65,66888,1,8,0:0:0:0:
374,275,67050,1,2,1:2:0:0:
374,275,67131,1,0,1:2:0:0:
374,275,67212,1,2,3:2:0:0:
288,105,67374,1,2,3:2:0:0:
512,182,67536,2,0,P|495:240|489:291,1,101.999996887207,8|2,0:0|0:0,0:0:0:0:
254,383,67861,5,6,3:2:0:0:
121,242,68023,1,8,0:0:0:0:
121,242,68104,1,8,0:0:0:0:
121,242,68185,2,0,P|86:248|59:256,1,50.9999984436036,10|0,0:0|0:0,0:0:0:0:
15,143,68347,2,0,P|39:149|64:153,1,50.9999984436036,8|0,3:2|0:0,0:0:0:0:
186,162,68509,5,10,0:0:0:0:
225,153,68590,1,8,0:0:0:0:
265,144,68671,1,8,0:0:0:0:
305,135,68752,1,8,0:0:0:0:
345,126,68834,2,0,P|370:173|356:238,1,101.999996887207,10|8,0:0|0:0,0:0:0:0:
292,273,69077,1,8,0:0:0:0:
292,273,69158,6,0,P|254:257|211:254,2,67.9999979248048,8|8|8,0:0|0:0|0:0,0:0:0:0:
379,319,69482,6,0,P|404:306|432:300,2,56.6666666666667,8|8|8,0:0|3:2|3:2,0:0:0:0:
312,366,69807,5,8,3:2:0:0:
295,383,69915,2,0,P|260:374|241:369,1,45.3333333333333,8|8,3:2|3:2,0:0:0:0:
180,322,70131,5,8,3:2:0:0:
178,330,70239,2,0,P|161:334|145:338,1,33.9999989624024,8|8,3:2|3:2,0:0:0:0:
124,345,70455,6,0,B|85:300|94:248|94:248|118:211|118:211|83:174|92:121,1,238,6|0,3:1|0:0,0:0:0:0:
168,26,71753,6,0,B|195:36|219:36|219:36|237:54|255:63|255:63|275:36|317:13|317:13|356:41|431:22|431:22|399:38|384:67,1,356.999989105225,6|0,3:1|0:0,0:0:0:0:
362,162,73050,6,0,B|297:128|228:168|228:168|275:204|290:260|290:260|306:244|332:235,1,297.5,6|0,3:1|0:0,0:0:0:0:
419,232,74347,6,0,B|432:258|432:258|419:305,1,68,6|0,3:1|0:0,0:0:0:0:
364,360,74834,5,10,0:0:0:0:
364,360,74915,1,8,0:0:0:0:
364,360,74996,2,0,P|324:367|278:349,2,76.4999976654053,8|8|10,3:2|3:2|3:2,0:0:0:0:
290,260,75644,6,0,B|244:266|244:266|225:280|225:280|169:286,1,118.999996368408,6|2,3:2|0:0,0:0:0:0:
69,144,76293,2,0,B|115:150|115:150|134:164|134:164|186:171,1,118.999996368408,6|2,3:2|0:0,0:0:0:0:
385,198,76942,5,4,3:2:0:0:
337,107,77104,2,0,P|288:114|266:123,1,68
182,170,77428,1,2,0:0:0:0:
230,51,77590,1,6,3:2:0:0:
273,209,77753,2,0,P|266:254|262:287,1,68,2|0,0:0|0:0,0:0:0:0:
252,377,78077,1,2,0:0:0:0:
121,296,78239,6,0,B|91:310|91:310|41:300,1,76.4999976654053,6|0,3:2|0:0,0:0:0:0:
170,154,78563,1,6,3:2:0:0:
263,276,78726,5,8,0:0:0:0:
258,286,78807,1,8,0:0:0:0:
253,297,78888,1,6,3:2:0:0:
348,106,79050,5,8,0:0:0:0:
339,87,79131,1,8,0:0:0:0:
330,68,79212,1,6,3:2:0:0:
469,222,79374,5,8,0:0:0:0:
457,247,79455,1,8,0:0:0:0:
445,272,79536,2,0,B|402:229|330:233|294:278|294:278|250:288|211:266|211:266|189:268|165:281|165:281|148:275|130:272,1,340,0|2,3:2|0:0,0:0:0:0:
131,272,81158,6,0,B|137:232|137:232|130:215|130:215|140:161,1,101.999996887207,6|2,3:1|0:0,0:0:0:0:
211,373,81482,1,0,3:2:0:0:
16,261,81644,2,0,P|11:209|35:157,1,101.999996887207,2|8,3:2|0:0,0:0:0:0:
148,22,81969,1,6,3:2:0:0:
234,250,82131,5,2,0:0:0:0:
85,91,82293,1,2,3:2:0:0:
337,127,82455,1,8,0:0:0:0:
131,272,82617,1,2,1:2:0:0:
131,272,82698,1,0,1:2:0:0:
131,272,82780,2,0,P|143:333|150:387,1,101.999996887207,0|2,3:2|3:2,0:0:0:0:
354,223,83104,1,8,0:0:0:0:
160,159,83266,1,2,0:0:0:0:
299,371,83428,5,6,3:2:0:0:
376,215,83590,2,0,P|426:198|486:210,1,101.999996887207,2|8,0:0|0:0,0:0:0:0:
404,380,83915,1,2,1:2:0:0:
404,380,83996,1,0,1:2:0:0:
404,380,84077,1,0,3:2:0:0:
294,173,84239,1,2,3:2:0:0:
466,307,84401,1,8,0:0:0:0:
246,284,84563,1,2,3:2:0:0:
366,32,84726,5,14,0:0:0:0:
443,304,84888,1,2,3:2:0:0:
237,12,85050,5,14,0:0:0:0:
156,304,85212,1,2,3:2:0:0:
470,178,85374,5,12,0:0:0:0:
484,135,85455,1,8,0:0:0:0:
482,91,85536,1,10,0:0:0:0:
462,51,85617,1,8,0:0:0:0:
429,22,85698,2,0,L|356:34,1,63.7500024318696,8|0,0:0|0:0,0:0:0:0:
237,93,85861,1,8,0:0:0:0:
197,77,85942,1,8,0:0:0:0:
161,64,86023,6,0,B|109:51|65:85|65:85|46:78|16:73,1,152.999995330811,4|0,3:2|0:0,0:0:0:0:
3,163,86347,2,0,P|48:186|106:184,1,101.999996887207,10|0,0:0|0:0,0:0:0:0:
308,136,86671,1,2,3:2:0:0:
165,297,86834,1,0,3:2:0:0:
197,77,86996,1,10,0:0:0:0:
412,176,87158,6,0,B|391:288|403:235|376:377,1,203.999993774414,0|0,3:2|3:2,0:0:0:0:
177,283,87644,2,0,B|241:269|228:270|286:258,1,101.999996887207,8|2,0:0|0:0,0:0:0:0:
401,60,87969,5,10,3:2:0:0:
366,38,88050,1,8,0:0:0:0:
326,31,88131,1,10,0:0:0:0:
287,41,88212,1,8,0:0:0:0:
263,74,88293,5,8,3:2:0:0:
238,81,88374,1,8,0:0:0:0:
213,81,88455,1,2,3:2:0:0:
189,73,88536,1,0,3:2:0:0:
176,53,88617,5,10,0:0:0:0:
176,53,89753,6,0,B|147:87|147:87|149:112|172:153,1,101.999996887207,6|0,3:1|0:0,0:0:0:0:
259,310,90077,1,0,3:2:0:0:
301,79,90239,5,12,0:0:0:0:
180,243,90401,1,0,3:2:0:0:
380,209,90563,1,0,3:2:0:0:
176,53,90726,5,12,0:0:0:0:
277,321,90888,1,12,0:0:0:0:
417,73,91050,1,12,0:0:0:0:
