osu file format v14

[General]
AudioFilename: audio.mp3
AudioLeadIn: 0
PreviewTime: 49617
Countdown: 0
SampleSet: Soft
StackLeniency: 0.3
Mode: 0
LetterboxInBreaks: 0
WidescreenStoryboard: 1

[Editor]
DistanceSpacing: 1
BeatDivisor: 4
GridSize: 4
TimelineZoom: 1.9

[Metadata]
Title:Pride Kakumei (TV Size)
TitleUnicode:プライド革命 (TV Size)
Artist:CHiCO with HoneyWorks
ArtistUnicode:CHiCO with HoneyWorks
Creator:Smoke
Version:Advanced
Source:銀魂゜
Tags:gintama゜ gintama anime japanese female vocals vocalist rock J-Rock JRock pop opening op 15 akitoshi alevi Corinn -Laura- shinpachi kagura sakata gintoki
BeatmapID:3935300
BeatmapSetID:1908253

[Difficulty]
HPDrainRate:4
CircleSize:3.3
OverallDifficulty:4.5
ApproachRate:5.5
SliderMultiplier:1
SliderTickRate:1

[Events]
//Background and Video events
0,0,"gintama cute.jpg",0,0
Video,1581,"Video.mp4"
//Break Periods
//Storyboard Layer 0 (Background)
//Storyboard Layer 1 (Fail)
//Storyboard Layer 2 (Pass)
//Storyboard Layer 3 (Foreground)
//Storyboard Layer 4 (Overlay)
//Storyboard Sound Samples

[TimingPoints]
1699,324.324324324324,4,2,1,55,1,0
1699,-111.111111111111,4,2,1,55,0,0
10536,-111.111111111111,4,2,1,5,0,0
10617,-111.111111111111,4,2,1,55,0,0
13293,-111.111111111111,4,2,1,5,0,0
13374,-90.9090909090909,4,2,1,75,0,0
18563,-100,4,2,1,65,0,0
28942,-105.263157894737,4,2,1,60,0,0
33401,-105.263157894737,4,2,1,5,0,0
33482,-105.263157894737,4,2,1,60,0,0
34050,-105.263157894737,4,2,1,5,0,0
34131,-105.263157894737,4,2,1,60,0,0
38023,-100,4,2,1,70,0,0
38590,-100,4,2,1,5,0,0
38671,-100,4,2,1,70,0,0
39320,-100,4,2,1,70,0,0
41834,-100,4,2,1,5,0,0
41915,-100,4,2,1,70,0,0
44428,-100,4,2,1,5,0,0
44509,-100,4,2,1,70,0,0
47104,-111.111111111111,4,2,1,70,0,0
48401,-111.111111111111,4,2,1,40,0,0
49698,-90.9090909090909,4,2,1,80,0,0
59347,-90.9090909090909,4,2,1,5,0,0
59428,-90.9090909090909,4,2,1,80,0,0
70455,-105.263157894737,4,2,1,65,0,0
74753,-105.263157894737,4,2,1,5,0,0
74834,-105.263157894737,4,2,1,65,0,0
75158,-105.263157894737,4,2,1,5,0,0
75239,-105.263157894737,4,2,1,65,0,0
75401,-105.263157894737,4,2,1,5,0,0
75482,-105.263157894737,4,2,1,65,0,0
75563,-105.263157894737,4,2,1,5,0,0
75644,-100,4,2,1,65,0,0
76942,-100,4,2,1,65,0,0
78239,-95.2380952380952,4,2,1,75,0,0
78888,-95.2380952380952,4,2,1,75,0,0
79536,-111.111111111111,4,2,1,70,0,0
79780,-111.111111111111,4,2,1,5,0,0
79861,-111.111111111111,4,2,1,55,0,0
80185,-111.111111111111,4,2,1,65,0,0
80509,-111.111111111111,4,2,1,75,0,0
80834,-111.111111111111,4,2,1,60,0,0
81158,-90.9090909090909,4,2,1,80,0,0
84726,-86.9565217391304,4,2,1,85,0,0
86023,-90.9090909090909,4,2,1,80,0,0
86266,-90.9090909090909,4,2,1,5,0,0
86347,-90.9090909090909,4,2,1,80,0,0
88617,-100,4,2,1,70,0,0
89753,-90.9090909090909,4,2,1,80,0,0

[Colours]
Combo1 : 75,224,241
Combo2 : 240,154,38
Combo3 : 213,47,17
Combo4 : 65,175,241

[HitObjects]
457,341,1699,6,0,P|414:320|359:324,1,89.999997253418,2|0,0:0|0:0,0:0:0:0:
290,349,2347,1,2,0:0:0:0:
290,349,2509,2,0,P|281:305|270:252,1,89.9999972534181,2|2,0:0|0:0,0:0:0:0:
242,226,2996,5,2,0:0:0:0:
313,171,3320,1,2,0:0:0:0:
303,81,3644,1,2,0:0:0:0:
219,45,3969,1,2,0:0:0:0:
144,95,4293,6,0,B|95:97|109:116|50:118,2,89.9999972534181,2|0|0,0:0|0:0|0:0,0:0:0:0:
219,45,5266,1,2,0:0:0:0:
219,45,5428,6,0,L|327:67,1,89.9999972534181,2|0,0:0|0:0,0:0:0:0:
351,72,5915,1,0,0:0:0:0:
418,130,6239,2,0,P|441:124|475:118,2,44.999998626709,2|2|2,0:0|0:0|0:0,0:0:0:0:
354,193,6888,6,0,P|331:187|297:181,2,44.999998626709,2|2|2,0:0|0:0|0:0,0:0:0:0:
388,222,7374,1,2,0:0:0:0:
342,299,7698,2,0,P|296:309|234:325,1,89.9999972534181,2|0,0:0|0:0,0:0:0:0:
209,311,8185,6,0,P|185:329|178:352,2,44.999998626709,2|2|2,0:0|0:0|0:0,0:0:0:0:
193,268,8671,1,2,0:0:0:0:
105,293,8996,2,0,P|68:268|57:211,1,89.9999972534181,2|2,0:0|0:0,0:0:0:0:
77,189,9482,5,2,0:0:0:0:
77,189,9644,2,0,P|82:146|61:93,1,89.9999972534181,2|2,0:0|0:0,0:0:0:0:
36,77,10131,1,0,0:0:0:0:
36,77,10293,1,2,0:0:0:0:
102,19,10617,5,2,0:0:0:0:
171,76,10942,1,2,0:0:0:0:
251,33,11266,2,0,B|399:45|301:109|461:124,1,224.999993133545,2|2,0:0|0:0,0:0:0:0:
448,122,13374,5,6,3:1:0:0:
448,122,13536,2,0,P|434:152|434:190,1,55.0000016784668,2|8,0:0|0:0,0:0:0:0:
450,225,13861,2,0,P|387:227|335:260,1,110.000003356934,2|0,0:0|3:2,0:0:0:0:
311,291,14347,1,10,0:0:0:0:
311,291,14509,5,4,3:2:0:0:
239,207,14834,2,0,P|250:155|264:79,1,110.000003356934,2|2,3:2|0:0,0:0:0:0:
231,52,15320,2,0,P|207:39|166:42,1,55.0000016784668,2|2,3:2|3:2,0:0:0:0:
130,61,15644,1,10,0:0:0:0:
45,132,15969,5,6,3:1:0:0:
45,132,16131,2,0,P|51:166|56:200,1,55.0000016784668,2|8,0:0|0:0,0:0:0:0:
88,228,16455,2,0,P|75:288|66:343,1,110.000003356934,2|0,0:0|3:2,0:0:0:0:
118,377,16942,1,10,0:0:0:0:
118,377,17104,5,4,3:2:0:0:
197,300,17428,2,0,B|263:304|241:338|319:340,1,110.000003356934,2|0,3:2|0:0,0:0:0:0:
349,316,17915,2,0,P|357:285|368:249,1,55.0000016784668,10|10,0:0|0:0,0:0:0:0:
329,220,18239,2,0,P|321:189|310:153,1,55.0000016784668,10|8,0:0|0:0,0:0:0:0:
301,118,18563,5,4,3:2:0:0:
210,161,18888,1,8,0:0:0:0:
120,117,19212,2,0,P|94:113|56:107,1,50,2|2,3:2|3:2,0:0:0:0:
21,102,19536,1,8,0:0:0:0:
68,13,19861,6,0,P|130:21|186:28,1,100,2|10,0:0|0:0,0:0:0:0:
252,76,20509,2,0,P|314:68|370:61,1,100,2|10,3:2|0:0,0:0:0:0:
450,51,21158,2,0,P|493:79|513:139,2,100,6|8|0,3:2|0:0|3:2,0:0:0:0:
351,63,22131,1,10,0:0:0:0:
351,63,22293,6,0,B|327:108|327:108|350:163,1,100,6|0,3:2|3:2,0:0:0:0:
387,181,22780,1,8,0:0:0:0:
328,262,23104,2,0,P|301:256|271:251,2,50,2|2|10,3:2|3:2|0:0,0:0:0:0:
402,329,23753,5,6,3:2:0:0:
499,297,24077,1,8,0:0:0:0:
499,297,24239,2,0,P|489:247|480:190,1,100,2|2,0:0|3:2,0:0:0:0:
504,153,24726,1,8,0:0:0:0:
435,80,25050,6,0,L|447:21,2,50,2|2|8,0:0|3:2|0:0,0:0:0:0:
395,110,25536,2,0,P|351:87|286:92,1,100,2|2,0:0|3:2,0:0:0:0:
254,104,26023,1,8,0:0:0:0:
174,44,26347,5,6,3:2:0:0:
174,44,26509,1,2,0:0:0:0:
86,92,26834,1,2,0:0:0:0:
105,190,27158,2,0,P|110:217|116:243,1,50,2|8,3:2|0:0,0:0:0:0:
124,288,27482,5,6,3:2:0:0:
315,361,28131,1,10,0:0:0:0:
315,361,28293,2,0,P|346:353|371:350,1,50,8|8,0:0|3:3,0:0:0:0:
386,306,28617,2,0,P|417:311|442:317,1,50,8|8,3:3|3:3,0:0:0:0:
482,323,28942,6,0,P|492:270|470:218,1,94.9999974632264,6|2,3:2|3:2,0:0:0:0:
409,167,29590,1,10,0:0:0:0:
488,113,29915,1,2,0:0:0:0:
488,113,30077,6,0,P|475:64|463:11,1,94.9999974632264,2|2,1:2|0:0,0:0:0:0:
421,1,30563,1,2,3:2:0:0:
346,60,30888,1,10,0:0:0:0:
256,29,31212,1,2,0:0:0:0:
181,87,31536,6,0,P|193:133|204:189,1,94.9999974632264,2|2,1:2|3:2,0:0:0:0:
296,215,32185,1,10,0:0:0:0:
296,215,32347,2,0,P|272:261|273:316,1,94.9999974632264,2|0,0:0|1:2,0:0:0:0:
238,338,32834,6,0,P|218:344|183:356,1,47.4999987316132,2|8,1:2|0:0,0:0:0:0:
149,371,33158,1,6,3:2:0:0:
69,318,33482,2,0,P|61:297|59:267,1,47.4999987316132,2|2,0:0|0:0,0:0:0:0:
88,234,33807,2,0,B|111:196|111:196|91:130,1,94.9999974632264,2|4,3:0|3:2,0:0:0:0:
72,55,34455,5,2,3:2:0:0:
155,10,34780,1,10,0:0:0:0:
226,72,35104,2,0,P|279:82|328:93,1,94.9999974632264,2|0,0:0|3:2,0:0:0:0:
412,73,35753,5,2,3:2:0:0:
457,156,36078,1,10,0:0:0:0:
395,227,36402,2,0,P|385:280|374:329,1,94.9999974632264,2|0,0:0|3:2,0:0:0:0:
292,364,37050,5,2,3:2:0:0:
227,293,37374,1,10,0:0:0:0:
288,220,37698,1,2,0:0:0:0:
214,151,38023,6,0,L|161:166,1,50,12|0,0:0|3:2,0:0:0:0:
117,177,38347,1,12,0:0:0:0:
62,261,38671,2,0,L|115:276,1,50,2|8,3:2|0:0,0:0:0:0:
143,312,38996,2,0,L|196:297,1,50,10|8,0:0|0:0,0:0:0:0:
240,288,39320,6,0,P|290:285|343:318,2,100,6|8|0,3:1|0:0|3:2,0:0:0:0:
193,199,40293,2,0,P|205:149|218:95,1,100,8|0,0:0|3:2,0:0:0:0:
240,4,40942,5,10,0:0:0:0:
319,64,41266,1,2,3:2:0:0:
415,39,41590,1,10,0:0:0:0:
481,113,41915,6,0,P|469:161|457:210,1,100,2|8,3:2|0:0,0:0:0:0:
505,297,42563,1,2,3:2:0:0:
411,334,42888,1,10,0:0:0:0:
326,280,43212,6,0,P|300:282|272:294,1,50,2|8,3:2|0:0,0:0:0:0:
239,321,43536,1,0,3:2:0:0:
239,321,43698,2,0,B|191:333|191:333|139:305,1,100,2|0,3:2|3:2,0:0:0:0:
100,330,44185,1,14,0:0:0:0:
38,251,44509,6,0,P|36:184|65:147,1,100,6|8,3:1|0:0,0:0:0:0:
126,90,45158,2,0,P|156:97|185:104,1,50,0|0,3:2|3:2,0:0:0:0:
213,133,45482,2,0,P|259:125|316:118,1,100,8|0,0:0|3:2,0:0:0:0:
387,52,46131,1,10,0:0:0:0:
461,117,46455,2,0,P|468:142|467:165,1,50,2|0,3:2|3:2,0:0:0:0:
427,197,46780,2,0,P|420:222|421:245,1,50,10|8,0:0|0:0,0:0:0:0:
445,283,47104,6,0,B|224:282|324:372|90:365,1,359.999989013672,6|2,3:1|0:0,0:0:0:0:
101,365,49698,5,6,3:1:0:0:
101,365,49861,2,0,P|96:330|81:298,1,55.0000016784668,2|8,0:0|0:0,0:0:0:0:
54,269,50185,1,2,1:2:0:0:
111,175,50509,1,2,3:2:0:0:
200,239,50834,1,6,3:2:0:0:
200,239,50996,2,0,P|192:268|187:297,2,55.0000016784668,2|2|10,0:0|3:2|0:0,0:0:0:0:
242,204,51482,1,2,1:2:0:0:
336,261,51807,2,0,P|383:234|454:235,1,110.000003356934,2|2,3:2|1:2,0:0:0:0:
479,195,52293,5,6,3:2:0:0:
479,195,52455,2,0,P|467:167|464:126,1,55.0000016784668,2|8,0:0|0:0,0:0:0:0:
499,100,52780,1,2,1:2:0:0:
422,21,53104,1,2,3:2:0:0:
336,88,53428,1,6,3:2:0:0:
336,88,53590,2,0,P|345:121|352:154,2,55.0000016784668,2|2|10,0:0|3:2|0:0,0:0:0:0:
288,60,54077,1,2,1:2:0:0:
210,137,54401,1,2,3:2:0:0:
116,89,54726,1,0,1:2:0:0:
116,89,54888,6,0,P|63:96|24:139,1,110.000003356934,6|10,3:2|0:0,0:0:0:0:
86,227,55536,1,2,3:2:0:0:
24,318,55861,2,0,B|69:346|69:346|137:331,1,110.000003356934,10|0,0:0|0:0,0:0:0:0:
203,257,56509,2,0,P|233:265|266:274,1,55.0000016784668,8|2,0:0|1:2,0:0:0:0:
293,319,56834,1,2,3:2:0:0:
293,319,56996,2,0,P|343:298|406:305,1,110.000003356934,2|10,3:2|0:0,0:0:0:0:
449,321,57482,5,6,3:2:0:0:
502,224,57807,1,10,0:0:0:0:
420,150,58131,1,2,3:2:0:0:
478,57,58455,2,0,P|429:49|365:35,1,110.000003356934,10|12,0:0|0:0,0:0:0:0:
321,55,58942,1,0,3:2:0:0:
321,55,59104,1,14,0:0:0:0:
227,0,59428,2,0,P|211:30|209:67,1,55.0000016784668,0|8,3:2|0:0,0:0:0:0:
163,82,59753,2,0,P|179:112|181:149,1,55.0000016784668,10|8,0:0|0:0,0:0:0:0:
224,167,60077,6,0,P|255:159|290:154,2,55.0000016784668,6|2|8,3:1|0:0|0:0,0:0:0:0:
200,216,60563,1,2,1:2:0:0:
285,285,60888,1,2,3:2:0:0:
197,350,61212,1,6,3:2:0:0:
197,350,61374,2,0,P|165:357|131:363,2,55.0000016784668,2|2|10,0:0|3:2|0:0,0:0:0:0:
244,377,61861,1,2,1:2:0:0:
348,344,62185,2,0,P|337:290|326:227,1,110.000003356934,2|2,3:2|1:2,0:0:0:0:
298,195,62671,5,6,3:2:0:0:
298,195,62834,1,2,0:0:0:0:
202,250,63158,1,2,1:2:0:0:
129,167,63482,1,2,3:2:0:0:
203,85,63807,1,6,3:2:0:0:
203,85,63969,2,0,P|231:82|265:96,2,55.0000016784668,2|2|10,0:0|3:2|0:0,0:0:0:0:
158,52,64455,1,2,1:2:0:0:
50,74,64780,1,2,3:2:0:0:
15,180,65104,1,0,1:2:0:0:
15,180,65266,6,0,B|50:223|50:223|31:291,1,110.000003356934,6|10,3:2|0:0,0:0:0:0:
14,383,65915,2,0,P|42:374|78:365,1,55.0000016784668,2|0,3:2|3:2,0:0:0:0:
113,337,66239,1,10,0:0:0:0:
113,337,66401,2,0,P|170:351|231:365,1,110.000003356934,4|0,3:2|3:2,0:0:0:0:
274,371,66888,1,8,0:0:0:0:
372,319,67212,1,2,3:2:0:0:
372,319,67374,2,0,P|381:275|352:210,1,110.000003356934,2|2,3:2|0:0,0:0:0:0:
315,181,67861,6,0,P|315:153|336:117,1,55.0000016784668,6|8,3:2|0:0,0:0:0:0:
368,94,68185,1,10,0:0:0:0:
300,7,68509,2,0,P|274:15|224:29,1,55.0000016784668,10|8,0:0|0:0,0:0:0:0:
194,41,68834,1,10,0:0:0:0:
90,77,69158,2,0,P|97:108|104:144,1,55.0000016784668,8|8,0:0|3:2,0:0:0:0:
151,151,69482,2,0,P|144:179|137:218,1,55.0000016784668,8|8,0:0|3:2,0:0:0:0:
99,242,69807,2,0,P|106:270|113:309,1,55.0000016784668,8|8,3:2|3:2,0:0:0:0:
123,349,70131,1,8,3:2:0:0:
204,300,70455,6,0,B|321:308|263:358|389:364,1,189.999994926453,6|0,3:1|0:0,0:0:0:0:
501,217,71753,2,0,B|441:143|441:143|358:204,1,189.999994926453,6|0,3:1|0:0,0:0:0:0:
224,70,73050,6,0,P|290:55|419:24,1,189.999994926453,6|0,3:1|0:0,0:0:0:0:
356,209,74347,2,0,P|310:197|247:180,1,94.9999974632264,6|0,3:1|0:0,0:0:0:0:
222,174,74834,1,10,0:0:0:0:
222,174,74996,2,0,P|211:139|200:103,2,71.2499980974198,8|8|10,3:2|3:2|3:2,0:0:0:0:
187,210,75644,6,0,P|161:260|162:318,1,100,6|2,3:2|0:0,0:0:0:0:
72,353,76293,1,6,3:2:0:0:
12,272,76617,2,0,P|26:221|42:156,2,100,2|4|0,0:0|3:2|0:0,0:0:0:0:
72,353,77590,1,6,3:2:0:0:
72,353,77753,2,0,B|114:326|114:326|176:343,1,100,2|2,0:0|0:0,0:0:0:0:
213,350,78239,5,6,3:2:0:0:
314,325,78563,2,0,P|346:323|375:336,1,52.4999983978272,6|8,3:2|0:0,0:0:0:0:
408,359,78888,2,0,P|440:361|469:348,1,52.4999983978272,6|8,3:2|0:0,0:0:0:0:
492,314,79212,2,0,P|487:287|483:250,1,52.4999983978272,6|8,3:2|0:0,0:0:0:0:
476,209,79536,1,0,3:2:0:0:
476,209,81158,6,0,B|409:201|448:175|371:167,1,110.000003356934,6|0,3:1|3:2,0:0:0:0:
329,195,81644,1,2,3:2:0:0:
250,126,81969,1,6,3:2:0:0:
250,126,82131,2,0,P|254:102|282:69,2,55.0000016784668,2|2|8,0:0|3:2|0:0,0:0:0:0:
207,160,82617,1,2,1:2:0:0:
121,90,82942,1,2,3:2:0:0:
54,178,83266,1,2,0:0:0:0:
54,178,83428,6,0,P|25:186|-3:199,2,55.0000016784668,6|2|8,3:2|0:0|0:0,0:0:0:0:
99,208,83915,1,2,1:2:0:0:
43,303,84239,1,2,3:2:0:0:
140,364,84563,1,2,3:2:0:0:
140,364,84726,6,0,P|175:354|208:347,1,57.5000010967255,14|2,0:0|3:2,0:0:0:0:
251,335,85050,2,0,P|259:299|270:267,1,57.5000010967255,14|2,0:0|3:2,0:0:0:0:
312,245,85374,2,0,P|305:217|296:189,1,57.5000010967255,12|10,0:0|0:0,0:0:0:0:
260,145,85698,1,8,0:0:0:0:
337,66,86023,6,0,B|404:72|377:106|456:111,1,110.000003356934,4|10,3:2|0:0,0:0:0:0:
500,196,86671,2,0,P|485:222|482:254,1,55.0000016784668,2|0,3:2|3:2,0:0:0:0:
506,301,86996,1,10,0:0:0:0:
506,301,87158,2,0,P|447:298|388:338,1,110.000003356934,0|0,3:2|3:2,0:0:0:0:
361,356,87644,1,8,0:0:0:0:
276,285,87969,2,0,P|250:293|221:301,1,55.0000016784668,10|10,3:2|0:0,0:0:0:0:
177,331,88293,2,0,P|151:323|122:315,1,55.0000016784668,8|2,3:2|3:2,0:0:0:0:
80,340,88617,5,10,0:0:0:0:
24,59,89753,6,0,B|79:44|79:44|137:82,1,110.000003356934,6|0,3:1|3:2,0:0:0:0:
172,107,90239,1,12,0:0:0:0:
172,107,90401,2,0,P|235:96|295:88,1,110.000003356934,0|12,3:2|0:0,0:0:0:0:
339,86,90888,1,12,0:0:0:0:
339,86,91050,1,12,0:0:0:0:
