osu file format v14

[General]
AudioFilename: audio.mp3
AudioLeadIn: 0
PreviewTime: 48580
Countdown: 0
SampleSet: Normal
StackLeniency: 0.7
Mode: 1
LetterboxInBreaks: 0
WidescreenStoryboard: 1

[Editor]
Bookmarks: 12422,17611,26530,27990,38368,43557,46152,48746,74692,78584
DistanceSpacing: 0.1
BeatDivisor: 2
GridSize: 32
TimelineZoom: 1.6

[Metadata]
Title:Pride Kakumei
TitleUnicode:プライド革命
Artist:CHiCO with HoneyWorks
ArtistUnicode:CHiCO with HoneyWorks
Creator:404 AccNotFound
Version:Futsuu
Source:銀魂°
Tags:TV Size Gintama° 2015 Opening 2 op2 komasy
BeatmapID:1320135
BeatmapSetID:617934

[Difficulty]
HPDrainRate:7
CircleSize:5
OverallDifficulty:4
ApproachRate:5
SliderMultiplier:1.4
SliderTickRate:1

[Events]
//Background and Video events
0,0,"kagurachan nakanaide ;w;.jpg",0,0
//Break Periods
//Storyboard Layer 0 (Background)
//Storyboard Layer 1 (Fail)
//Storyboard Layer 2 (Pass)
//Storyboard Layer 3 (Foreground)
//Storyboard Sound Samples

[TimingPoints]
743,324.324324324324,4,1,0,80,1,0
48742,-100,4,1,0,80,0,1
58959,-100,4,1,0,80,0,0
59121,-100,4,1,0,80,0,1
69499,-113.636363636364,4,1,0,80,0,0
80202,-100,4,1,0,80,0,1
87661,-100,4,1,0,80,0,0

[HitObjects]
224,192,743,5,0,0:0:0:0:
224,192,1067,1,2,0:0:0:0:
224,160,1391,1,2,0:0:0:0:
224,160,1553,1,2,0:0:0:0:
192,192,2040,1,2,0:0:0:0:
192,192,2364,1,2,0:0:0:0:
192,192,2688,1,2,0:0:0:0:
192,192,3337,1,0,0:0:0:0:
192,160,3661,1,2,0:0:0:0:
192,160,3986,1,0,0:0:0:0:
96,128,4148,1,0,0:0:0:0:
192,160,4634,1,2,0:0:0:0:
192,160,4959,1,2,0:0:0:0:
192,160,5283,1,0,0:0:0:0:
192,160,5932,1,2,0:0:0:0:
160,128,6256,1,2,0:0:0:0:
192,160,6418,1,2,0:0:0:0:
192,160,6742,1,2,0:0:0:0:
192,160,7229,1,0,0:0:0:0:
160,128,7553,1,0,0:0:0:0:
192,160,7715,1,0,0:0:0:0:
192,160,8040,1,0,0:0:0:0:
192,160,8526,1,2,0:0:0:0:
192,160,8688,1,2,0:0:0:0:
192,160,9175,1,2,0:0:0:0:
192,160,9337,1,2,0:0:0:0:
256,192,11121,12,0,12094,0:0:0:0:
256,192,12418,5,4,0:0:0:0:
320,192,13067,1,2,0:0:0:0:
320,192,13553,1,4,0:0:0:0:
320,192,14040,1,0,0:0:0:0:
320,192,14364,1,2,0:0:0:0:
192,192,15013,1,4,0:0:0:0:
192,128,15661,1,2,0:0:0:0:
192,128,16148,1,4,0:0:0:0:
192,96,16959,1,2,0:0:0:0:
192,96,17121,1,2,0:0:0:0:
192,96,17283,1,2,0:0:0:0:
192,96,17607,1,4,0:0:0:0:
192,96,17932,1,2,0:0:0:0:
160,96,18256,1,0,0:0:0:0:
256,64,18905,1,2,0:0:0:0:
128,192,19229,1,2,0:0:0:0:
128,192,19553,1,0,0:0:0:0:
96,160,20202,1,0,0:0:0:0:
160,160,20526,1,2,0:0:0:0:
160,160,20851,1,0,0:0:0:0:
160,160,21499,1,0,0:0:0:0:
160,160,21824,1,0,0:0:0:0:
160,160,22148,1,2,0:0:0:0:
160,160,22797,1,0,0:0:0:0:
256,224,23121,1,2,0:0:0:0:
256,224,23283,1,2,0:0:0:0:
256,224,23607,1,2,0:0:0:0:
128,128,24094,1,2,0:0:0:0:
192,128,24418,1,0,0:0:0:0:
192,64,24580,1,0,0:0:0:0:
192,128,24905,1,0,0:0:0:0:
160,96,25391,1,2,0:0:0:0:
256,160,25553,1,2,0:0:0:0:
256,128,25878,1,2,0:0:0:0:
256,128,26202,1,0,0:0:0:0:
256,128,26526,1,0,0:0:0:0:
224,192,27175,1,2,0:0:0:0:
224,192,27337,1,2,0:0:0:0:
224,192,27661,1,0,0:0:0:0:
192,192,27986,1,4,0:0:0:0:
384,224,28634,1,2,0:0:0:0:
384,224,29283,1,0,0:0:0:0:
384,224,29607,1,0,0:0:0:0:
384,224,29932,1,2,0:0:0:0:
384,224,30580,1,0,0:0:0:0:
384,224,31229,1,2,0:0:0:0:
384,224,31878,1,2,0:0:0:0:
384,224,32202,1,2,0:0:0:0:
352,224,33175,1,4,0:0:0:0:
352,224,33824,1,2,0:0:0:0:
352,224,34472,1,0,0:0:0:0:
352,224,34797,1,0,0:0:0:0:
352,224,35121,1,2,0:0:0:0:
352,224,35770,1,0,0:0:0:0:
352,224,36418,1,2,0:0:0:0:
352,224,37067,1,2,0:0:0:0:
352,224,37391,1,2,0:0:0:0:
352,224,37715,1,0,0:0:0:0:
352,224,38364,1,4,0:0:0:0:
320,192,38688,1,2,0:0:0:0:
320,192,39013,1,0,0:0:0:0:
320,192,39175,1,0,0:0:0:0:
320,192,39337,1,2,0:0:0:0:
320,192,39661,1,0,0:0:0:0:
320,192,39986,1,2,0:0:0:0:
320,192,40310,1,0,0:0:0:0:
320,192,40959,1,0,0:0:0:0:
320,192,41283,1,0,0:0:0:0:
320,192,41607,1,2,0:0:0:0:
320,192,41770,1,0,0:0:0:0:
320,192,41932,1,2,0:0:0:0:
320,192,42256,1,0,0:0:0:0:
320,192,42580,1,2,0:0:0:0:
320,192,42905,1,0,0:0:0:0:
320,192,43553,1,4,0:0:0:0:
320,192,43878,1,2,0:0:0:0:
320,192,44202,1,0,0:0:0:0:
320,192,44364,1,0,0:0:0:0:
320,192,44526,1,2,0:0:0:0:
160,192,44851,1,0,0:0:0:0:
320,192,45175,1,0,0:0:0:0:
320,192,45499,1,2,0:0:0:0:
320,192,45661,1,2,0:0:0:0:
320,192,45824,1,2,0:0:0:0:
256,192,46148,12,0,47445,0:0:0:0:
448,160,48742,5,4,0:0:0:0:
320,224,49067,1,2,0:0:0:0:
320,224,49229,1,2,0:0:0:0:
320,224,49553,1,2,0:0:0:0:
160,96,50040,1,2,0:0:0:0:
320,224,50364,1,2,0:0:0:0:
320,224,50526,1,2,0:0:0:0:
320,224,50851,1,0,0:0:0:0:
224,128,51337,1,0,0:0:0:0:
160,96,51499,1,0,0:0:0:0:
128,160,51824,1,0,0:0:0:0:
128,160,52148,1,2,0:0:0:0:
160,96,52634,1,2,0:0:0:0:
128,160,52797,1,2,0:0:0:0:
128,160,52959,1,2,0:0:0:0:
128,160,53121,1,2,0:0:0:0:
192,160,53445,1,0,0:0:0:0:
192,160,53932,1,0,0:0:0:0:
192,128,54256,1,2,0:0:0:0:
192,128,54580,1,0,0:0:0:0:
192,128,54905,1,2,0:0:0:0:
192,128,55067,1,0,0:0:0:0:
192,128,55553,1,2,0:0:0:0:
192,128,55878,1,0,0:0:0:0:
128,96,56040,1,0,0:0:0:0:
192,128,56202,1,2,0:0:0:0:
192,128,56526,1,0,0:0:0:0:
192,128,56851,1,2,0:0:0:0:
192,128,57175,1,0,0:0:0:0:
192,128,57824,1,2,0:0:0:0:
192,128,58148,1,2,0:0:0:0:
192,128,58472,1,0,0:0:0:0:
192,128,59121,1,4,0:0:0:0:
192,128,59445,1,2,0:0:0:0:
192,128,59607,1,2,0:0:0:0:
192,128,59932,1,2,0:0:0:0:
192,96,60418,1,2,0:0:0:0:
192,96,60742,1,0,0:0:0:0:
192,96,60905,1,0,0:0:0:0:
192,96,61229,1,2,0:0:0:0:
192,160,61715,1,2,0:0:0:0:
32,128,61878,1,2,0:0:0:0:
192,160,62202,1,0,0:0:0:0:
192,160,62526,1,2,0:0:0:0:
128,128,63013,1,2,0:0:0:0:
192,160,63175,1,2,0:0:0:0:
192,160,63337,1,2,0:0:0:0:
192,160,63499,1,2,0:0:0:0:
192,160,63824,1,2,0:0:0:0:
192,160,64310,1,0,0:0:0:0:
192,160,64634,1,2,0:0:0:0:
192,160,64959,1,0,0:0:0:0:
192,160,65283,1,2,0:0:0:0:
192,160,65445,1,0,0:0:0:0:
192,160,65932,1,2,0:0:0:0:
192,160,66256,1,0,0:0:0:0:
192,160,66418,1,0,0:0:0:0:
192,160,66580,1,2,0:0:0:0:
192,160,66905,1,0,0:0:0:0:
192,160,67229,1,2,0:0:0:0:
192,160,67553,1,2,0:0:0:0:
224,128,68202,1,2,0:0:0:0:
384,160,68526,1,2,0:0:0:0:
384,160,68851,1,0,0:0:0:0:
352,160,69499,1,6,0:0:0:0:
192,128,70797,1,4,0:0:0:0:
192,128,72094,1,6,0:0:0:0:
192,128,73391,1,4,0:0:0:0:
224,160,74040,1,0,0:0:0:0:
288,192,74688,1,4,0:0:0:0:
192,96,75337,1,0,0:0:0:0:
192,96,75986,1,2,0:0:0:0:
192,96,76634,1,2,0:0:0:0:
192,96,77283,1,0,0:0:0:0:
256,224,77607,1,2,0:0:0:0:
256,224,77932,1,2,0:0:0:0:
192,128,78256,1,2,0:0:0:0:
256,192,78580,12,2,79553,0:0:0:0:
256,128,80202,5,4,0:0:0:0:
192,128,80688,1,2,0:0:0:0:
192,96,81175,1,2,0:0:0:0:
192,96,81499,1,2,0:0:0:0:
192,96,81661,1,2,0:0:0:0:
192,96,81986,1,0,0:0:0:0:
192,160,82472,1,2,0:0:0:0:
192,160,82634,1,2,0:0:0:0:
192,160,82959,1,0,0:0:0:0:
192,160,83283,1,2,0:0:0:0:
128,128,83770,1,2,0:0:0:0:
192,160,83932,1,2,0:0:0:0:
192,160,84094,1,2,0:0:0:0:
192,160,84256,1,2,0:0:0:0:
192,160,84580,1,2,0:0:0:0:
192,160,85067,1,4,0:0:0:0:
288,192,85391,1,2,0:0:0:0:
288,192,85715,1,0,0:0:0:0:
288,192,86040,1,2,0:0:0:0:
288,192,86202,1,0,0:0:0:0:
288,192,86688,1,2,0:0:0:0:
224,160,87013,1,0,0:0:0:0:
224,160,87175,1,2,0:0:0:0:
224,160,87337,1,0,0:0:0:0:
224,160,87661,1,2,0:0:0:0:
224,128,88797,1,0,0:0:0:0:
224,128,89121,1,0,0:0:0:0:
224,128,89283,1,2,0:0:0:0:
224,128,89607,1,0,0:0:0:0:
224,128,89932,1,2,0:0:0:0:
224,128,90094,1,2,0:0:0:0:
