osu file format v14

[General]
AudioFilename: audio.mp3
AudioLeadIn: 0
PreviewTime: 45098
Countdown: 0
SampleSet: Normal
StackLeniency: 0.7
Mode: 1
LetterboxInBreaks: 0
WidescreenStoryboard: 0

[Editor]
Bookmarks: 5936
DistanceSpacing: 0.1
BeatDivisor: 4
GridSize: 32
TimelineZoom: 1.6

[Metadata]
Title:Pride Kakumei
TitleUnicode:プライド革命
Artist:CHiCO with HoneyWorks
ArtistUnicode:CHiCO with HoneyWorks
Creator:-Sh1n1-
Version:Oni
Source:銀魂°
Tags:TV Size Gintama° 2015 Opening 2 op2 Shini Nwolf Ntiger qoot8123 Hanjamon
BeatmapID:1174036
BeatmapSetID:554568

[Difficulty]
HPDrainRate:6
CircleSize:5
OverallDifficulty:6
ApproachRate:5
SliderMultiplier:1.4
SliderTickRate:1

[Events]
//Background and Video events
0,0,"kaguraBG.jpg",0,30
//Break Periods
//Storyboard Layer 0 (Background)
//Storyboard Layer 1 (Fail)
//Storyboard Layer 2 (Pass)
//Storyboard Layer 3 (Foreground)
//Storyboard Sound Samples

[TimingPoints]
747,324.324324324324,4,1,0,60,1,0
11125,-100,4,1,0,50,0,0
12422,-100,4,1,0,90,0,0
17611,-100,4,1,0,80,0,0
27260,-101.010101010101,4,1,0,80,0,0
27341,-102.040816326531,4,1,0,80,0,0
27503,-104.166666666667,4,1,0,80,0,0
27665,-106.382978723404,4,1,0,80,0,0
27828,-108.695652173913,4,1,0,80,0,0
27990,-111.111111111111,4,1,0,80,0,0
28314,-117.647058823529,4,1,0,80,0,0
37071,-114.942528735632,4,1,0,80,0,0
37233,-112.359550561798,4,1,0,80,0,0
37395,-109.89010989011,4,1,0,80,0,0
37719,-108.695652173913,4,1,0,80,0,0
37882,-106.382978723404,4,1,0,80,0,0
37963,-105.263157894737,4,1,0,80,0,0
38044,-104.166666666667,4,1,0,80,0,0
38206,-102.040816326531,4,1,0,80,0,0
38287,-101.010101010101,4,1,0,80,0,0
38368,-100,4,1,0,80,0,0
48746,-100,4,1,0,95,0,1
69503,-100,4,1,0,80,0,0
78584,-100,4,1,0,50,0,0
80206,-100,4,1,0,95,0,1
87665,-100,4,1,0,95,0,0

[HitObjects]
256,192,747,5,8,0:0:0:0:
256,192,909,1,0,0:0:0:0:
256,192,1071,1,8,0:0:0:0:
256,192,1233,1,8,0:0:0:0:
256,192,1395,1,0,0:0:0:0:
256,192,1557,1,8,0:0:0:0:
256,192,1882,1,0,0:0:0:0:
256,192,2044,1,8,0:0:0:0:
256,192,2206,1,0,0:0:0:0:
256,192,2368,1,8,0:0:0:0:
256,192,2692,1,0,0:0:0:0:
256,192,3017,1,8,0:0:0:0:
256,192,3341,1,0,0:0:0:0:
256,192,3503,1,0,0:0:0:0:
256,192,3665,1,8,0:0:0:0:
256,192,3828,1,0,0:0:0:0:
256,192,4152,1,0,0:0:0:0:
256,192,4314,1,8,0:0:0:0:
256,192,4476,1,8,0:0:0:0:
256,192,4638,1,0,0:0:0:0:
256,192,4801,1,0,0:0:0:0:
256,192,4963,1,8,0:0:0:0:
256,192,5287,1,8,0:0:0:0:
256,192,5449,1,8,0:0:0:0:
256,192,5611,1,0,0:0:0:0:
256,192,5936,1,8,0:0:0:0:
256,192,6098,1,8,0:0:0:0:
256,192,6260,1,0,0:0:0:0:
256,192,6422,1,8,0:0:0:0:
256,192,6746,1,8,0:0:0:0:
256,192,6909,1,0,0:0:0:0:
256,192,7233,1,8,0:0:0:0:
256,192,7395,1,8,0:0:0:0:
256,192,7557,1,0,0:0:0:0:
256,192,7719,1,8,0:0:0:0:
256,192,8044,1,0,0:0:0:0:
256,192,8206,1,8,0:0:0:0:
256,192,8368,1,0,0:0:0:0:
256,192,8530,1,8,0:0:0:0:
256,192,8692,1,8,0:0:0:0:
256,192,9017,1,0,0:0:0:0:
256,192,9179,1,8,0:0:0:0:
256,192,9341,1,8,0:0:0:0:
256,192,9665,1,8,0:0:0:0:
256,192,9990,1,0,0:0:0:0:
256,192,10314,1,8,0:0:0:0:
256,192,11125,12,0,12098,0:0:0:0:
256,192,12422,5,4,0:0:0:0:
256,192,12584,1,0,0:0:0:0:
256,192,12746,1,8,0:0:0:0:
256,192,12909,1,0,0:0:0:0:
256,192,12990,1,0,0:0:0:0:
256,192,13071,1,0,0:0:0:0:
256,192,13233,1,0,0:0:0:0:
256,192,13395,1,8,0:0:0:0:
256,192,13557,1,4,0:0:0:0:
256,192,13882,1,0,0:0:0:0:
256,192,14044,1,8,0:0:0:0:
256,192,14206,1,0,0:0:0:0:
256,192,14287,1,8,0:0:0:0:
256,192,14368,1,0,0:0:0:0:
256,192,14530,1,0,0:0:0:0:
256,192,14692,1,8,0:0:0:0:
256,192,15017,1,4,0:0:0:0:
256,192,15179,1,0,0:0:0:0:
256,192,15341,1,8,0:0:0:0:
256,192,15503,1,0,0:0:0:0:
256,192,15584,1,0,0:0:0:0:
256,192,15665,1,0,0:0:0:0:
256,192,15828,1,0,0:0:0:0:
256,192,15990,1,8,0:0:0:0:
256,192,16152,1,4,0:0:0:0:
256,192,16476,1,0,0:0:0:0:
256,192,16638,1,8,0:0:0:0:
256,192,16801,1,0,0:0:0:0:
256,192,16963,1,8,0:0:0:0:
256,192,17044,1,8,0:0:0:0:
256,192,17125,1,8,0:0:0:0:
256,192,17206,1,8,0:0:0:0:
256,192,17287,1,8,0:0:0:0:
256,192,17368,1,8,0:0:0:0:
256,192,17449,1,8,0:0:0:0:
256,192,17530,1,8,0:0:0:0:
256,192,17611,1,0,0:0:0:0:
256,192,17936,1,8,0:0:0:0:
256,192,18260,1,0,0:0:0:0:
256,192,18422,1,0,0:0:0:0:
256,192,18584,1,8,0:0:0:0:
256,192,18746,1,8,0:0:0:0:
256,192,18909,1,0,0:0:0:0:
256,192,19233,1,8,0:0:0:0:
256,192,19557,1,0,0:0:0:0:
256,192,19719,1,0,0:0:0:0:
256,192,19882,1,8,0:0:0:0:
256,192,20206,1,0,0:0:0:0:
256,192,20368,1,0,0:0:0:0:
256,192,20530,1,8,0:0:0:0:
256,192,20692,1,0,0:0:0:0:
256,192,20774,1,0,0:0:0:0:
256,192,20855,1,0,0:0:0:0:
256,192,21017,1,0,0:0:0:0:
256,192,21179,1,8,0:0:0:0:
256,192,21341,1,0,0:0:0:0:
256,192,21665,1,0,0:0:0:0:
256,192,21828,1,8,0:0:0:0:
256,192,22152,1,8,0:0:0:0:
256,192,22314,1,0,0:0:0:0:
256,192,22476,1,8,0:0:0:0:
256,192,22801,1,0,0:0:0:0:
256,192,22963,1,0,0:0:0:0:
256,192,23125,1,8,0:0:0:0:
256,192,23287,1,8,0:0:0:0:
256,192,23368,1,8,0:0:0:0:
256,192,23449,1,0,0:0:0:0:
256,192,23611,1,0,0:0:0:0:
256,192,23774,1,8,0:0:0:0:
256,192,24098,1,0,0:0:0:0:
256,192,24260,1,0,0:0:0:0:
256,192,24422,1,8,0:0:0:0:
256,192,24584,1,0,0:0:0:0:
256,192,24665,1,8,0:0:0:0:
256,192,24746,1,0,0:0:0:0:
256,192,24909,1,0,0:0:0:0:
256,192,25071,1,8,0:0:0:0:
256,192,25395,1,8,0:0:0:0:
256,192,25557,1,0,0:0:0:0:
256,192,25719,1,8,0:0:0:0:
256,192,25882,1,8,0:0:0:0:
256,192,26044,1,0,0:0:0:0:
256,192,26206,1,8,0:0:0:0:
256,192,26368,1,8,0:0:0:0:
256,192,26530,1,0,0:0:0:0:
256,192,27179,1,8,0:0:0:0:
256,192,27260,1,8,0:0:0:0:
256,192,27341,1,0,0:0:0:0:
256,192,27503,1,0,0:0:0:0:
256,192,27665,1,8,0:0:0:0:
256,192,27828,1,8,0:0:0:0:
256,192,27990,1,4,0:0:0:0:
256,192,28314,1,0,0:0:0:0:
256,192,28638,1,8,0:0:0:0:
256,192,28963,1,0,0:0:0:0:
256,192,29125,1,8,0:0:0:0:
256,192,29206,1,8,0:0:0:0:
256,192,29287,1,8,0:0:0:0:
256,192,29449,1,8,0:0:0:0:
256,192,29611,1,0,0:0:0:0:
256,192,29936,1,8,0:0:0:0:
256,192,30098,1,0,0:0:0:0:
256,192,30260,1,8,0:0:0:0:
256,192,30422,1,8,0:0:0:0:
256,192,30503,1,8,0:0:0:0:
256,192,30584,1,0,0:0:0:0:
256,192,30909,1,0,0:0:0:0:
256,192,31233,1,8,0:0:0:0:
256,192,31395,1,0,0:0:0:0:
256,192,31719,1,8,0:0:0:0:
256,192,31882,1,8,0:0:0:0:
256,192,32044,1,0,0:0:0:0:
256,192,32206,1,8,0:0:0:0:
256,192,32530,1,0,0:0:0:0:
256,192,32855,1,8,0:0:0:0:
256,192,33179,1,4,0:0:0:0:
256,192,33503,1,0,0:0:0:0:
256,192,33828,1,8,0:0:0:0:
256,192,34152,1,0,0:0:0:0:
256,192,34314,1,0,0:0:0:0:
256,192,34395,1,0,0:0:0:0:
256,192,34476,1,8,0:0:0:0:
256,192,34638,1,0,0:0:0:0:
256,192,34801,1,8,0:0:0:0:
256,192,35125,1,8,0:0:0:0:
256,192,35449,1,0,0:0:0:0:
256,192,35611,1,8,0:0:0:0:
256,192,35692,1,8,0:0:0:0:
256,192,35774,1,0,0:0:0:0:
256,192,35936,1,8,0:0:0:0:
256,192,36098,1,0,0:0:0:0:
256,192,36422,1,8,0:0:0:0:
256,192,36746,1,0,0:0:0:0:
256,192,37071,1,8,0:0:0:0:
256,192,37233,1,0,0:0:0:0:
256,192,37395,1,8,0:0:0:0:
256,192,37719,1,0,0:0:0:0:
256,192,37882,1,8,0:0:0:0:
256,192,37963,1,8,0:0:0:0:
256,192,38044,1,8,0:0:0:0:
256,192,38206,1,8,0:0:0:0:
256,192,38287,1,8,0:0:0:0:
256,192,38368,1,0,0:0:0:0:
256,192,38530,1,0,0:0:0:0:
256,192,38692,1,8,0:0:0:0:
256,192,38855,1,8,0:0:0:0:
256,192,38936,1,8,0:0:0:0:
256,192,39017,1,0,0:0:0:0:
256,192,39179,1,0,0:0:0:0:
256,192,39341,1,8,0:0:0:0:
256,192,39503,1,8,0:0:0:0:
256,192,39665,1,0,0:0:0:0:
256,192,39990,1,8,0:0:0:0:
256,192,40152,1,0,0:0:0:0:
256,192,40233,1,0,0:0:0:0:
256,192,40314,1,8,0:0:0:0:
256,192,40476,1,0,0:0:0:0:
256,192,40638,1,8,0:0:0:0:
256,192,40801,1,8,0:0:0:0:
256,192,40963,1,0,0:0:0:0:
256,192,41287,1,8,0:0:0:0:
256,192,41449,1,0,0:0:0:0:
256,192,41530,1,0,0:0:0:0:
256,192,41611,1,0,0:0:0:0:
256,192,41774,1,0,0:0:0:0:
256,192,41936,1,8,0:0:0:0:
256,192,42098,1,0,0:0:0:0:
256,192,42260,1,8,0:0:0:0:
256,192,42422,1,8,0:0:0:0:
256,192,42503,1,8,0:0:0:0:
256,192,42584,1,0,0:0:0:0:
256,192,42746,1,8,0:0:0:0:
256,192,42909,1,0,0:0:0:0:
256,192,43071,1,0,0:0:0:0:
256,192,43233,1,8,0:0:0:0:
256,192,43557,1,4,0:0:0:0:
256,192,43719,1,0,0:0:0:0:
256,192,43882,1,8,0:0:0:0:
256,192,44044,1,8,0:0:0:0:
256,192,44125,1,8,0:0:0:0:
256,192,44206,1,8,0:0:0:0:
256,192,44368,1,0,0:0:0:0:
256,192,44530,1,8,0:0:0:0:
256,192,44692,1,0,0:0:0:0:
256,192,44855,1,8,0:0:0:0:
256,192,45179,1,8,0:0:0:0:
256,192,45341,1,8,0:0:0:0:
256,192,45422,1,8,0:0:0:0:
256,192,45503,1,0,0:0:0:0:
256,192,45665,1,0,0:0:0:0:
256,192,45828,1,8,0:0:0:0:
256,192,46152,12,0,47287,0:0:0:0:
256,192,47449,5,8,0:0:0:0:
256,192,48746,5,4,0:0:0:0:
256,192,48909,1,0,0:0:0:0:
256,192,49071,1,8,0:0:0:0:
256,192,49233,1,0,0:0:0:0:
256,192,49314,1,8,0:0:0:0:
256,192,49395,1,0,0:0:0:0:
256,192,49557,1,0,0:0:0:0:
256,192,49719,1,8,0:0:0:0:
256,192,49882,1,0,0:0:0:0:
256,192,49963,1,0,0:0:0:0:
256,192,50044,1,8,0:0:0:0:
256,192,50206,1,0,0:0:0:0:
256,192,50368,1,8,0:0:0:0:
256,192,50530,1,8,0:0:0:0:
256,192,50611,1,8,0:0:0:0:
256,192,50692,1,0,0:0:0:0:
256,192,50774,1,0,0:0:0:0:
256,192,50855,1,8,0:0:0:0:
256,192,51017,1,8,0:0:0:0:
256,192,51179,1,0,0:0:0:0:
256,192,51260,1,8,0:0:0:0:
256,192,51341,1,8,0:0:0:0:
256,192,51503,1,0,0:0:0:0:
256,192,51665,1,8,0:0:0:0:
256,192,51828,1,8,0:0:0:0:
256,192,51909,1,8,0:0:0:0:
256,192,51990,1,0,0:0:0:0:
256,192,52152,1,0,0:0:0:0:
256,192,52314,1,8,0:0:0:0:
256,192,52476,1,0,0:0:0:0:
256,192,52557,1,0,0:0:0:0:
256,192,52638,1,8,0:0:0:0:
256,192,52801,1,0,0:0:0:0:
256,192,52963,1,8,0:0:0:0:
256,192,53125,1,8,0:0:0:0:
256,192,53206,1,8,0:0:0:0:
256,192,53287,1,0,0:0:0:0:
256,192,53449,1,0,0:0:0:0:
256,192,53611,1,8,0:0:0:0:
256,192,53774,1,8,0:0:0:0:
256,192,53936,1,4,0:0:0:0:
256,192,54260,1,8,0:0:0:0:
256,192,54422,1,8,0:0:0:0:
256,192,54503,1,8,0:0:0:0:
256,192,54584,1,0,0:0:0:0:
256,192,54746,1,0,0:0:0:0:
256,192,54909,1,8,0:0:0:0:
256,192,55071,1,0,0:0:0:0:
256,192,55395,1,0,0:0:0:0:
256,192,55557,1,8,0:0:0:0:
256,192,55719,1,0,0:0:0:0:
256,192,55801,1,0,0:0:0:0:
256,192,55882,1,8,0:0:0:0:
256,192,56044,1,0,0:0:0:0:
256,192,56206,1,8,0:0:0:0:
256,192,56368,1,8,0:0:0:0:
256,192,56449,1,0,0:0:0:0:
256,192,56530,1,8,0:0:0:0:
256,192,56692,1,0,0:0:0:0:
256,192,56855,1,8,0:0:0:0:
256,192,57017,1,8,0:0:0:0:
256,192,57179,1,0,0:0:0:0:
256,192,57503,1,8,0:0:0:0:
256,192,57665,1,0,0:0:0:0:
256,192,57746,1,0,0:0:0:0:
256,192,57828,1,8,0:0:0:0:
256,192,57990,1,0,0:0:0:0:
256,192,58152,1,8,0:0:0:0:
256,192,58314,1,0,0:0:0:0:
256,192,58476,1,8,0:0:0:0:
256,192,58557,1,0,0:0:0:0:
256,192,58638,1,0,0:0:0:0:
256,192,58719,1,0,0:0:0:0:
256,192,58801,1,8,0:0:0:0:
256,192,58882,1,8,0:0:0:0:
256,192,58963,1,8,0:0:0:0:
256,192,59125,1,4,0:0:0:0:
256,192,59287,1,0,0:0:0:0:
256,192,59449,1,8,0:0:0:0:
256,192,59611,1,0,0:0:0:0:
256,192,59692,1,8,0:0:0:0:
256,192,59774,1,0,0:0:0:0:
256,192,59936,1,0,0:0:0:0:
256,192,60098,1,8,0:0:0:0:
256,192,60260,1,0,0:0:0:0:
256,192,60341,1,0,0:0:0:0:
256,192,60422,1,8,0:0:0:0:
256,192,60584,1,0,0:0:0:0:
256,192,60746,1,8,0:0:0:0:
256,192,60909,1,8,0:0:0:0:
256,192,60990,1,8,0:0:0:0:
256,192,61071,1,0,0:0:0:0:
256,192,61152,1,0,0:0:0:0:
256,192,61233,1,8,0:0:0:0:
256,192,61395,1,8,0:0:0:0:
256,192,61557,1,0,0:0:0:0:
256,192,61638,1,8,0:0:0:0:
256,192,61719,1,8,0:0:0:0:
256,192,61882,1,0,0:0:0:0:
256,192,62044,1,8,0:0:0:0:
256,192,62206,1,8,0:0:0:0:
256,192,62287,1,8,0:0:0:0:
256,192,62368,1,0,0:0:0:0:
256,192,62530,1,0,0:0:0:0:
256,192,62692,1,8,0:0:0:0:
256,192,62855,1,0,0:0:0:0:
256,192,63017,1,8,0:0:0:0:
256,192,63098,1,0,0:0:0:0:
256,192,63179,1,0,0:0:0:0:
256,192,63260,1,0,0:0:0:0:
256,192,63341,1,8,0:0:0:0:
256,192,63503,1,8,0:0:0:0:
256,192,63584,1,8,0:0:0:0:
256,192,63665,1,0,0:0:0:0:
256,192,63828,1,0,0:0:0:0:
256,192,63990,1,8,0:0:0:0:
256,192,64152,1,8,0:0:0:0:
256,192,64314,1,4,0:0:0:0:
256,192,64638,1,8,0:0:0:0:
256,192,64801,1,8,0:0:0:0:
256,192,64882,1,8,0:0:0:0:
256,192,64963,1,0,0:0:0:0:
256,192,65125,1,0,0:0:0:0:
256,192,65287,1,8,0:0:0:0:
256,192,65449,1,8,0:0:0:0:
256,192,65611,1,0,0:0:0:0:
256,192,65936,1,8,0:0:0:0:
256,192,66098,1,0,0:0:0:0:
256,192,66179,1,0,0:0:0:0:
256,192,66260,1,8,0:0:0:0:
256,192,66422,1,0,0:0:0:0:
256,192,66584,1,8,0:0:0:0:
256,192,66746,1,0,0:0:0:0:
256,192,66909,1,0,0:0:0:0:
256,192,66990,1,0,0:0:0:0:
256,192,67071,1,0,0:0:0:0:
256,192,67152,1,0,0:0:0:0:
256,192,67233,1,8,0:0:0:0:
256,192,67395,1,0,0:0:0:0:
256,192,67557,1,8,0:0:0:0:
256,192,67638,1,8,0:0:0:0:
256,192,67719,1,8,0:0:0:0:
256,192,67801,1,8,0:0:0:0:
256,192,67882,1,0,0:0:0:0:
256,192,68044,1,0,0:0:0:0:
256,192,68206,1,8,0:0:0:0:
256,192,68314,1,0,0:0:0:0:
256,192,68422,1,0,0:0:0:0:
256,192,68530,1,8,0:0:0:0:
256,192,68638,1,0,0:0:0:0:
256,192,68746,1,0,0:0:0:0:
256,192,68855,1,8,0:0:0:0:
256,192,68963,1,8,0:0:0:0:
256,192,69071,1,0,0:0:0:0:
256,192,69179,1,8,0:0:0:0:
256,192,69503,1,4,0:0:0:0:
256,192,70801,1,12,0:0:0:0:
256,192,72098,1,4,0:0:0:0:
256,192,73395,1,12,0:0:0:0:
256,192,73882,1,8,0:0:0:0:
256,192,73963,1,8,0:0:0:0:
256,192,74044,1,0,0:0:0:0:
256,192,74287,1,0,0:0:0:0:
256,192,74530,1,8,0:0:0:0:
256,192,74692,1,4,0:0:0:0:
256,192,75017,1,0,0:0:0:0:
256,192,75179,1,0,0:0:0:0:
256,192,75341,1,8,0:0:0:0:
256,192,75665,1,8,0:0:0:0:
256,192,75828,1,8,0:0:0:0:
256,192,75909,1,8,0:0:0:0:
256,192,75990,1,8,0:0:0:0:
256,192,76152,1,0,0:0:0:0:
256,192,76314,1,8,0:0:0:0:
256,192,76476,1,8,0:0:0:0:
256,192,76638,1,0,0:0:0:0:
256,192,76801,1,0,0:0:0:0:
256,192,76963,1,8,0:0:0:0:
256,192,77125,1,0,0:0:0:0:
256,192,77287,1,4,0:0:0:0:
256,192,77611,1,8,0:0:0:0:
256,192,77774,1,8,0:0:0:0:
256,192,77855,1,8,0:0:0:0:
256,192,77936,1,0,0:0:0:0:
256,192,78098,1,0,0:0:0:0:
256,192,78260,1,8,0:0:0:0:
256,192,78584,12,0,79882,0:0:0:0:
256,192,80206,5,12,0:0:0:0:
256,192,80530,1,0,0:0:0:0:
256,192,80692,1,0,0:0:0:0:
256,192,80855,1,8,0:0:0:0:
256,192,81017,1,0,0:0:0:0:
256,192,81098,1,0,0:0:0:0:
256,192,81179,1,8,0:0:0:0:
256,192,81341,1,0,0:0:0:0:
256,192,81503,1,8,0:0:0:0:
256,192,81665,1,8,0:0:0:0:
256,192,81746,1,8,0:0:0:0:
256,192,81828,1,0,0:0:0:0:
256,192,81909,1,0,0:0:0:0:
256,192,81990,1,8,0:0:0:0:
256,192,82152,1,8,0:0:0:0:
256,192,82314,1,0,0:0:0:0:
256,192,82395,1,0,0:0:0:0:
256,192,82476,1,8,0:0:0:0:
256,192,82638,1,0,0:0:0:0:
256,192,82801,1,8,0:0:0:0:
256,192,82963,1,8,0:0:0:0:
256,192,83044,1,8,0:0:0:0:
256,192,83125,1,0,0:0:0:0:
256,192,83287,1,0,0:0:0:0:
256,192,83449,1,8,0:0:0:0:
256,192,83611,1,0,0:0:0:0:
256,192,83692,1,8,0:0:0:0:
256,192,83774,1,8,0:0:0:0:
256,192,83936,1,0,0:0:0:0:
256,192,84098,1,8,0:0:0:0:
256,192,84260,1,0,0:0:0:0:
256,192,84422,1,8,0:0:0:0:
256,192,84503,1,0,0:0:0:0:
256,192,84584,1,8,0:0:0:0:
256,192,84665,1,8,0:0:0:0:
256,192,84746,1,0,0:0:0:0:
256,192,84909,1,8,0:0:0:0:
256,192,85071,1,4,0:0:0:0:
256,192,85395,1,8,0:0:0:0:
256,192,85557,1,8,0:0:0:0:
256,192,85638,1,8,0:0:0:0:
256,192,85719,1,0,0:0:0:0:
256,192,85882,1,0,0:0:0:0:
256,192,86044,1,8,0:0:0:0:
256,192,86206,1,8,0:0:0:0:
256,192,86368,1,0,0:0:0:0:
256,192,86692,1,8,0:0:0:0:
256,192,86855,1,0,0:0:0:0:
256,192,87017,1,8,0:0:0:0:
256,192,87098,1,0,0:0:0:0:
256,192,87179,1,8,0:0:0:0:
256,192,87260,1,8,0:0:0:0:
256,192,87341,1,0,0:0:0:0:
256,192,87422,1,0,0:0:0:0:
256,192,87503,1,8,0:0:0:0:
256,192,87665,1,4,0:0:0:0:
256,192,88801,1,4,0:0:0:0:
256,192,89125,1,0,0:0:0:0:
256,192,89287,1,8,0:0:0:0:
256,192,89449,1,8,0:0:0:0:
256,192,89530,1,8,0:0:0:0:
256,192,89611,1,0,0:0:0:0:
256,192,89774,1,12,0:0:0:0:
256,192,89936,1,12,0:0:0:0:
256,192,90098,1,12,0:0:0:0:
