osu file format v14

[General]
AudioFilename: audio.mp3
AudioLeadIn: 0
PreviewTime: 66614
Countdown: 0
SampleSet: Soft
StackLeniency: 0.7
Mode: 0
LetterboxInBreaks: 0
WidescreenStoryboard: 0

[Editor]
Bookmarks: 99104,110267,121430
DistanceSpacing: 1.4
BeatDivisor: 4
GridSize: 16
TimelineZoom: 2.2

[Metadata]
Title:Otome-domo yo. (TV Size)
TitleUnicode:乙女どもよ。 (TV Size)
Artist:CHiCO with HoneyWorks
ArtistUnicode:CHiCO with HoneyWorks
Creator:sanairrt
Version:Puberty
Source:荒ぶる季節の乙女どもよ。
Tags:jpop pop japanese araburu kisetsu no otome-domo yo. O Maidens in Your Savage Season arronchu1207 Kaguya_Sama sharpay
BeatmapID:2838150
BeatmapSetID:1372850

[Difficulty]
HPDrainRate:5.5
CircleSize:3.8
OverallDifficulty:8
ApproachRate:9
SliderMultiplier:1.7
SliderTickRate:1

[Events]
//Background and Video events
0,0,"thumb-1920-1065881.jpg",0,0
Video,600,"aaaa.mp4"
//Break Periods
//Storyboard Layer 0 (Background)
//Storyboard Layer 1 (Fail)
//Storyboard Layer 2 (Pass)
//Storyboard Layer 3 (Foreground)
//Storyboard Layer 4 (Overlay)
//Storyboard Sound Samples

[TimingPoints]
423,348.837209302326,4,2,1,50,1,0
1818,-142.857142857143,4,2,1,40,0,0
3126,-142.857142857143,4,2,1,5,0,0
3213,-142.857142857143,4,2,1,40,0,0
4521,-142.857142857143,4,2,1,5,0,0
4609,-142.857142857143,4,2,1,40,0,0
5917,-142.857142857143,4,2,1,5,0,0
6004,-142.857142857143,4,2,1,40,0,0
7312,-142.857142857143,4,2,1,5,0,0
7399,-142.857142857143,4,2,1,40,0,0
8707,-142.857142857143,4,2,1,5,0,0
8795,-142.857142857143,4,2,1,40,0,0
10103,-142.857142857143,4,2,1,5,0,0
10190,-142.857142857143,4,2,1,40,0,0
11585,-142.857142857143,4,2,1,70,0,0
17079,-142.857142857143,4,2,1,5,0,0
17167,-125,4,2,1,60,0,0
21963,-125,4,2,1,40,0,0
22050,-111.111111111111,4,2,1,60,0,0
22311,-111.111111111111,4,2,1,5,0,0
22399,-111.111111111111,4,2,1,60,0,0
22660,-111.111111111111,4,2,1,5,0,0
22748,-100,4,2,1,70,0,0
33911,-125,4,2,1,50,0,0
42196,-125,4,2,1,5,0,0
42283,-125,4,2,1,50,0,0
45074,-111.111111111111,4,2,1,60,0,0
53359,-111.111111111111,4,2,1,5,0,0
53446,-111.111111111111,4,2,1,60,0,0
56236,-125,4,2,1,50,0,0
64609,-111.111111111111,4,2,1,65,0,0
66004,-166.666666666666,4,2,1,65,0,0
66701,-166.666666666666,4,2,1,50,0,0
67050,-125,4,2,1,50,0,0
67399,-90.9090909090909,4,2,1,80,0,0
68707,-90.9090909090909,4,2,1,5,0,0
68795,-90.9090909090909,4,2,1,80,0,0
70103,-90.9090909090909,4,2,1,5,0,0
70190,-90.9090909090909,4,2,1,80,0,0
71498,-90.9090909090909,4,2,1,5,0,0
71585,-90.9090909090909,4,2,1,80,0,0
77079,-90.9090909090909,4,2,1,5,0,0
77167,-90.9090909090909,4,2,1,80,0,0
77428,-90.9090909090909,4,2,1,5,0,0
77516,-90.9090909090909,4,2,1,80,0,0
77777,-90.9090909090909,4,2,1,5,0,0
77864,-90.9090909090909,4,2,1,80,0,0
79870,-90.9090909090909,4,2,1,5,0,0
79957,-90.9090909090909,4,2,1,80,0,0
81266,-90.9090909090909,4,2,1,5,0,0
81353,-90.9090909090909,4,2,1,80,0,0
82661,-90.9090909090909,4,2,1,5,0,0
82748,-90.9090909090909,4,2,1,80,0,0
85452,-90.9090909090909,4,2,1,5,0,0
85539,-90.9090909090909,4,2,1,80,0,0
89725,-90.9090909090909,4,2,1,40,0,0

[Colours]
Combo1 : 255,100,177
Combo2 : 184,114,114
Combo3 : 0,219,219

[HitObjects]
78,133,1818,6,0,P|124:78|179:96,1,118.999996368408,2|0,2:0|2:0,2:0:0:0:
247,142,2341,1,0,2:0:0:0:
176,247,2516,2,0,P|138:238|102:229,1,59.4999981842042,2|2,2:0|2:0,2:0:0:0:
247,142,2864,2,0,P|296:134|363:126,1,89.2499972763062,2|0,2:0|2:0,2:0:0:0:
413,79,3213,6,0,P|369:127|389:186,1,118.999996368408,2|0,2:0|2:0,2:0:0:0:
433,269,3736,1,0,2:0:0:0:
346,372,3911,1,2,2:0:0:0:
346,372,4085,1,0,2:0:0:0:
255,233,4260,2,0,P|247:276|236:346,1,89.2499972763062,0|0,2:0|2:0,2:0:0:0:
171,380,4609,6,0,P|138:367|110:362,1,59.4999981842042,2|0,2:0|2:0,2:0:0:0:
18,273,4957,2,0,P|45:261|74:255,1,59.4999981842042,2|0,2:0|2:0,2:0:0:0:
201,296,5306,1,2,2:0:0:0:
265,152,5481,1,2,2:0:0:0:
122,193,5655,2,0,P|112:140|91:84,1,89.2499972763062,2|0,2:0|2:0,2:0:0:0:
16,77,6004,6,0,P|61:85|118:27,1,118.999996368408,2|0,2:0|2:0,2:0:0:0:
211,101,6527,1,0,2:0:0:0:
331,32,6702,2,0,P|292:22|261:18,1,59.4999981842042,2|2,2:0|2:0,2:0:0:0:
291,165,7050,2,0,P|341:154|395:145,1,89.2499972763062,2|0,2:0|2:0,2:0:0:0:
459,127,7399,6,0,P|492:165|484:242,2,118.999996368408,2|2|2,2:0|2:0|2:0,2:0:0:0:
365,50,8271,1,2,2:0:0:0:
291,165,8446,2,0,P|246:156|193:153,1,89.2499972763062,2|0,2:0|2:0,2:0:0:0:
140,87,8795,6,0,P|154:147|166:225,1,118.999996368408,2|0,2:0|2:0,2:0:0:0:
95,274,9318,1,0,2:0:0:0:
181,356,9492,2,0,P|219:344|254:341,1,59.4999981842042,2|0,2:0|2:0,2:0:0:0:
372,259,9841,2,0,P|341:262|271:241,1,89.2499972763062,2|0,2:0|2:0,2:0:0:0:
291,165,10190,6,0,P|300:106|314:48,2,118.999996368408,2|0|2,2:0|2:0|2:0,2:0:0:0:
284,248,11062,1,0,2:0:0:0:
387,186,11236,2,0,P|421:172|451:178,1,59.4999981842042,2|0,2:0|2:0,2:0:0:0:
454,345,11585,6,0,P|389:332|320:321,1,118.999996368408,6|0,1:2|2:0,2:0:0:0:
171,224,12283,2,0,P|236:211|305:200,1,118.999996368408,0|0,2:0|2:0,2:0:0:0:
120,307,12981,6,0,P|86:265|89:178,1,118.999996368408,4|0,1:2|2:0,2:0:0:0:
248,97,13678,2,0,P|282:139|279:226,1,118.999996368408,0|8,2:0|2:3,2:0:0:0:
80,202,14376,5,4,1:2:0:0:
129,82,14725,2,0,P|176:88|255:97,1,118.999996368408,8|0,2:3|2:0,2:0:0:0:
287,201,15248,2,0,P|346:194|405:186,1,118.999996368408,8|0,2:3|2:0,2:0:0:0:
508,67,15771,6,0,P|450:65|403:2,1,118.999996368408,8|0,2:3|1:2,2:0:0:0:
287,102,16295,1,0,1:2:0:0:
287,102,16382,1,0,1:2:0:0:
287,102,16469,1,0,1:2:0:0:
405,186,16643,1,0,1:2:0:0:
320,303,16818,2,0,P|282:281|227:289,1,89.2499972763062,0|0,1:2|2:0,2:0:0:0:
180,375,17167,6,0,P|168:316|151:241,1,136,4|0,1:2|1:2,2:0:0:0:
28,111,17864,2,0,P|12:177|0:243,1,136,0|0,1:2|1:2,2:0:0:0:
155,85,18562,6,0,B|231:70|214:118|296:100,1,136,4|0,1:2|1:2,2:0:0:0:
425,218,19260,2,0,B|349:203|366:251|284:233,1,136,0|0,1:2|1:2,2:0:0:0:
155,85,19957,5,4,1:2:0:0:
155,85,20306,5,0,1:2:0:0:
68,222,20481,1,0,1:2:0:0:
261,204,20655,1,0,1:2:0:0:
75,124,20829,1,0,1:2:0:0:
189,311,21004,1,0,1:2:0:0:
313,123,21178,1,0,1:2:0:0:
106,254,21353,6,0,P|67:244|25:237,1,68,0|8,1:2|3:0,2:0:0:0:
3,228,21614,1,8,3:0:0:0:
3,228,21702,2,0,P|27:178|100:171,1,102,8|0,3:0|2:0,2:0:0:0:
106,254,22050,2,0,P|155:294|215:260,1,114.749996498108,4|0,1:2|2:0,2:0:0:0:
261,204,22399,2,0,B|291:202|304:217|304:217|321:211|321:211|331:224|353:219|353:219|377:230,1,114.749996498108,4|0,1:2|2:0,2:0:0:0:
423,302,22748,6,0,P|457:257|427:151,1,170,4|8,1:2|2:0,2:0:0:0:
320,48,23271,1,0,2:0:0:0:
320,48,23359,1,8,2:0:0:0:
320,48,23446,1,0,1:0:0:0:
366,225,23620,1,0,1:0:0:0:
470,72,23795,1,8,2:0:0:0:
254,120,23969,1,0,2:0:0:0:
339,314,24143,6,0,P|384:305|427:301,1,85,0|0,1:2|2:0,2:0:0:0:
251,199,24492,2,0,P|206:190|163:186,1,85,8|0,2:0|2:0,2:0:0:0:
35,259,24841,1,0,1:0:0:0:
148,366,25016,1,0,1:0:0:0:
251,199,25190,2,0,P|266:149|254:105,1,85,8|0,2:0|2:0,2:0:0:0:
106,6,25539,6,0,P|91:80|72:179,1,170,0|8,1:2|2:0,2:0:0:0:
186,276,26062,1,0,2:0:0:0:
186,276,26149,1,8,2:0:0:0:
186,276,26236,1,0,1:0:0:0:
259,117,26411,1,0,1:0:0:0:
73,172,26585,1,8,2:0:0:0:
272,219,26760,1,0,2:0:0:0:
102,348,26934,6,0,P|89:301|77:264,1,85,0|0,1:2|2:0,2:0:0:0:
259,117,27283,2,0,P|246:157|234:198,1,85,8|0,2:0|2:0,2:0:0:0:
339,372,27632,1,0,1:0:0:0:
186,276,27806,1,0,1:0:0:0:
363,193,27981,2,0,P|409:182|453:192,1,85,8|0,2:0|2:0,2:0:0:0:
339,372,28329,6,0,P|263:363|152:351,1,170,0|8,1:2|2:0,2:0:0:0:
40,253,28853,1,0,2:0:0:0:
40,253,28940,1,8,2:0:0:0:
40,253,29027,1,0,1:0:0:0:
211,184,29202,1,0,1:0:0:0:
144,383,29376,2,0,P|134:337|119:280,1,85,8|0,2:0|2:0,2:0:0:0:
48,115,29725,6,0,P|88:167|207:135,1,170,0|8,1:2|2:0,2:0:0:0:
302,68,30248,1,0,2:0:0:0:
140,6,30423,2,0,P|135:58|128:110,1,85,0|0,1:0|1:0,2:0:0:0:
294,188,30771,2,0,P|288:145|284:103,1,85,8|0,2:0|2:0,2:0:0:0:
465,26,31120,6,0,P|458:74|442:199,1,170,0|8,1:2|2:0,2:0:0:0:
311,287,31643,1,0,2:0:0:0:
501,375,31818,1,0,1:0:0:0:
419,199,31992,1,0,1:0:0:0:
316,382,32167,2,0,P|271:374|237:341,1,85,8|0,2:0|2:0,2:0:0:0:
154,159,32516,6,0,B|110:206|110:206|152:318,1,170,4|0,1:2|1:0,2:0:0:0:
311,287,33039,1,8,2:0:0:0:
311,287,33126,1,8,2:0:0:0:
311,287,33213,1,8,2:0:0:0:
195,148,33388,2,0,L|137:163,2,42.5,8|8|8,2:0|2:0|2:0,2:0:0:0:
323,123,33736,1,0,1:0:0:0:
430,201,33911,6,0,P|456:144|439:65,2,136,6|8|0,1:2|2:0|2:0,2:0:0:0:
347,310,34783,1,2,1:2:0:0:
259,199,34957,1,10,2:0:0:0:
216,365,35132,1,2,2:0:0:0:
106,272,35306,6,0,P|108:197|100:115,1,136,2|8,1:2|2:0,2:0:0:0:
26,78,35829,1,0,2:0:0:0:
134,6,36004,1,2,1:2:0:0:
134,6,36178,1,0,1:2:0:0:
221,117,36353,2,0,P|260:111|299:107,1,68,10|0,2:0|2:0,2:0:0:0:
444,73,36702,6,0,P|435:129|425:220,2,136,2|8|0,1:2|2:0|2:0,2:0:0:0:
322,176,37574,1,2,1:2:0:0:
203,98,37748,1,10,2:0:0:0:
356,77,37923,1,2,2:0:0:0:
219,197,38097,6,0,P|155:187|72:172,1,136,2|8,1:2|2:0,2:0:0:0:
0,253,38620,1,2,2:0:0:0:
67,361,38795,2,0,P|107:351|145:344,1,68,2|0,1:2|1:2,2:0:0:0:
219,197,39143,1,10,2:0:0:0:
299,316,39318,1,2,2:0:0:0:
129,267,39492,6,0,P|109:214|133:126,1,136,2|8,1:2|2:0,2:0:0:0:
187,27,40016,1,0,2:0:0:0:
291,126,40190,1,0,2:0:0:0:
124,138,40364,1,2,1:2:0:0:
281,36,40539,2,0,P|319:42|355:44,1,68,10|2,2:0|2:0,2:0:0:0:
426,178,40888,6,0,P|382:133|310:148,2,136,2|10|2,1:2|2:0|1:2,2:0:0:0:
471,294,41760,1,0,1:2:0:0:
349,384,41934,2,0,P|338:327|325:263,1,102,10|0,2:0|2:0,2:0:0:0:
255,224,42283,6,0,B|189:197|189:257|111:222,1,136,2|8,1:2|2:0,2:0:0:0:
66,141,42806,1,2,2:0:0:0:
10,278,42981,1,2,2:0:0:0:
123,226,43155,1,0,1:2:0:0:
185,344,43329,2,0,P|239:335|270:330,1,68,8|2,2:0|2:0,2:0:0:0:
364,253,43678,5,2,1:2:0:0:
364,253,43853,1,0,1:2:0:0:
471,294,44027,2,0,P|441:251|359:256,1,136,8|2,2:0|1:2,2:0:0:0:
281,345,44550,1,8,2:0:0:0:
281,345,44638,1,8,2:0:0:0:
281,345,44725,1,8,2:0:0:0:
215,250,44899,1,0,1:2:0:0:
111,367,45074,6,0,B|131:308|131:308|109:275|109:275|122:225,1,152.999995330811,6|8,1:2|2:0,2:0:0:0:
11,180,45597,2,0,P|88:197|144:128,1,152.999995330811,0|2,2:0|1:2,2:0:0:0:
199,29,46120,1,10,2:0:0:0:
58,66,46295,1,2,2:0:0:0:
179,159,46469,6,0,P|261:149|337:141,1,152.999995330811,2|8,1:2|2:0,2:0:0:0:
414,217,46992,1,2,2:0:0:0:
453,56,47167,1,2,1:2:0:0:
330,141,47341,1,0,1:2:0:0:
454,212,47516,2,0,B|469:250|469:250|455:300,1,76.4999976654053,8|0,2:0|2:0,2:0:0:0:
334,384,47864,6,0,P|315:309|295:235,1,152.999995330811,2|8,1:2|2:0,2:0:0:0:
179,159,48388,2,0,P|146:214|175:302,1,152.999995330811,0|2,2:0|1:2,2:0:0:0:
295,235,48911,2,0,P|332:228|370:221,1,76.4999976654053,10|2,2:0|2:0,2:0:0:0:
481,85,49260,6,0,P|417:97|354:33,1,152.999995330811,2|8,1:2|2:0,2:0:0:0:
271,145,49783,1,2,2:0:0:0:
203,22,49957,2,0,P|165:30|128:38,1,76.4999976654053,2|0,1:2|1:2,2:0:0:0:
0,139,50306,1,10,2:0:0:0:
49,0,50481,1,2,2:0:0:0:
152,137,50655,6,0,P|134:191|102:303,1,152.999995330811,2|8,1:2|2:0,2:0:0:0:
5,375,51178,1,0,2:0:0:0:
107,283,51353,1,0,2:0:0:0:
222,375,51527,1,2,1:2:0:0:
97,275,51702,2,0,P|56:283|8:265,1,76.4999976654053,10|2,2:0|2:0,2:0:0:0:
152,137,52050,6,0,P|230:138|251:208,2,152.999995330811,2|10|2,1:2|2:0|1:2,2:0:0:0:
82,247,52923,1,0,1:2:0:0:
0,149,53097,2,0,P|12:96|30:30,1,114.749996498108,10|0,2:0|2:0,2:0:0:0:
105,0,53446,6,0,B|189:-29|174:33|274:-3,1,152.999995330811,6|8,1:2|2:0,2:0:0:0:
356,77,53969,1,2,2:0:0:0:
253,199,54143,2,0,P|237:153|219:111,1,76.4999976654053,2|0,1:2|1:2,2:0:0:0:
415,202,54492,2,0,P|400:237|388:273,1,76.4999976654053,10|0,2:0|1:2,2:0:0:0:
272,362,54841,5,6,1:2:0:0:
272,362,55016,1,0,2:0:0:0:
177,213,55190,2,0,P|226:203|281:195,1,76.4999976654053,0|8,1:2|2:0,2:0:0:0:
292,192,55452,1,8,2:0:0:0:
292,192,55539,1,8,2:0:0:0:
201,302,55713,1,0,1:2:0:0:
111,145,55888,1,2,1:2:0:0:
177,213,56062,1,0,1:2:0:0:
258,107,56236,6,0,P|323:104|381:163,1,136,6|2,1:2|2:0,2:0:0:0:
428,257,56760,1,0,1:2:0:0:
343,373,56934,2,0,P|299:361|257:352,1,68,10|0,2:0|2:0,2:0:0:0:
114,274,57283,2,0,P|158:262|200:253,1,68,2|0,2:0|2:0,2:0:0:0:
291,191,57632,5,2,1:2:0:0:
180,258,57806,2,0,P|169:214|147:124,1,136,8|0,2:0|1:2,2:0:0:0:
52,90,58329,2,0,P|113:102|166:45,1,136,8|2,2:0|2:0,2:0:0:0:
255,124,58853,1,2,2:0:0:0:
413,85,59027,6,0,B|342:65|352:114|271:92,1,136,6|0,1:2|2:0,2:0:0:0:
163,55,59550,1,2,1:2:0:0:
179,191,59725,2,0,P|167:235|143:332,1,136,10|2,2:0|2:0,2:0:0:0:
238,384,60248,1,2,2:0:0:0:
303,260,60423,5,0,1:2:0:0:
410,343,60597,2,0,B|396:289|396:289|404:262|404:262|386:193,1,136,10|0,2:0|1:2,2:0:0:0:
306,92,61120,2,0,P|292:131|278:173,1,68,8|0,2:0|2:0,2:0:0:0:
438,98,61469,1,2,1:2:0:0:
338,0,61643,1,2,1:2:0:0:
268,111,61818,6,0,P|215:98|136:81,1,136,6|2,1:2|2:0,2:0:0:0:
44,119,62341,1,0,1:2:0:0:
95,252,62516,2,0,P|107:204|116:166,1,68,10|0,2:0|2:0,2:0:0:0:
229,114,62864,2,0,P|237:147|245:180,1,68,2|0,2:0|2:0,2:0:0:0:
357,270,63213,5,2,1:2:0:0:
245,180,63388,1,8,2:0:0:0:
175,307,63562,2,0,P|135:294|89:284,1,68,0|0,1:2|1:2,2:0:0:0:
12,179,63911,2,0,P|52:166|98:156,1,68,8|8,2:0|2:0,2:0:0:0:
111,185,64173,1,8,2:0:0:0:
111,185,64260,1,10,2:0:0:0:
167,47,64434,1,8,2:0:0:0:
245,180,64609,6,0,P|287:194|361:101,1,152.999995330811,6|0,1:2|1:2,2:0:0:0:
257,7,65132,1,8,2:0:0:0:
362,130,65306,1,10,2:0:0:0:
465,26,65481,1,8,2:0:0:0:
278,97,65655,1,10,2:0:0:0:
451,211,65829,1,8,2:0:0:0:
327,323,66004,6,0,B|273:365|214:334|238:322|185:286|129:330,1,203.999993774414,14|2,2:0|2:0,2:0:0:0:
136,324,66876,1,2,2:0:0:0:
65,226,67050,2,0,P|74:175|81:138,1,68,2|8,2:0|2:0,2:0:0:0:
86,121,67312,1,8,2:0:0:0:
86,121,67399,6,0,P|134:138|186:118,1,93.5000028533936,6|0,1:2|2:0,2:0:0:0:
344,13,67748,2,0,P|296:-4|244:16,1,93.5000028533936,10|0,2:0|2:0,2:0:0:0:
223,24,68010,1,0,1:2:0:0:
223,24,68097,1,2,1:2:0:0:
86,121,68271,1,2,1:2:0:0:
229,224,68446,2,0,P|277:179|356:189,1,140.25000428009,10|0,2:0|2:0,2:0:0:0:
307,262,68795,6,0,B|224:243|224:243|199:254|199:254|103:236,1,187.000005706787,2|8,1:2|2:0,2:0:0:0:
57,101,69318,1,0,2:0:0:0:
5,267,69492,1,2,1:2:0:0:
183,159,69667,1,2,1:2:0:0:
307,262,69841,2,0,B|356:282|386:300|386:300|408:273|455:254,1,140.25000428009,10|0,2:0|2:0,2:0:0:0:
487,192,70190,6,0,P|479:135|471:76,1,93.5000028533936,2|0,1:2|2:0,2:0:0:0:
304,0,70539,2,0,P|297:46|291:92,1,93.5000028533936,10|0,2:0|2:0,2:0:0:0:
286,131,70800,1,0,1:2:0:0:
286,131,70888,1,2,1:2:0:0:
426,267,71062,1,2,1:2:0:0:
256,360,71236,2,0,P|187:343|101:324,1,140.25000428009,10|0,2:0|2:0,2:0:0:0:
14,318,71585,6,0,P|62:240|151:228,1,187.000005706787,2|8,1:2|2:0,2:0:0:0:
256,360,72109,1,0,2:0:0:0:
244,169,72283,1,2,1:2:0:0:
119,327,72457,1,2,1:2:0:0:
320,222,72632,2,0,P|339:167|328:127,1,93.5000028533936,10|0,2:0|1:2,2:0:0:0:
161,12,72981,6,0,P|216:4|267:-2,1,93.5000028533936,2|0,1:2|2:0,2:0:0:0:
424,146,73329,2,0,P|377:139|331:133,1,93.5000028533936,10|0,2:0|2:0,2:0:0:0:
294,131,73591,1,0,1:2:0:0:
294,131,73678,1,2,1:2:0:0:
161,12,73853,1,0,1:2:0:0:
81,197,74027,2,0,P|95:243|105:293,1,93.5000028533936,10|0,2:0|2:0,2:0:0:0:
294,131,74376,6,0,P|244:108|197:118,1,93.5000028533936,2|0,1:2|2:0,2:0:0:0:
104,287,74725,2,0,P|154:310|201:300,1,93.5000028533936,10|0,2:0|2:0,2:0:0:0:
227,290,74986,1,0,1:2:0:0:
227,290,75074,1,0,1:2:0:0:
294,131,75248,1,0,1:2:0:0:
378,338,75423,1,10,2:0:0:0:
239,193,75597,1,2,1:2:0:0:
406,61,75771,6,0,P|452:46|515:49,1,93.5000028533936,2|0,1:2|2:0,2:0:0:0:
329,208,76120,2,0,P|283:207|238:192,1,93.5000028533936,10|0,2:0|2:0,2:0:0:0:
206,175,76382,1,0,1:2:0:0:
206,175,76469,2,0,P|194:106|186:64,1,93.5000028533936,2|0,1:2|1:2,2:0:0:0:
363,192,76818,2,0,P|352:248|333:346,1,140.25000428009,10|0,2:0|2:0,2:0:0:0:
259,384,77167,6,0,B|234:379|211:349|211:349|159:373|124:328,1,140.25000428009,2|0,1:2|2:0,2:0:0:0:
54,340,77516,2,0,P|115:298|92:234,1,140.25000428009,8|0,2:0|2:0,2:0:0:0:
81,219,77864,1,2,1:2:0:0:
0,102,78039,1,10,2:0:0:0:
13,98,78126,1,8,2:0:0:0:
27,95,78213,1,10,2:0:0:0:
206,175,78388,1,8,2:0:0:0:
193,171,78475,1,8,2:0:0:0:
179,168,78562,6,0,P|190:112|201:65,1,93.5000028533936,6|0,1:2|2:0,2:0:0:0:
368,3,78911,2,0,P|378:48|387:94,1,93.5000028533936,10|0,2:0|2:0,2:0:0:0:
397,128,79173,1,0,1:2:0:0:
397,128,79260,1,2,1:2:0:0:
273,232,79434,1,2,1:2:0:0:
473,331,79609,2,0,B|391:304|409:360|314:321,1,140.25000428009,10|0,2:0|2:0,2:0:0:0:
261,262,79957,6,0,P|213:256|171:372,1,187.000005706787,2|8,1:2|2:0,2:0:0:0:
335,328,80481,1,0,2:0:0:0:
256,178,80655,1,2,1:2:0:0:
182,366,80829,1,2,1:2:0:0:
350,235,81004,2,0,P|364:177|318:90,1,140.25000428009,10|0,2:0|2:0,2:0:0:0:
248,40,81353,6,0,P|192:52|137:64,1,93.5000028533936,2|0,1:2|2:0,2:0:0:0:
0,208,81702,2,0,P|56:220|111:232,1,93.5000028533936,10|0,2:0|2:0,2:0:0:0:
132,236,81963,1,0,1:2:0:0:
132,236,82050,1,2,1:2:0:0:
228,84,82225,1,2,1:2:0:0:
353,237,82399,2,0,P|414:247|483:186,1,140.25000428009,10|0,2:0|2:0,2:0:0:0:
390,143,82748,6,0,B|317:133|317:133|294:93|294:93|208:81,1,187.000005706787,2|8,1:2|2:0,2:0:0:0:
123,204,83271,1,0,2:0:0:0:
87,42,83446,1,2,1:2:0:0:
241,171,83620,1,2,1:2:0:0:
368,52,83795,2,0,P|378:95|392:152,1,93.5000028533936,10|0,2:0|1:2,2:0:0:0:
284,284,84143,6,0,P|254:262|184:262,1,93.5000028533936,2|0,1:2|2:0,2:0:0:0:
389,142,84492,2,0,P|435:140|473:114,1,93.5000028533936,10|0,2:0|2:0,2:0:0:0:
502,91,84754,1,0,1:2:0:0:
502,91,84841,1,2,1:2:0:0:
357,0,85016,1,2,1:2:0:0:
241,171,85190,2,0,P|181:158|95:140,1,140.25000428009,10|0,2:0|2:0,2:0:0:0:
33,65,85539,6,0,B|71:79|85:112|85:112|31:238,1,187.000005706787,2|8,1:2|2:0,2:0:0:0:
131,330,86062,1,0,2:0:0:0:
241,171,86236,1,2,1:2:0:0:
293,333,86411,1,2,1:2:0:0:
132,203,86585,2,0,P|129:149|147:109,1,93.5000028533936,10|0,2:0|1:2,2:0:0:0:
298,0,86934,6,0,P|314:87|333:191,1,187.000005706787,6|2,1:2|1:2,2:0:0:0:
439,378,87457,1,8,2:0:0:0:
418,336,87544,1,8,2:0:0:0:
379,312,87631,1,10,2:0:0:0:
332,310,87718,1,8,2:0:0:0:
292,332,87805,1,8,2:0:0:0:
252,354,87893,1,8,2:0:0:0:
200,348,87981,5,10,2:0:0:0:
175,290,88068,1,8,2:0:0:0:
187,226,88155,1,8,2:0:0:0:
216,165,88242,1,8,2:0:0:0:
205,96,88329,1,14,2:0:0:0:
256,192,88417,12,0,89725,2:0:0:0:
