osu file format v14

[General]
AudioFilename: audio.mp3
AudioLeadIn: 0
PreviewTime: 66614
Countdown: 0
SampleSet: Soft
StackLeniency: 0.2
Mode: 0
LetterboxInBreaks: 0
WidescreenStoryboard: 1

[Editor]
Bookmarks: 99104,110267,121430
DistanceSpacing: 1.4
BeatDivisor: 4
GridSize: 16
TimelineZoom: 2.2

[Metadata]
Title:Otome-domo yo. (TV Size)
TitleUnicode:乙女どもよ。 (TV Size)
Artist:CHiCO with HoneyWorks
ArtistUnicode:CHiCO with HoneyWorks
Creator:sanairrt
Version:Chu's Hard
Source:荒ぶる季節の乙女どもよ。
Tags:jpop pop japanese araburu kisetsu no otome-domo yo. O Maidens in Your Savage Season arronchu1207 Kaguya_Sama sharpay
BeatmapID:2838149
BeatmapSetID:1372850

[Difficulty]
HPDrainRate:4
CircleSize:3.8
OverallDifficulty:6.5
ApproachRate:7.5
SliderMultiplier:1.3
SliderTickRate:1

[Events]
//Background and Video events
0,0,"thumb-1920-1065881.jpg",0,0
Video,600,"aaaa.mp4"
//Break Periods
//Storyboard Layer 0 (Background)
//Storyboard Layer 1 (Fail)
//Storyboard Layer 2 (Pass)
//Storyboard Layer 3 (Foreground)
//Storyboard Layer 4 (Overlay)
//Storyboard Sound Samples

[TimingPoints]
423,348.837209302326,4,2,1,50,1,0
1120,-125,4,2,1,40,0,0
1818,-142.857142857143,4,2,1,40,0,0
11585,-125,4,2,1,50,0,0
17167,-125,4,2,1,60,0,0
19957,-105.263157894737,4,2,1,60,0,0
22050,-83.3333333333333,4,2,1,60,0,0
22312,-83.3333333333333,4,2,1,5,0,0
22399,-83.3333333333333,4,2,1,60,0,0
22661,-83.3333333333333,4,2,1,5,0,0
22748,-105.263157894737,4,2,1,70,0,0
31033,-105.263157894737,4,2,1,5,0,0
31120,-105.263157894737,4,2,1,70,0,0
33911,-125,4,2,1,50,0,0
45074,-105.263157894737,4,2,1,60,0,0
56236,-105.263157894737,4,2,1,50,0,0
64609,-105.263157894737,4,2,1,70,0,0
66702,-105.263157894737,4,2,1,50,0,0
67399,-95.2380952380952,4,2,1,80,0,1
72893,-95.2380952380952,4,2,1,5,0,1
72981,-95.2380952380952,4,2,1,80,0,1
84056,-95.2380952380952,4,2,1,5,0,1
84143,-95.2380952380952,4,2,1,80,0,1
86847,-95.2380952380952,4,2,1,5,0,1
86934,-95.2380952380952,4,2,1,80,0,1
88329,-95.2380952380952,4,2,1,80,0,0
89725,-95.2380952380952,4,2,1,5,0,0

[Colours]
Combo1 : 255,100,177
Combo2 : 184,114,114
Combo3 : 0,219,219

[HitObjects]
119,106,1120,6,0,P|114:68|108:38,2,52,2|0|0,0:0|0:0|0:0,0:0:0:0:
119,106,1818,6,0,P|154:87|239:117,1,136.499995834351,2|0,0:0|0:0,0:0:0:0:
172,178,2516,2,0,L|170:233,2,45.4999986114502,2|2|2,0:0|0:0|0:0,0:0:0:0:
172,178,3213,6,0,L|322:168,1,136.499995834351,2|0,0:0|0:0,0:0:0:0:
379,115,3911,2,0,L|437:120,2,45.4999986114502,2|0|0,0:0|0:0|0:0,0:0:0:0:
379,115,4609,6,0,L|394:212,1,90.9999972229005,2|2,0:0|0:0,0:0:0:0:
458,266,5132,1,0,0:0:0:0:
455,270,5306,2,0,L|440:367,1,90.9999972229005,2|2,0:0|0:0,0:0:0:0:
441,359,6004,6,0,P|385:295|288:308,1,181.999994445801,2|2,0:0|0:0,0:0:0:0:
227,361,6876,1,2,0:0:0:0:
222,357,7050,1,2,0:0:0:0:
104,314,7399,6,0,P|97:263|86:210,1,90.9999972229005,2|2,0:0|0:0,0:0:0:0:
186,144,8097,2,0,P|190:111|196:85,2,45.4999986114502,2|2|2,0:0|0:0|0:0,0:0:0:0:
207,267,8795,6,0,P|270:288|334:248,1,136.499995834351,2|0,0:0|0:0,0:0:0:0:
261,197,9492,2,0,L|256:143,2,45.4999986114502,2|0|2,0:0|0:0|0:0,0:0:0:0:
261,197,10190,6,0,B|237:204|237:204|166:197,1,90.9999972229005,2|0,0:0|0:0,0:0:0:0:
122,124,10713,1,0,0:0:0:0:
124,118,10888,2,0,B|148:111|148:111|214:118,1,90.9999972229005,2|2,0:0|0:0,0:0:0:0:
352,161,11585,6,0,P|361:211|342:258,1,104,6|0,1:2|0:0,0:0:0:0:
251,299,12283,2,0,P|290:265|341:259,1,104
475,282,12981,6,0,P|485:333|488:385,1,104,4|0,1:2|0:0,0:0:0:0:
340,258,13678,2,0,P|342:206|352:156,1,104,0|8,0:0|2:3,0:0:0:0:
373,39,14376,6,0,L|270:48,1,104,4|8,1:2|2:3,0:0:0:0:
103,55,15074,1,0,0:0:0:0:
101,61,15248,2,0,P|135:96|192:90,1,104,8|0,2:3|0:0,0:0:0:0:
269,48,15771,6,0,B|279:79|279:79|267:159,1,104,8|0,2:3|1:2,0:0:0:0:
197,215,16295,2,0,L|155:217,2,26,0|0|0,1:2|1:2|1:2,0:0:0:0:
271,282,16643,1,0,1:2:0:0:
207,355,16818,1,0,1:2:0:0:
102,275,17167,6,0,L|0:258,1,104,4|0,1:2|1:2,0:0:0:0:
95,131,17864,2,0,L|197:147,1,104,0|0,1:2|1:2,0:0:0:0:
251,221,18388,1,0,0:0:0:0:
255,225,18562,6,0,P|309:236|354:214,1,104,4|0,1:2|1:2,0:0:0:0:
511,144,19260,2,0,L|454:153,1,52,0|0,1:2|0:0,0:0:0:0:
407,78,19609,2,0,L|350:69,1,52,0|0,1:2|0:0,0:0:0:0:
318,151,19957,6,0,P|281:162|201:109,1,123.499996702194,4|0,1:2|1:2,0:0:0:0:
180,38,20481,1,0,1:2:0:0:
183,33,20655,2,0,L|246:37,1,61.7499983510972,0|0,1:2|1:2,0:0:0:0:
123,111,21004,2,0,L|60:115,1,61.7499983510972,0|0,1:2|0:0,0:0:0:0:
6,188,21353,5,0,1:2:0:0:
81,241,21527,1,8,3:0:0:0:
84,248,21614,1,8,3:0:0:0:
87,255,21702,2,0,L|81:294,3,30.8749991755486,8|0|8|0,3:0|0:0|3:0|0:0,0:0:0:0:
76,315,22050,6,0,P|114:344|187:331,1,116.999996429443,4|0,1:2|0:0,0:0:0:0:
201,353,22399,2,0,P|239:324|312:337,1,116.999996429443,4|0,1:2|0:0,0:0:0:0:
326,348,22748,6,0,L|311:219,1,123.499996702194,4|8,1:2|0:0,0:0:0:0:
378,160,23271,1,0,0:0:0:0:
383,156,23359,1,8,0:0:0:0:
388,152,23446,2,0,P|396:116|383:83,1,61.7499983510972,0|0,1:0|1:0,0:0:0:0:
331,19,23795,2,0,L|265:27,1,61.7499983510972,8|0,0:0|0:0,0:0:0:0:
206,93,24143,6,0,L|223:221,1,123.499996702194,0|8,1:2|0:0,0:0:0:0:
164,288,24667,1,0,0:0:0:0:
82,244,24841,2,0,P|74:205|85:173,1,61.7499983510972,0|0,1:0|1:0,0:0:0:0:
7,125,25190,2,0,P|36:98|69:92,1,61.7499983510972,8|0,0:0|0:0,0:0:0:0:
145,119,25539,6,0,P|198:131|261:86,1,123.499996702194,0|8,1:2|0:0,0:0:0:0:
340,62,26062,1,0,0:0:0:0:
345,61,26149,1,8,0:0:0:0:
350,60,26236,2,0,P|343:93|341:128,1,61.7499983510972,0|0,1:0|1:0,0:0:0:0:
279,190,26585,2,0,P|285:226|288:258,1,61.7499983510972,8|0,0:0|0:0,0:0:0:0:
236,328,26934,6,0,L|105:318,1,123.499996702194,0|8,1:2|0:0,0:0:0:0:
37,264,27457,1,0,0:0:0:0:
78,181,27632,2,0,L|144:175,1,61.7499983510972,0|0,1:0|1:0,0:0:0:0:
210,115,27981,2,0,L|276:121,1,61.7499983510972,8|0,0:0|0:0,0:0:0:0:
332,189,28329,6,0,B|349:244|349:244|330:321,1,123.499996702194,0|8,1:2|0:0,0:0:0:0:
263,370,28853,1,0,0:0:0:0:
258,366,28940,1,8,0:0:0:0:
253,362,29027,2,0,P|215:365|190:375,1,61.7499983510972,0|0,1:0|1:0,0:0:0:0:
131,303,29376,2,0,P|93:300|68:290,1,61.7499983510972,8|0,0:0|0:0,0:0:0:0:
21,213,29725,6,0,P|39:171|119:156,1,123.499996702194,0|8,1:2|0:0,0:0:0:0:
190,197,30248,1,0,0:0:0:0:
257,133,30423,2,0,L|249:64,1,61.7499983510972,0|0,1:0|0:0,0:0:0:0:
327,21,30771,2,0,B|371:12|371:12|430:38,1,92.6249975266457,8|0,0:0|0:0,0:0:0:0:
437,45,31120,6,0,P|431:94|434:176,1,123.499996702194,0|8,1:2|0:0,0:0:0:0:
481,247,31643,1,0,0:0:0:0:
400,293,31818,2,0,P|367:265|276:277,1,123.499996702194,0|8,1:0|0:0,0:0:0:0:
232,339,32341,1,0,0:0:0:0:
152,291,32516,6,0,L|160:225,1,61.7499983510972,4|0,1:2|0:0,0:0:0:0:
97,161,32864,2,0,L|90:100,1,61.7499983510972,0|8,1:0|0:0,0:0:0:0:
84,95,33126,1,8,0:0:0:0:
78,90,33213,1,8,0:0:0:0:
146,27,33388,1,8,0:0:0:0:
152,22,33475,1,8,0:0:0:0:
158,17,33562,2,0,P|193:22|233:35,1,61.7499983510972,8|0,0:0|1:0,0:0:0:0:
284,94,33911,6,0,L|392:82,2,104,6|8|0,1:2|0:0|0:0,0:0:0:0:
217,159,34783,1,2,1:2:0:0:
220,164,34957,2,0,P|221:199|214:229,1,52,10|2,0:0|0:0,0:0:0:0:
154,280,35306,6,0,P|106:264|53:301,2,104,2|8|2,1:2|0:0|1:2,0:0:0:0:
222,338,36178,1,0,1:2:0:0:
226,342,36353,2,0,L|284:337,1,52,10|0,0:0|0:0,0:0:0:0:
362,366,36702,6,0,P|366:321|377:255,2,104,2|8|0,1:2|0:0|0:0,0:0:0:0:
454,364,37574,1,2,1:2:0:0:
453,358,37748,2,0,P|457:322|461:296,1,52,10|2,0:0|0:0,0:0:0:0:
508,231,38097,6,0,P|499:186|492:120,1,104,2|8,1:2|0:0,0:0:0:0:
442,55,38620,1,2,0:0:0:0:
437,58,38795,2,0,L|379:66,1,52,2|0,1:2|1:2,0:0:0:0:
328,130,39143,2,0,L|270:122,1,52,10|2,0:0|0:0,0:0:0:0:
201,164,39492,6,0,P|188:131|213:64,2,104,2|8|0,1:2|0:0|0:0,0:0:0:0:
257,231,40364,1,2,1:2:0:0:
256,237,40539,2,0,L|261:296,1,52,10|2,0:0|0:0,0:0:0:0:
195,351,40888,6,0,L|141:342,1,52,2|0,1:2|0:0,0:0:0:0:
96,265,41236,2,0,L|147:256,1,52,10|0,0:0|0:0,0:0:0:0:
199,183,41585,2,0,L|190:129,1,52,2|0,1:2|1:2,0:0:0:0:
113,84,41934,2,0,L|104:135,1,52,10|0,0:0|0:0,0:0:0:0:
199,183,42283,6,0,P|232:165|301:174,1,104,2|8,1:2|0:0,0:0:0:0:
355,237,42806,1,2,0:0:0:0:
428,186,42981,2,0,P|423:134|415:69,1,104,2|8,0:0|0:0,0:0:0:0:
378,4,43504,1,2,0:0:0:0:
303,50,43678,6,0,P|264:54|247:46,1,52,2|0,1:2|1:2,0:0:0:0:
173,18,44027,2,0,P|134:14|117:22,1,52,8|2,0:0|0:0,0:0:0:0:
67,86,44376,2,0,L|73:144,1,52,2|8,1:2|0:0,0:0:0:0:
79,144,44638,1,8,0:0:0:0:
85,150,44725,2,0,L|79:208,1,52,8|0,0:0|1:2,0:0:0:0:
151,260,45074,6,0,P|193:245|274:285,2,123.499996702194,6|8|0,1:2|0:0|0:0,0:0:0:0:
87,328,45946,1,2,1:2:0:0:
12,273,46120,2,0,P|17:240|21:201,1,61.7499983510972,10|2,0:0|0:0,0:0:0:0:
7,119,46469,6,0,L|148:138,1,123.499996702194,2|8,1:2|0:0,0:0:0:0:
206,84,46992,1,2,0:0:0:0:
257,161,47167,2,0,P|256:203|247:228,1,61.7499983510972,2|0,1:2|1:2,0:0:0:0:
181,284,47516,2,0,P|182:326|191:351,1,61.7499983510972,8|0,0:0|0:0,0:0:0:0:
271,383,47864,6,0,L|402:373,2,123.499996702194,2|8|0,1:2|0:0|0:0,0:0:0:0:
188,344,48736,1,2,1:2:0:0:
264,291,48911,2,0,L|340:285,1,61.7499983510972,10|2,0:0|0:0,0:0:0:0:
399,229,49260,6,0,P|412:185|377:109,1,123.499996702194,2|8,1:2|0:0,0:0:0:0:
294,92,49783,1,2,0:0:0:0:
241,167,49957,2,0,P|248:206|255:232,1,61.7499983510972,2|0,1:2|1:2,0:0:0:0:
319,293,50306,2,0,P|312:332|305:358,1,61.7499983510972,10|2,0:0|0:0,0:0:0:0:
216,376,50655,6,0,P|179:374|137:300,2,123.499996702194,2|8|0,1:2|0:0|0:0,0:0:0:0:
306,353,51527,1,2,1:2:0:0:
240,287,51702,2,0,L|248:218,1,61.7499983510972,10|2,0:0|0:0,0:0:0:0:
306,155,52050,6,0,P|340:146|379:153,1,61.7499983510972,2|0,1:2|0:0,0:0:0:0:
407,244,52399,2,0,P|376:246|346:237,1,61.7499983510972,10|0,0:0|0:0,0:0:0:0:
306,155,52748,2,0,L|316:90,1,61.7499983510972,2|0,1:2|1:2,0:0:0:0:
212,51,53097,2,0,L|221:112,1,61.7499983510972,10|0,0:0|0:0,0:0:0:0:
163,184,53446,6,0,P|139:154|52:154,1,123.499996702194,6|8,1:2|0:0,0:0:0:0:
1,222,53969,1,2,0:0:0:0:
48,301,54143,2,0,P|83:293|115:291,1,61.7499983510972,2|0,1:2|1:2,0:0:0:0:
179,351,54492,2,0,P|214:359|246:361,1,61.7499983510972,10|0,0:0|1:2,0:0:0:0:
314,306,54841,6,0,L|305:228,1,61.7499983510972,6|0,1:2|0:0,0:0:0:0:
254,168,55190,1,0,1:2:0:0:
326,110,55364,1,8,0:0:0:0:
331,106,55452,1,8,0:0:0:0:
336,102,55539,2,0,L|398:111,1,61.7499983510972,8|0,0:0|1:2,0:0:0:0:
411,19,55888,2,0,L|349:10,1,61.7499983510972,2|0,1:2|1:2,0:0:0:0:
240,45,56236,6,0,L|254:171,1,123.499996702194,6|2,1:2|0:0,0:0:0:0:
177,219,56760,1,0,1:2:0:0:
171,219,56934,2,0,B|131:190|131:190|166:117,1,123.499996702194,10|2,0:0|0:0,0:0:0:0:
163,123,57632,6,0,L|226:131,1,61.7499983510972,2|8,1:2|0:0,0:0:0:0:
236,38,57981,2,0,L|174:30,1,61.7499983510972,0|0,1:2|1:2,0:0:0:0:
224,130,58329,2,0,P|278:124|364:120,1,123.499996702194,8|2,0:0|0:0,0:0:0:0:
407,48,58853,1,2,0:0:0:0:
412,45,59027,6,0,B|457:56|457:56|438:147,1,123.499996702194,6|0,1:2|0:0,0:0:0:0:
384,205,59550,1,2,1:2:0:0:
380,209,59725,2,0,P|386:253|401:342,1,123.499996702194,10|2,0:0|0:0,0:0:0:0:
398,331,60423,6,0,P|362:315|326:313,1,61.7499983510972,0|10,1:2|0:0,0:0:0:0:
270,373,60771,2,0,P|239:367|212:354,1,61.7499983510972,0|0,1:2|1:2,0:0:0:0:
174,269,61120,2,0,L|195:142,1,123.499996702194,8|2,0:0|1:2,0:0:0:0:
256,78,61643,1,2,1:2:0:0:
327,137,61818,6,0,P|364:145|441:97,1,123.499996702194,6|2,1:2|0:0,0:0:0:0:
467,20,62341,1,0,1:2:0:0:
462,16,62516,2,0,B|405:4|405:4|359:49,1,123.499996702194,10|2,0:0|0:0,0:0:0:0:
359,49,63213,6,0,L|372:118,1,61.7499983510972,2|8,1:2|0:0,0:0:0:0:
279,128,63562,2,0,L|267:67,1,61.7499983510972,0|0,1:2|1:2,0:0:0:0:
187,19,63911,2,0,L|175:79,1,61.7499983510972,8|8,0:0|0:0,0:0:0:0:
169,84,64173,1,8,0:0:0:0:
163,89,64260,2,0,L|174:152,1,61.7499983510972,10|8,0:0|0:0,0:0:0:0:
136,235,64609,6,0,P|189:200|257:216,1,123.499996702194,6|0,1:2|1:2,0:0:0:0:
313,272,65131,1,8,0:0:0:0:
393,226,65306,1,10,0:0:0:0:
397,230,65481,1,8,0:0:0:0:
376,136,65654,1,10,0:0:0:0:
380,140,65829,1,8,0:0:0:0:
284,124,66004,5,14,0:0:0:0:
284,124,66702,2,0,L|275:59,2,61.7499983510972,2|2|2,0:0|0:0|0:0,0:0:0:0:
230,199,67225,1,8,0:0:0:0:
224,206,67312,1,8,0:0:0:0:
218,213,67399,6,0,B|151:228|163:168|68:189,1,136.499995834351,6|10,1:2|0:0,0:0:0:0:
18,251,67923,1,0,0:0:0:0:
14,257,68010,1,0,1:2:0:0:
10,263,68097,2,0,L|18:338,1,68.2499979171754,2|2,1:2|1:2,0:0:0:0:
102,373,68446,2,0,L|109:305,1,68.2499979171754,10|0,0:0|0:0,0:0:0:0:
196,265,68795,6,0,P|235:307|324:309,1,136.499995834351,2|8,1:2|0:0,0:0:0:0:
363,234,69318,1,0,0:0:0:0:
442,285,69492,2,0,P|451:325|442:354,2,68.2499979171754,2|2|10,1:2|1:2|0:0,0:0:0:0:
442,285,70190,6,0,L|454:145,1,136.499995834351,2|10,1:2|0:0,0:0:0:0:
393,74,70713,1,0,0:0:0:0:
388,70,70800,1,0,1:2:0:0:
383,66,70888,2,0,P|346:68|316:79,1,68.2499979171754,2|2,1:2|1:2,0:0:0:0:
254,150,71236,2,0,P|217:148|187:137,1,68.2499979171754,10|0,0:0|0:0,0:0:0:0:
111,80,71585,6,0,P|137:121|108:208,1,136.499995834351,2|8,1:2|0:0,0:0:0:0:
40,261,72109,1,0,0:0:0:0:
112,322,72283,2,0,L|180:314,1,68.2499979171754,2|2,1:2|1:2,0:0:0:0:
249,247,72632,2,0,L|356:261,1,102.374996875763,10|0,0:0|0:0,0:0:0:0:
374,264,72981,6,0,P|374:223|382:192,1,68.2499979171754,2|0,1:2|0:0,0:0:0:0:
420,110,73329,2,0,P|420:68|412:37,1,68.2499979171754,10|0,0:0|0:0,0:0:0:0:
408,37,73591,1,0,1:2:0:0:
400,32,73678,2,0,L|323:38,1,68.2499979171754,2|0,1:2|1:2,0:0:0:0:
262,103,74027,2,0,L|185:97,1,68.2499979171754,10|0,0:0|0:0,0:0:0:0:
138,175,74376,6,0,B|134:211|134:211|147:249,1,68.2499979171754,2|0,1:2|0:0,0:0:0:0:
189,326,74725,1,10,0:0:0:0:
273,282,74899,1,0,0:0:0:0:
278,279,74986,1,0,1:2:0:0:
283,276,75074,2,0,L|354:288,1,68.2499979171754,0|0,1:2|1:2,0:0:0:0:
413,215,75423,1,10,0:0:0:0:
352,141,75597,1,2,1:2:0:0:
413,68,75771,6,0,P|380:46|348:45,1,68.2499979171754,2|0,1:2|0:0,0:0:0:0:
257,29,76120,2,0,P|254:67|270:95,1,68.2499979171754,10|0,0:0|0:0,0:0:0:0:
274,100,76382,1,0,1:2:0:0:
282,105,76469,2,0,L|270:179,1,68.2499979171754,2|0,1:2|1:2,0:0:0:0:
195,231,76818,2,0,L|207:305,1,68.2499979171754,10|0,0:0|0:0,0:0:0:0:
133,360,77167,5,2,1:2:0:0:
42,328,77341,1,0,0:0:0:0:
75,238,77516,1,8,0:0:0:0:
222,79,77864,5,2,1:2:0:0:
288,148,78039,2,0,L|283:191,2,34.1249989585877,10|8|10,0:0|0:0|0:0,0:0:0:0:
370,99,78388,1,8,0:0:0:0:
368,91,78475,1,8,0:0:0:0:
366,83,78562,6,0,P|401:96|435:96,1,68.2499979171754,6|0,1:2|0:0,0:0:0:0:
486,174,78911,2,0,P|473:209|473:243,1,68.2499979171754,10|0,0:0|0:0,0:0:0:0:
477,248,79173,1,0,1:2:0:0:
482,255,79260,1,2,1:2:0:0:
449,344,79434,1,2,1:2:0:0:
367,293,79609,2,0,L|300:303,1,68.2499979171754,10|0,0:0|0:0,0:0:0:0:
237,375,79957,6,0,P|252:308|214:248,1,136.499995834351,2|8,1:2|0:0,0:0:0:0:
145,190,80481,1,0,0:0:0:0:
79,259,80655,2,0,L|91:328,2,68.2499979171754,2|2|10,1:2|1:2|0:0,0:0:0:0:
79,259,81353,6,0,L|95:117,1,136.499995834351,2|10,1:2|0:0,0:0:0:0:
165,58,81876,1,0,0:0:0:0:
170,54,81963,1,0,1:2:0:0:
175,50,82050,2,0,L|248:61,1,68.2499979171754,2|2,1:2|1:2,0:0:0:0:
305,132,82399,2,0,L|378:121,1,68.2499979171754,10|0,0:0|0:0,0:0:0:0:
432,46,82748,6,0,P|459:76|456:170,1,136.499995834351,2|8,1:2|0:0,0:0:0:0:
374,214,83271,1,0,0:0:0:0:
444,278,83446,2,0,L|511:270,1,68.2499979171754,2|2,1:2|1:2,0:0:0:0:
438,376,83795,2,0,L|331:368,1,102.374996875763,10|0,0:0|0:0,0:0:0:0:
316,358,84143,6,0,P|304:325|308:278,1,68.2499979171754,2|0,1:2|0:0,0:0:0:0:
352,209,84492,2,0,P|364:176|360:129,1,68.2499979171754,10|0,0:0|0:0,0:0:0:0:
360,137,84754,1,0,1:2:0:0:
357,131,84841,1,2,1:2:0:0:
307,48,85016,1,2,1:2:0:0:
228,101,85190,2,0,L|236:172,1,68.2499979171754,10|0,0:0|0:0,0:0:0:0:
151,213,85539,6,0,L|134:77,1,136.499995834351,2|8,1:2|0:0,0:0:0:0:
54,24,86062,1,0,0:0:0:0:
5,106,86236,2,0,P|4:144|22:177,1,68.2499979171754,2|2,1:2|1:2,0:0:0:0:
94,226,86585,2,0,L|76:337,1,102.374996875763,10|0,0:0|0:0,0:0:0:0:
75,350,86934,6,0,P|109:343|142:345,1,68.2499979171754,6|0,1:2|0:0,0:0:0:0:
225,274,87283,2,0,P|255:289|280:311,1,68.2499979171754,2|8,1:2|0:0,0:0:0:0:
288,321,87545,1,8,0:0:0:0:
293,330,87632,2,0,L|340:322,3,34.1249989585877,10|8|8|8,0:0|0:0|0:0|0:0,0:0:0:0:
366,297,87981,2,0,L|413:305,1,34.1249989585877,10|8,0:0|0:0,0:0:0:0:
435,334,88155,2,0,L|482:326,1,34.1249989585877,8|8,0:0|0:0,0:0:0:0:
506,298,88329,5,14,0:0:0:0:
256,192,88417,12,0,89725,0:0:0:0:
