osu file format v14

[General]
AudioFilename: audio.ogg
AudioLeadIn: 0
PreviewTime: 66712
Countdown: 0
SampleSet: Soft
StackLeniency: 0.7
Mode: 3
LetterboxInBreaks: 0
SpecialStyle: 0
WidescreenStoryboard: 0

[Editor]
DistanceSpacing: 1.3
BeatDivisor: 4
GridSize: 32
TimelineZoom: 2.1

[Metadata]
Title:Otome-domo yo. (TV Size)
TitleUnicode:乙女どもよ。(TV Size)
Artist:CHiCO with HoneyWorks
ArtistUnicode:CHiCO with HoneyWorks
Creator:Paran
Version:Page of Spring
Source:荒ぶる季節の乙女どもよ。
Tags:DenYi Syadow- op opening japanese j-pop jpop pop araburu kisetsu no otome-domo yo. O Maidens in Your Savage Season anime SMCL-607 SMCL-608 中西 Nakanishi 小林修己 Osamu Kobayashi 宇都圭輝 Keiki Uto 裕木レオン Leon Yuuki 堤 博明 Hiroaki Tsutsumi 門脇大輔ストリングス Daisuke Kadowaki Strings ヤマコ Yamako
BeatmapID:3578168
BeatmapSetID:1749145

[Difficulty]
HPDrainRate:8
CircleSize:4
OverallDifficulty:8
ApproachRate:8
SliderMultiplier:1.4
SliderTickRate:1

[Events]
//Background and Video events
0,0,"Savage Season.jpg",0,0
Video,600,"Otome-domo yo..mp4"
//Break Periods
//Storyboard Layer 0 (Background)
//Storyboard Layer 1 (Fail)
//Storyboard Layer 2 (Pass)
//Storyboard Layer 3 (Foreground)
//Storyboard Layer 4 (Overlay)
//Storyboard Sound Samples

[TimingPoints]
433,348.837209302326,4,2,1,50,1,0
67409,-100,4,2,1,50,0,1
88339,-100,4,2,1,50,0,0

[HitObjects]
448,192,1828,5,0,0:0:0:0:
64,192,1828,1,0,0:0:0:0:
192,192,2002,1,0,0:0:0:0:
64,192,2177,1,0,0:0:0:0:
192,192,2351,1,0,0:0:0:0:
448,192,2526,1,0,0:0:0:0:
320,192,2700,1,0,0:0:0:0:
448,192,2874,1,0,0:0:0:0:
320,192,3049,1,0,0:0:0:0:
192,192,3223,1,0,0:0:0:0:
448,192,3223,1,0,0:0:0:0:
64,192,3398,1,0,0:0:0:0:
192,192,3572,1,0,0:0:0:0:
64,192,3746,1,0,0:0:0:0:
320,192,3921,1,0,0:0:0:0:
448,192,4095,1,0,0:0:0:0:
320,192,4270,1,0,0:0:0:0:
448,192,4444,1,0,0:0:0:0:
64,192,4619,1,0,0:0:0:0:
320,192,4619,1,0,0:0:0:0:
192,192,4793,1,0,0:0:0:0:
64,192,4967,1,0,0:0:0:0:
192,192,5142,1,0,0:0:0:0:
448,192,5316,1,0,0:0:0:0:
320,192,5491,1,0,0:0:0:0:
448,192,5665,1,0,0:0:0:0:
320,192,5839,1,0,0:0:0:0:
64,192,6014,1,0,0:0:0:0:
448,192,6014,1,0,0:0:0:0:
192,192,6188,1,0,0:0:0:0:
64,192,6363,1,0,0:0:0:0:
192,192,6537,1,0,0:0:0:0:
448,192,6712,1,0,0:0:0:0:
320,192,6886,1,0,0:0:0:0:
448,192,7060,1,0,0:0:0:0:
320,192,7235,1,0,0:0:0:0:
448,192,7409,1,0,0:0:0:0:
192,192,7409,1,0,0:0:0:0:
64,192,7584,1,0,0:0:0:0:
192,192,7758,1,0,0:0:0:0:
64,192,7933,1,0,0:0:0:0:
320,192,8107,1,0,0:0:0:0:
448,192,8281,1,0,0:0:0:0:
320,192,8456,1,0,0:0:0:0:
448,192,8630,1,0,0:0:0:0:
64,192,8805,1,0,0:0:0:0:
320,192,8805,1,0,0:0:0:0:
192,192,8979,1,0,0:0:0:0:
64,192,9153,1,0,0:0:0:0:
192,192,9328,1,0,0:0:0:0:
448,192,9502,1,0,0:0:0:0:
320,192,9677,1,0,0:0:0:0:
448,192,9851,1,0,0:0:0:0:
320,192,10026,1,0,0:0:0:0:
64,192,10200,128,0,11421:0:0:0:0:
448,192,10200,1,0,0:0:0:0:
192,192,10200,128,0,10549:0:0:0:0:
320,192,10549,1,0,0:0:0:0:
192,192,10898,1,0,0:0:0:0:
320,192,10898,128,0,11246:0:0:0:0:
448,192,11246,1,0,0:0:0:0:
320,192,11421,1,0,0:0:0:0:
448,192,11595,1,4,0:0:0:0:
64,192,11595,1,2,0:0:0:0:
192,192,11595,1,0,0:0:0:0:
320,192,11944,1,0,0:0:0:0:
192,192,12293,1,0,0:0:0:0:
64,192,12642,1,0,0:0:0:0:
448,192,12991,1,4,0:0:0:0:
320,192,12991,1,0,0:0:0:0:
192,192,12991,1,2,0:0:0:0:
64,192,13339,1,0,0:0:0:0:
448,192,13688,1,0,0:0:0:0:
192,192,14037,1,2,0:0:0:0:
320,192,14037,1,0,0:0:0:0:
64,192,14386,1,2,0:0:0:0:
448,192,14386,1,4,0:0:0:0:
192,192,14386,1,0,0:0:0:0:
320,192,14735,1,0,0:0:0:50:Tom1.wav
448,192,14735,1,0,0:0:0:0:
64,192,15084,1,0,0:0:0:0:
192,192,15258,1,0,0:0:0:50:Tom3.wav
320,192,15258,1,0,0:0:0:0:
448,192,15433,1,0,0:0:0:0:
448,192,15781,1,4,0:0:0:0:
64,192,15781,1,2,0:0:0:0:
192,192,15781,1,0,0:0:0:0:
320,192,16130,1,0,0:0:0:50:Tom2.wav
448,192,16130,1,0,0:0:0:0:
192,192,16305,1,0,0:0:0:50:Tom1.wav
320,192,16392,1,0,0:0:0:50:Tom1.wav
448,192,16479,1,0,0:0:0:50:Tom2.wav
64,192,16479,1,0,0:0:0:0:
192,192,16653,1,0,0:0:0:50:Tom3.wav
192,192,16828,1,0,0:0:0:50:Tom3.wav
64,192,17177,1,2,0:0:0:0:
448,192,17177,1,0,0:0:0:0:
320,192,17177,1,4,0:0:0:0:
448,192,17526,1,0,0:0:0:0:
64,192,17526,1,2,0:0:0:0:
448,192,17874,1,0,0:0:0:0:
192,192,17874,1,2,0:0:0:0:
320,192,18223,1,0,0:0:0:0:
64,192,18223,1,2,0:0:0:0:
192,192,18572,1,2,0:0:0:0:
320,192,18572,1,0,0:0:0:0:
448,192,18921,1,0,0:0:0:0:
192,192,18921,1,2,0:0:0:0:
320,192,19270,1,0,0:0:0:0:
64,192,19270,1,2,0:0:0:0:
448,192,19619,1,0,0:0:0:0:
64,192,19619,1,2,0:0:0:0:
192,192,19793,1,0,0:0:0:0:
320,192,19967,1,8,0:0:0:0:
448,192,19967,1,4,0:0:0:0:
64,192,19967,1,2,0:0:0:0:
448,192,20316,1,0,0:0:0:0:
192,192,20316,1,2,0:0:0:0:
320,192,20491,1,0,0:0:0:0:
192,192,20665,1,0,0:0:0:0:
64,192,20665,1,2,0:0:0:0:
320,192,20839,1,8,0:0:0:0:
448,192,20839,1,0,0:0:0:0:
192,192,21014,1,0,0:0:0:0:
64,192,21014,1,2,0:0:0:0:
320,192,21188,1,8,0:0:0:0:
448,192,21363,1,4,0:0:0:0:
64,192,21363,1,2,0:0:0:0:
192,192,21363,1,0,0:0:0:0:
320,192,21537,1,8,0:0:0:0:
192,192,21624,1,8,0:0:0:0:
64,192,21712,1,2,0:0:0:0:
448,192,21712,1,8,0:0:0:0:
320,192,21799,1,0,0:0:0:50:Tom2.wav
192,192,21886,1,0,0:0:0:50:Tom3.wav
320,192,22060,1,2,0:0:0:0:
448,192,22060,1,4,0:0:0:0:
192,192,22409,1,10,0:0:0:0:
320,192,22409,1,4,0:0:0:0:
192,192,22758,1,0,0:0:0:0:
448,192,22758,1,4,0:0:0:0:
64,192,22758,128,2,23107:0:0:0:0:
320,192,23107,1,8,0:0:0:0:
448,192,23107,1,0,0:0:0:0:
192,192,23281,1,0,0:0:0:0:
320,192,23369,1,8,0:0:0:0:
448,192,23369,1,0,0:0:0:0:
64,192,23456,1,0,0:0:0:0:
192,192,23630,1,2,0:0:0:0:
320,192,23630,1,0,0:0:0:0:
64,192,23805,1,8,0:0:0:0:
448,192,23805,1,0,0:0:0:0:
448,192,24153,1,0,0:0:0:0:
64,192,24153,1,0,0:0:0:0:
320,192,24153,128,2,24502:0:0:0:0:
448,192,24502,1,8,0:0:0:0:
192,192,24502,1,0,0:0:0:0:
64,192,24851,1,0,0:0:0:0:
320,192,24851,1,2,0:0:0:0:
320,192,25026,1,2,0:0:0:0:
448,192,25026,1,0,0:0:0:0:
448,192,25200,1,0,0:0:0:0:
192,192,25200,1,8,0:0:0:0:
320,192,25549,1,0,0:0:0:0:
64,192,25549,1,2,0:0:0:0:
448,192,25549,128,0,25898:0:0:0:0:
192,192,25898,1,8,0:0:0:0:
64,192,25898,1,0,0:0:0:0:
320,192,26072,1,0,0:0:0:0:
192,192,26159,1,8,0:0:0:0:
64,192,26159,1,0,0:0:0:0:
448,192,26246,1,0,0:0:0:0:
320,192,26421,1,2,0:0:0:0:
192,192,26421,1,0,0:0:0:0:
448,192,26595,1,8,0:0:0:0:
64,192,26595,1,0,0:0:0:0:
64,192,26944,1,2,0:0:0:0:
448,192,26944,1,0,0:0:0:0:
192,192,26944,128,0,27293:0:0:0:0:
64,192,27293,1,0,0:0:0:0:
320,192,27293,1,8,0:0:0:0:
448,192,27642,1,0,0:0:0:0:
192,192,27642,1,2,0:0:0:0:
192,192,27816,1,2,0:0:0:0:
64,192,27816,1,0,0:0:0:0:
64,192,27991,1,0,0:0:0:0:
320,192,27991,1,8,0:0:0:0:
448,192,28339,1,4,0:0:0:0:
192,192,28339,1,0,0:0:0:0:
64,192,28339,128,2,28688:0:0:0:0:
448,192,28688,1,0,0:0:0:0:
320,192,28688,1,8,0:0:0:0:
192,192,28863,1,0,0:0:0:0:
448,192,28950,1,0,0:0:0:0:
320,192,28950,1,8,0:0:0:0:
64,192,29037,1,0,0:0:0:0:
192,192,29212,1,2,0:0:0:0:
320,192,29212,1,0,0:0:0:0:
448,192,29386,1,8,0:0:0:0:
64,192,29386,1,0,0:0:0:0:
64,192,29735,1,0,0:0:0:0:
448,192,29735,1,0,0:0:0:0:
320,192,29735,128,2,30084:0:0:0:0:
192,192,30084,1,8,0:0:0:0:
448,192,30084,1,0,0:0:0:0:
320,192,30433,1,2,0:0:0:0:
64,192,30433,1,0,0:0:0:0:
448,192,30607,1,0,0:0:0:0:
320,192,30607,1,2,0:0:0:0:
192,192,30781,1,8,0:0:0:0:
448,192,30781,1,0,0:0:0:0:
448,192,31130,1,4,0:0:0:0:
320,192,31130,1,0,0:0:0:0:
64,192,31130,128,2,31828:0:0:0:0:
192,192,31479,1,8,0:0:0:0:
448,192,31479,1,0,0:0:0:0:
320,192,31828,128,0,32177:0:0:0:0:
448,192,32002,1,2,0:0:0:0:
64,192,32177,1,8,0:0:0:0:
192,192,32177,128,0,32526:0:0:0:0:
448,192,32351,1,2,0:0:0:0:
448,192,32526,1,4,0:0:0:0:
64,192,32526,1,0,0:0:0:0:
320,192,32526,1,8,0:0:0:0:
448,192,32874,1,0,0:0:0:50:Tom1.wav
320,192,32874,1,2,0:0:0:0:
64,192,33049,1,0,0:0:0:0:
448,192,33136,1,0,0:0:0:0:
320,192,33136,1,8,0:0:0:0:
192,192,33223,1,8,0:0:0:0:
64,192,33223,1,2,0:0:0:0:
448,192,33398,1,0,0:0:0:0:
64,192,33485,1,0,0:0:0:0:
192,192,33485,1,8,0:0:0:0:
448,192,33572,1,8,0:0:0:0:
320,192,33572,1,2,0:0:0:0:
320,192,33746,1,0,0:0:0:0:
192,192,33746,1,0,0:0:0:50:Tom2.wav
64,192,33921,1,2,0:0:0:0:
448,192,33921,1,4,0:0:0:0:
192,192,33921,128,0,34270:0:0:0:0:
448,192,34270,1,0,0:0:0:0:
320,192,34270,1,8,0:0:0:0:
64,192,34444,1,0,0:0:0:0:
448,192,34619,1,0,0:0:0:0:
64,192,34793,1,2,0:0:0:0:
192,192,34793,1,0,0:0:0:0:
320,192,34967,1,8,0:0:0:0:
448,192,34967,1,0,0:0:0:0:
192,192,35142,1,0,0:0:0:0:
64,192,35316,128,0,35665:0:0:0:0:
320,192,35316,1,2,0:0:0:0:
192,192,35665,1,8,0:0:0:0:
448,192,35665,1,0,0:0:0:0:
320,192,35839,1,0,0:0:0:0:
64,192,36014,1,0,0:0:0:0:
448,192,36014,1,2,0:0:0:0:
192,192,36188,1,2,0:0:0:0:
320,192,36188,1,0,0:0:0:0:
448,192,36363,1,8,0:0:0:0:
64,192,36363,1,0,0:0:0:0:
192,192,36537,1,0,0:0:0:0:
448,192,36712,1,2,0:0:0:0:
320,192,36712,128,0,37060:0:0:0:0:
64,192,37060,1,8,0:0:0:0:
192,192,37060,1,0,0:0:0:0:
448,192,37235,1,0,0:0:0:0:
64,192,37409,1,0,0:0:0:0:
448,192,37584,1,2,0:0:0:0:
320,192,37584,1,0,0:0:0:0:
192,192,37758,1,8,0:0:0:0:
64,192,37758,1,0,0:0:0:0:
320,192,37933,1,0,0:0:0:0:
192,192,38107,1,2,0:0:0:0:
448,192,38107,128,0,38456:0:0:0:0:
320,192,38456,1,8,0:0:0:0:
64,192,38456,1,0,0:0:0:0:
192,192,38630,1,0,0:0:0:0:
64,192,38805,1,2,0:0:0:0:
448,192,38805,1,0,0:0:0:0:
320,192,38979,1,0,0:0:0:0:
192,192,38979,1,2,0:0:0:0:
64,192,39153,1,0,0:0:0:0:
448,192,39153,1,8,0:0:0:0:
320,192,39328,1,0,0:0:0:0:
448,192,39502,1,2,0:0:0:0:
192,192,39502,128,0,39851:0:0:0:0:
64,192,39851,1,0,0:0:0:0:
320,192,39851,1,8,0:0:0:0:
192,192,40026,1,0,0:0:0:0:
448,192,40200,1,0,0:0:0:0:
64,192,40374,1,0,0:0:0:0:
192,192,40374,1,2,0:0:0:0:
320,192,40549,1,8,0:0:0:0:
448,192,40549,1,0,0:0:0:0:
192,192,40723,1,0,0:0:0:0:
64,192,40898,128,0,41246:0:0:0:0:
448,192,40898,1,2,0:0:0:0:
192,192,41246,128,0,41595:0:0:0:0:
320,192,41246,1,8,0:0:0:0:
448,192,41595,1,0,0:0:0:0:
320,192,41595,128,2,41944:0:0:0:0:
192,192,41770,1,2,0:0:0:0:
64,192,41944,1,8,0:0:0:0:
448,192,41944,128,0,42293:0:0:0:0:
192,192,42293,128,0,42642:0:0:0:0:
64,192,42293,1,2,0:0:0:0:
320,192,42642,1,8,0:0:0:0:
448,192,42642,1,0,0:0:0:0:
64,192,42816,1,0,0:0:0:0:
192,192,42991,1,0,0:0:0:0:
320,192,43165,1,2,0:0:0:0:
448,192,43165,1,0,0:0:0:0:
64,192,43339,1,8,0:0:0:0:
192,192,43339,1,0,0:0:0:0:
448,192,43514,1,0,0:0:0:0:
320,192,43688,1,0,0:0:0:0:
192,192,43688,1,2,0:0:0:0:
64,192,43863,1,2,0:0:0:0:
448,192,43863,1,0,0:0:0:0:
320,192,44037,1,0,0:0:0:0:
192,192,44037,1,8,0:0:0:0:
64,192,44212,1,0,0:0:0:0:
320,192,44386,1,2,0:0:0:0:
448,192,44386,1,0,0:0:0:0:
192,192,44560,1,0,0:0:0:0:
320,192,44648,1,8,0:0:0:0:
448,192,44648,1,0,0:0:0:0:
192,192,44735,1,2,0:0:0:0:
64,192,44735,1,8,0:0:0:0:
320,192,44909,1,0,0:0:0:50:Tom2.wav
192,192,44909,1,0,0:0:0:0:
448,192,45084,1,4,0:0:0:0:
320,192,45084,1,0,0:0:0:0:
64,192,45084,128,2,45781:0:0:0:0:
192,192,45433,1,8,0:0:0:0:
448,192,45433,1,0,0:0:0:0:
320,192,45781,1,0,0:0:0:0:
192,192,45956,1,2,0:0:0:0:
64,192,45956,1,0,0:0:0:0:
320,192,46130,1,8,0:0:0:0:
448,192,46130,1,0,0:0:0:0:
192,192,46305,1,0,0:0:0:0:
448,192,46479,128,0,46828:0:0:0:0:
64,192,46479,1,2,0:0:0:0:
192,192,46828,1,0,0:0:0:0:
64,192,46828,1,8,0:0:0:0:
320,192,47002,1,0,0:0:0:0:
448,192,47177,1,2,0:0:0:0:
192,192,47177,128,0,47526:0:0:0:0:
64,192,47351,1,2,0:0:0:0:
320,192,47526,1,8,0:0:0:0:
448,192,47526,1,0,0:0:0:0:
448,192,47874,128,0,48572:0:0:0:0:
64,192,47874,1,2,0:0:0:0:
320,192,48223,1,8,0:0:0:0:
64,192,48223,1,0,0:0:0:0:
192,192,48572,1,0,0:0:0:0:
320,192,48746,1,2,0:0:0:0:
448,192,48746,1,0,0:0:0:0:
192,192,48921,1,0,0:0:0:0:
64,192,48921,1,8,0:0:0:0:
320,192,49095,1,0,0:0:0:0:
64,192,49270,128,0,49619:0:0:0:0:
448,192,49270,1,2,0:0:0:0:
320,192,49619,1,8,0:0:0:0:
448,192,49619,1,0,0:0:0:0:
192,192,49793,1,0,0:0:0:0:
64,192,49967,1,2,0:0:0:0:
320,192,49967,128,0,50316:0:0:0:0:
448,192,50142,1,2,0:0:0:0:
192,192,50316,1,8,0:0:0:0:
64,192,50316,1,0,0:0:0:0:
320,192,50491,1,0,0:0:0:0:
448,192,50665,1,2,0:0:0:0:
64,192,50665,128,0,51014:0:0:0:0:
192,192,51014,1,8,0:0:0:0:
320,192,51014,1,0,0:0:0:0:
448,192,51188,1,0,0:0:0:0:
320,192,51363,1,0,0:0:0:0:
192,192,51537,1,2,0:0:0:0:
64,192,51537,1,0,0:0:0:0:
448,192,51712,1,0,0:0:0:0:
320,192,51712,1,8,0:0:0:0:
192,192,51886,1,0,0:0:0:0:
64,192,52060,128,0,52409:0:0:0:0:
448,192,52060,1,2,0:0:0:0:
320,192,52409,128,0,52758:0:0:0:0:
448,192,52409,1,8,0:0:0:0:
192,192,52758,128,0,53107:0:0:0:0:
64,192,52758,1,2,0:0:0:0:
320,192,52933,1,2,0:0:0:0:
448,192,53107,128,0,53456:0:0:0:0:
64,192,53107,1,8,0:0:0:0:
320,192,53456,1,4,0:0:0:0:
192,192,53456,1,2,0:0:0:0:
64,192,53456,128,0,53805:0:0:0:0:
320,192,53805,1,8,0:0:0:0:
448,192,53805,1,0,0:0:0:0:
192,192,53979,1,0,0:0:0:0:
448,192,54153,1,2,0:0:0:0:
320,192,54153,1,0,0:0:0:0:
192,192,54328,1,2,0:0:0:0:
64,192,54328,1,0,0:0:0:0:
448,192,54502,1,8,0:0:0:0:
64,192,54502,1,0,0:0:0:0:
192,192,54677,1,0,0:0:0:0:
320,192,54677,1,2,0:0:0:0:
192,192,54851,1,8,0:0:0:0:
64,192,54851,1,0,0:0:0:0:
448,192,54851,1,4,0:0:0:0:
320,192,55026,1,0,0:0:0:0:
64,192,55200,1,2,0:0:0:0:
448,192,55200,1,0,0:0:0:0:
192,192,55374,1,0,0:0:0:0:
320,192,55462,1,8,0:0:0:0:
448,192,55462,1,0,0:0:0:0:
192,192,55549,1,8,0:0:0:0:
64,192,55549,1,2,0:0:0:0:
320,192,55723,1,0,0:0:0:0:
448,192,55723,1,0,0:0:0:50:Tom1.wav
320,192,55898,1,0,0:0:0:0:
192,192,55898,1,0,0:0:0:50:Tom2.wav
64,192,56072,1,0,0:0:0:0:
192,192,56072,1,0,0:0:0:50:Tom3.wav
448,192,56246,1,4,0:0:0:0:
64,192,56246,1,2,0:0:0:0:
320,192,56246,128,0,56595:0:0:0:0:
64,192,56595,128,0,56944:0:0:0:0:
192,192,56770,1,2,0:0:0:0:
448,192,56944,128,0,57293:0:0:0:0:
320,192,56944,1,8,0:0:0:0:
192,192,57293,128,0,57642:0:0:0:0:
320,192,57642,1,0,0:0:0:0:
448,192,57642,1,2,0:0:0:0:
192,192,57816,1,0,0:0:0:0:
64,192,57816,1,8,0:0:0:0:
320,192,57991,1,2,0:0:0:0:
448,192,57991,1,0,0:0:0:0:
448,192,58165,1,2,0:0:0:0:
320,192,58165,1,0,0:0:0:0:
192,192,58339,1,0,0:0:0:0:
64,192,58339,1,8,0:0:0:0:
192,192,58688,1,0,0:0:0:0:
320,192,58863,1,0,0:0:0:0:
448,192,59037,1,2,0:0:0:0:
64,192,59037,128,0,59386:0:0:0:0:
192,192,59386,1,0,0:0:0:0:
320,192,59560,1,0,0:0:0:0:
64,192,59560,1,2,0:0:0:0:
192,192,59735,1,8,0:0:0:0:
448,192,59735,128,0,60084:0:0:0:0:
320,192,60084,1,0,0:0:0:0:
192,192,60258,1,0,0:0:0:0:
64,192,60433,1,2,0:0:0:0:
448,192,60433,1,0,0:0:0:0:
320,192,60607,1,0,0:0:0:0:
192,192,60607,1,8,0:0:0:0:
64,192,60781,1,0,0:0:0:0:
320,192,60956,1,0,0:0:0:0:
192,192,60956,1,2,0:0:0:0:
448,192,61130,1,8,0:0:0:0:
64,192,61130,1,0,0:0:0:0:
448,192,61479,1,0,0:0:0:0:
320,192,61479,1,0,0:0:0:50:Tom2.wav
192,192,61653,1,0,0:0:0:0:
320,192,61653,1,0,0:0:0:50:Tom3.wav
64,192,61828,1,2,0:0:0:0:
448,192,61828,1,4,0:0:0:0:
192,192,61828,128,0,62177:0:0:0:0:
448,192,62177,128,0,62526:0:0:0:0:
320,192,62351,1,2,0:0:0:0:
64,192,62526,128,0,62874:0:0:0:0:
192,192,62526,1,8,0:0:0:0:
320,192,62874,128,0,63223:0:0:0:0:
64,192,63223,1,0,0:0:0:0:
192,192,63223,1,2,0:0:0:0:
320,192,63398,1,8,0:0:0:0:
448,192,63398,1,0,0:0:0:0:
64,192,63572,1,0,0:0:0:0:
320,192,63746,1,2,0:0:0:0:
448,192,63746,1,0,0:0:0:0:
64,192,63921,1,0,0:0:0:0:
192,192,63921,1,8,0:0:0:0:
448,192,64095,1,8,0:0:0:0:
320,192,64095,1,0,0:0:0:0:
192,192,64183,1,0,0:0:0:0:
64,192,64183,1,8,0:0:0:0:
320,192,64270,1,8,0:0:0:0:
448,192,64270,1,2,0:0:0:0:
192,192,64444,1,8,0:0:0:0:
64,192,64444,1,0,0:0:0:0:
320,192,64619,1,0,0:0:0:0:
64,192,64619,1,2,0:0:0:0:
448,192,64619,1,4,0:0:0:0:
192,192,64967,1,0,0:0:0:0:
448,192,64967,1,0,0:0:0:50:Tom3.wav
448,192,65142,1,0,0:0:0:50:Tom3.wav
64,192,65142,1,0,0:0:0:0:
320,192,65316,1,8,0:0:0:0:
64,192,65316,1,0,0:0:0:50:Tom3.wav
448,192,65491,1,0,0:0:0:50:Tom3.wav
192,192,65491,1,8,0:0:0:0:
320,192,65665,1,8,0:0:0:0:
192,192,65665,1,0,0:0:0:50:Tom3.wav
64,192,65839,1,0,0:0:0:50:Tom3.wav
320,192,65839,1,8,0:0:0:0:
192,192,66014,1,0,0:0:0:0:
64,192,66014,1,2,0:0:0:0:
448,192,66014,1,4,0:0:0:0:
64,192,67060,1,0,0:0:0:0:
192,192,67148,1,0,0:0:0:0:
320,192,67235,1,0,0:0:0:0:
448,192,67322,1,0,0:0:0:0:
64,192,67409,1,2,0:0:0:0:
192,192,67409,128,4,67758:0:0:0:0:
448,192,67758,1,0,0:0:0:0:
320,192,67758,1,8,0:0:0:0:
64,192,67758,1,0,0:0:0:0:
320,192,67933,1,0,0:0:0:0:
64,192,68020,1,8,0:0:0:0:
448,192,68020,1,0,0:0:0:0:
192,192,68107,1,0,0:0:0:0:
320,192,68281,1,0,0:0:0:0:
64,192,68281,1,2,0:0:0:0:
64,192,68456,1,0,0:0:0:0:
192,192,68456,1,8,0:0:0:0:
448,192,68456,1,0,0:0:0:0:
320,192,68630,1,0,0:0:0:0:
192,192,68805,1,2,0:0:0:0:
64,192,68805,1,0,0:0:0:0:
448,192,68805,128,0,69153:0:0:0:0:
64,192,69153,1,0,0:0:0:0:
320,192,69153,1,8,0:0:0:0:
192,192,69328,1,0,0:0:0:0:
448,192,69502,1,2,0:0:0:0:
320,192,69502,128,0,69677:0:0:0:0:
64,192,69677,1,2,0:0:0:0:
192,192,69677,128,0,69851:0:0:0:0:
64,192,69851,1,0,0:0:0:0:
320,192,69851,1,8,0:0:0:0:
448,192,69851,128,0,70026:0:0:0:0:
192,192,70026,1,0,0:0:0:0:
64,192,70200,1,2,0:0:0:0:
448,192,70200,1,0,0:0:0:0:
320,192,70200,128,0,70549:0:0:0:0:
192,192,70549,1,0,0:0:0:0:
64,192,70549,1,0,0:0:0:0:
448,192,70549,1,8,0:0:0:0:
192,192,70723,1,0,0:0:0:0:
448,192,70810,1,8,0:0:0:0:
64,192,70810,1,0,0:0:0:0:
320,192,70898,1,0,0:0:0:0:
448,192,71072,1,2,0:0:0:0:
192,192,71072,1,0,0:0:0:0:
320,192,71246,1,8,0:0:0:0:
448,192,71246,1,0,0:0:0:0:
64,192,71246,1,0,0:0:0:0:
192,192,71421,1,0,0:0:0:0:
320,192,71595,1,2,0:0:0:0:
448,192,71595,1,0,0:0:0:0:
64,192,71595,128,0,71944:0:0:0:0:
192,192,71944,1,8,0:0:0:0:
448,192,71944,1,0,0:0:0:0:
320,192,72119,1,0,0:0:0:0:
64,192,72293,1,2,0:0:0:0:
192,192,72293,128,0,72467:0:0:0:0:
448,192,72467,1,2,0:0:0:0:
320,192,72467,128,0,72642:0:0:0:0:
192,192,72642,1,8,0:0:0:0:
448,192,72642,1,0,0:0:0:0:
64,192,72642,128,0,72816:0:0:0:0:
320,192,72816,1,0,0:0:0:0:
192,192,72991,1,2,0:0:0:0:
64,192,72991,1,0,0:0:0:0:
448,192,72991,128,0,73339:0:0:0:0:
320,192,73339,128,0,73688:0:0:0:0:
192,192,73339,1,8,0:0:0:0:
64,192,73601,1,8,0:0:0:0:
192,192,73688,128,0,74037:0:0:0:0:
320,192,73863,1,2,0:0:0:0:
64,192,74037,128,0,74386:0:0:0:0:
448,192,74037,1,8,0:0:0:0:
320,192,74386,128,0,74735:0:0:0:0:
192,192,74386,1,2,0:0:0:0:
448,192,74386,1,0,0:0:0:0:
192,192,74735,128,0,75084:0:0:0:0:
64,192,74735,1,8,0:0:0:0:
64,192,74996,1,8,0:0:0:0:
448,192,75084,1,2,0:0:0:0:
320,192,75084,1,0,0:0:0:0:
320,192,75258,1,2,0:0:0:0:
192,192,75258,1,0,0:0:0:0:
64,192,75433,1,0,0:0:0:0:
192,192,75433,1,8,0:0:0:0:
448,192,75433,1,0,0:0:0:0:
64,192,75607,1,0,0:0:0:0:
192,192,75781,1,0,0:0:0:0:
448,192,75781,1,0,0:0:0:0:
320,192,75781,1,2,0:0:0:0:
64,192,76130,1,8,0:0:0:0:
448,192,76130,1,0,0:0:0:0:
320,192,76130,1,0,0:0:0:0:
448,192,76305,1,0,0:0:0:0:
320,192,76392,1,8,0:0:0:0:
64,192,76392,1,0,0:0:0:0:
192,192,76479,1,0,0:0:0:0:
320,192,76653,1,2,0:0:0:0:
448,192,76653,1,0,0:0:0:0:
64,192,76828,1,0,0:0:0:0:
192,192,76828,1,8,0:0:0:0:
448,192,76828,1,0,0:0:0:0:
320,192,77002,1,0,0:0:0:0:
64,192,77177,1,0,0:0:0:0:
192,192,77177,1,2,0:0:0:0:
448,192,77177,1,0,0:0:0:0:
320,192,77351,1,2,0:0:0:0:
192,192,77351,1,0,0:0:0:0:
448,192,77526,1,4,0:0:0:0:
320,192,77526,1,8,0:0:0:0:
64,192,77526,1,0,0:0:0:0:
192,192,77700,1,0,0:0:0:0:
448,192,77874,1,0,0:0:0:0:
64,192,77874,1,2,0:0:0:0:
320,192,78049,1,8,0:0:0:0:
448,192,78049,1,0,0:0:0:0:
64,192,78136,1,8,0:0:0:0:
192,192,78136,1,0,0:0:0:0:
320,192,78223,1,2,0:0:0:0:
448,192,78223,1,8,0:0:0:0:
64,192,78398,1,8,0:0:0:0:
192,192,78398,1,0,0:0:0:0:
320,192,78485,1,8,0:0:0:0:
448,192,78485,1,0,0:0:0:0:
64,192,78572,1,2,0:0:0:0:
192,192,78572,128,4,78921:0:0:0:0:
448,192,78921,1,0,0:0:0:0:
320,192,78921,1,0,0:0:0:0:
64,192,78921,1,8,0:0:0:0:
320,192,79095,1,0,0:0:0:0:
64,192,79183,1,8,0:0:0:0:
448,192,79183,1,0,0:0:0:0:
192,192,79270,1,0,0:0:0:0:
320,192,79444,1,0,0:0:0:0:
64,192,79444,1,2,0:0:0:0:
64,192,79619,1,0,0:0:0:0:
192,192,79619,1,8,0:0:0:0:
448,192,79619,1,0,0:0:0:0:
320,192,79793,1,0,0:0:0:0:
192,192,79967,1,2,0:0:0:0:
64,192,79967,1,0,0:0:0:0:
448,192,79967,128,0,80316:0:0:0:0:
64,192,80316,1,0,0:0:0:0:
320,192,80316,1,8,0:0:0:0:
192,192,80491,1,0,0:0:0:0:
448,192,80665,1,2,0:0:0:0:
320,192,80665,128,0,80839:0:0:0:0:
64,192,80839,1,2,0:0:0:0:
192,192,80839,128,0,81014:0:0:0:0:
64,192,81014,1,0,0:0:0:0:
320,192,81014,1,8,0:0:0:0:
448,192,81014,128,0,81188:0:0:0:0:
192,192,81188,1,0,0:0:0:0:
64,192,81363,1,0,0:0:0:0:
448,192,81363,1,2,0:0:0:0:
320,192,81363,128,0,81712:0:0:0:0:
192,192,81712,1,8,0:0:0:0:
64,192,81712,1,0,0:0:0:0:
448,192,81712,1,0,0:0:0:0:
192,192,81886,1,0,0:0:0:0:
448,192,81973,1,8,0:0:0:0:
64,192,81973,1,0,0:0:0:0:
320,192,82060,1,0,0:0:0:0:
448,192,82235,1,0,0:0:0:0:
192,192,82235,1,2,0:0:0:0:
320,192,82409,1,8,0:0:0:0:
448,192,82409,1,0,0:0:0:0:
64,192,82409,1,0,0:0:0:0:
192,192,82584,1,0,0:0:0:0:
320,192,82758,1,0,0:0:0:0:
448,192,82758,1,2,0:0:0:0:
64,192,82758,128,0,83107:0:0:0:0:
192,192,83107,1,8,0:0:0:0:
448,192,83107,1,0,0:0:0:0:
320,192,83281,1,0,0:0:0:0:
64,192,83456,1,2,0:0:0:0:
192,192,83456,128,0,83630:0:0:0:0:
448,192,83630,1,2,0:0:0:0:
320,192,83630,128,0,83805:0:0:0:0:
192,192,83805,1,8,0:0:0:0:
448,192,83805,1,0,0:0:0:0:
64,192,83805,128,0,83979:0:0:0:0:
320,192,83979,1,0,0:0:0:0:
192,192,84153,1,4,0:0:0:0:
64,192,84153,1,2,0:0:0:0:
448,192,84153,128,0,84502:0:0:0:0:
192,192,84502,1,8,0:0:0:0:
320,192,84502,128,0,84851:0:0:0:0:
64,192,84764,1,8,0:0:0:0:
192,192,84851,128,0,85200:0:0:0:0:
320,192,85026,1,2,0:0:0:0:
64,192,85200,128,0,85549:0:0:0:0:
448,192,85200,1,8,0:0:0:0:
320,192,85549,128,0,85898:0:0:0:0:
192,192,85549,1,2,0:0:0:0:
448,192,85549,1,4,0:0:0:0:
64,192,85898,1,0,0:0:0:0:
192,192,85898,1,8,0:0:0:0:
320,192,86072,1,0,0:0:0:0:
64,192,86246,1,0,0:0:0:0:
448,192,86246,1,2,0:0:0:0:
192,192,86421,1,0,0:0:0:0:
320,192,86421,1,2,0:0:0:0:
448,192,86595,1,0,0:0:0:0:
320,192,86595,1,8,0:0:0:0:
64,192,86595,1,0,0:0:0:0:
192,192,86770,1,2,0:0:0:0:
320,192,86770,1,0,0:0:0:0:
64,192,86944,1,4,0:0:0:0:
448,192,86944,1,0,0:0:0:0:
192,192,86944,128,8,87293:0:0:0:0:
320,192,87293,1,2,0:0:0:0:
448,192,87293,1,0,0:0:0:0:
192,192,87467,1,8,0:0:0:0:
320,192,87555,1,8,0:0:0:0:
64,192,87642,1,2,0:0:0:0:
448,192,87642,1,0,0:0:0:0:
192,192,87729,1,8,0:0:0:0:
320,192,87816,1,8,0:0:0:0:
64,192,87903,1,8,0:0:0:0:
192,192,87991,1,2,0:0:0:0:
448,192,87991,1,0,0:0:0:0:
320,192,88078,1,8,0:0:0:0:
192,192,88165,1,8,0:0:0:0:
64,192,88252,1,8,0:0:0:0:
448,192,88339,128,4,89735:0:0:0:0:
320,192,88339,128,2,89735:0:0:0:0:
