osu file format v14

[General]
AudioFilename: audio.ogg
AudioLeadIn: 0
PreviewTime: 66712
Countdown: 0
SampleSet: Soft
StackLeniency: 0.7
Mode: 3
LetterboxInBreaks: 0
SpecialStyle: 0
WidescreenStoryboard: 1

[Editor]
Bookmarks: 34000
DistanceSpacing: 1.3
BeatDivisor: 4
GridSize: 32
TimelineZoom: 1.9

[Metadata]
Title:Otome-domo yo. (TV Size)
TitleUnicode:乙女どもよ。(TV Size)
Artist:CHiCO with HoneyWorks
ArtistUnicode:CHiCO with HoneyWorks
Creator:Paran
Version:DenYi's Easy
Source:荒ぶる季節の乙女どもよ。
Tags:DenYi Syadow- op opening japanese j-pop jpop pop araburu kisetsu no otome-domo yo. O Maidens in Your Savage Season anime SMCL-607 SMCL-608 中西 Nakanishi 小林修己 Osamu Kobayashi 宇都圭輝 Keiki Uto 裕木レオン Leon Yuuki 堤 博明 Hiroaki Tsutsumi 門脇大輔ストリングス Daisuke Kadowaki Strings ヤマコ Yamako
BeatmapID:3579539
BeatmapSetID:1749145

[Difficulty]
HPDrainRate:7
CircleSize:4
OverallDifficulty:7
ApproachRate:8
SliderMultiplier:1.4
SliderTickRate:1

[Events]
//Background and Video events
0,0,"Savage Season.jpg",0,0
Video,600,"Otome-domo yo..mp4"
//Break Periods
//Storyboard Layer 0 (Background)
//Storyboard Layer 1 (Fail)
//Storyboard Layer 2 (Pass)
//Storyboard Layer 3 (Foreground)
//Storyboard Layer 4 (Overlay)
//Storyboard Sound Samples
Sample,32874,0,"Tom1.wav",50
Sample,65665,0,"Tom3.wav",50

[TimingPoints]
433,348.837209302326,4,2,1,50,1,0
67409,-100,4,2,1,50,0,1
88339,-100,4,2,1,50,0,0

[HitObjects]
64,192,1828,128,0,3223:0:0:0:0:
448,192,3223,128,0,3921:0:0:0:0:
192,192,3921,128,0,4619:0:0:0:0:
320,192,4619,128,0,6014:0:0:0:0:
64,192,6014,128,0,6712:0:0:0:0:
448,192,6712,128,0,7409:0:0:0:0:
192,192,7409,128,0,8805:0:0:0:0:
448,192,8805,128,0,9502:0:0:0:0:
320,192,9502,128,0,10200:0:0:0:0:
64,192,10200,128,0,10898:0:0:0:0:
320,192,10898,128,0,11595:0:0:0:0:
64,192,11595,1,2,0:0:0:0:
448,192,11595,1,4,0:0:0:0:
192,192,12293,1,0,0:0:0:0:
320,192,12642,1,0,0:0:0:0:
64,192,12991,1,2,0:0:0:0:
448,192,12991,1,4,0:0:0:0:
448,192,13688,1,0,0:0:0:0:
192,192,14037,1,0,0:0:0:0:
320,192,14386,1,4,0:0:0:0:
64,192,14386,1,2,0:0:0:0:
64,192,15084,1,0,0:0:0:0:
192,192,15433,1,0,0:0:0:0:
448,192,15781,1,4,0:0:0:0:
320,192,15781,1,2,0:0:0:0:
320,192,16479,1,0,0:0:0:50:Tom2.wav
192,192,16828,1,0,0:0:0:0:
64,192,17177,1,2,0:0:0:0:
448,192,17177,1,4,0:0:0:0:
192,192,17526,1,2,0:0:0:0:
320,192,17874,1,2,0:0:0:0:
64,192,18223,1,2,0:0:0:0:
320,192,18572,1,2,0:0:0:0:
192,192,18921,1,2,0:0:0:0:
448,192,19270,1,2,0:0:0:0:
320,192,19619,1,2,0:0:0:0:
64,192,19967,1,10,0:0:0:0:
192,192,19967,1,4,0:0:0:0:
320,192,20316,1,2,0:0:0:0:
64,192,20665,1,2,0:0:0:0:
448,192,20839,1,8,0:0:0:0:
192,192,21014,1,2,0:0:0:0:
320,192,21188,1,8,0:0:0:0:
448,192,21363,1,2,0:0:0:0:
64,192,21363,128,4,21712:0:0:0:0:
192,192,21712,128,10,22060:0:0:0:0:
320,192,22060,128,6,22409:0:0:0:0:
448,192,22409,128,14,22758:0:0:0:0:
64,192,22758,1,2,0:0:0:0:
192,192,22758,1,4,0:0:0:0:
320,192,23107,1,8,0:0:0:0:
448,192,23456,1,0,0:0:0:0:
64,192,23630,1,2,0:0:0:0:
192,192,23805,1,8,0:0:0:0:
320,192,24153,1,2,0:0:0:0:
448,192,24502,1,8,0:0:0:0:
64,192,24851,1,2,0:0:0:0:
192,192,25026,1,2,0:0:0:0:
320,192,25200,1,8,0:0:0:0:
64,192,25549,1,2,0:0:0:0:
448,192,25898,1,8,0:0:0:0:
192,192,26246,1,0,0:0:0:0:
320,192,26421,1,2,0:0:0:0:
64,192,26595,1,8,0:0:0:0:
448,192,26944,1,2,0:0:0:0:
320,192,27293,1,8,0:0:0:0:
64,192,27642,1,2,0:0:0:0:
192,192,27816,1,2,0:0:0:0:
320,192,27991,1,8,0:0:0:0:
64,192,28339,1,2,0:0:0:0:
448,192,28339,1,4,0:0:0:0:
192,192,28688,1,8,0:0:0:0:
448,192,29037,1,0,0:0:0:0:
64,192,29212,1,2,0:0:0:0:
320,192,29386,1,8,0:0:0:0:
448,192,29735,1,2,0:0:0:0:
192,192,30084,1,8,0:0:0:0:
448,192,30433,1,2,0:0:0:0:
320,192,30607,1,2,0:0:0:0:
64,192,30781,1,8,0:0:0:0:
192,192,31130,1,2,0:0:0:0:
448,192,31130,128,4,31828:0:0:0:0:
320,192,31479,1,8,0:0:0:0:
64,192,31828,128,0,32177:0:0:0:0:
192,192,32177,128,8,32526:0:0:0:0:
320,192,32526,1,8,0:0:0:0:
448,192,32526,1,4,0:0:0:0:
192,192,32874,1,2,0:0:0:0:
448,192,33049,1,0,0:0:0:0:
64,192,33223,1,10,0:0:0:0:
320,192,33398,1,0,0:0:0:0:
192,192,33572,1,10,0:0:0:0:
448,192,33921,1,4,0:0:0:0:
64,192,33921,128,2,34619:0:0:0:0:
192,192,34793,1,2,0:0:0:0:
448,192,34967,1,8,0:0:0:0:
64,192,35142,1,0,0:0:0:0:
320,192,35316,128,2,35665:0:0:0:0:
64,192,36014,128,2,36363:0:0:0:0:
448,192,36363,128,8,36712:0:0:0:0:
192,192,36712,128,2,37409:0:0:0:0:
64,192,37584,1,2,0:0:0:0:
448,192,37758,1,8,0:0:0:0:
192,192,37933,1,0,0:0:0:0:
320,192,38107,128,2,38456:0:0:0:0:
448,192,38630,1,0,0:0:0:0:
64,192,38805,1,2,0:0:0:0:
192,192,39153,1,8,0:0:0:0:
320,192,39328,1,0,0:0:0:0:
448,192,39502,128,2,40200:0:0:0:0:
192,192,40374,1,2,0:0:0:0:
448,192,40549,1,8,0:0:0:0:
320,192,40723,1,0,0:0:0:0:
64,192,40898,128,2,41246:0:0:0:0:
448,192,41246,128,8,41595:0:0:0:0:
192,192,41595,128,2,41944:0:0:0:0:
64,192,41944,128,8,42293:0:0:0:0:
320,192,42293,128,2,42642:0:0:0:0:
64,192,42816,1,0,0:0:0:0:
448,192,42991,1,0,0:0:0:0:
320,192,43514,1,0,0:0:0:0:
192,192,43688,128,2,44212:0:0:0:0:
448,192,44212,1,0,0:0:0:0:
64,192,44386,1,2,0:0:0:0:
192,192,44560,1,0,0:0:0:0:
320,192,44735,128,10,45084:0:0:0:0:
64,192,45084,1,2,0:0:0:0:
448,192,45084,1,4,0:0:0:0:
320,192,45433,1,8,0:0:0:0:
64,192,45956,1,2,0:0:0:0:
448,192,46130,1,8,0:0:0:0:
192,192,46479,1,2,0:0:0:0:
320,192,46828,1,8,0:0:0:0:
64,192,47177,1,2,0:0:0:0:
448,192,47351,1,2,0:0:0:0:
192,192,47526,1,8,0:0:0:0:
320,192,47874,1,2,0:0:0:0:
64,192,48223,1,8,0:0:0:0:
448,192,48746,1,2,0:0:0:0:
192,192,48921,1,8,0:0:0:0:
320,192,49270,1,2,0:0:0:0:
64,192,49619,1,8,0:0:0:0:
448,192,49967,1,2,0:0:0:0:
192,192,50142,1,2,0:0:0:0:
320,192,50316,1,8,0:0:0:0:
64,192,50665,1,2,0:0:0:0:
448,192,51014,1,8,0:0:0:0:
192,192,51537,1,2,0:0:0:0:
320,192,51712,1,8,0:0:0:0:
64,192,52060,1,2,0:0:0:0:
448,192,52409,1,8,0:0:0:0:
192,192,52758,1,2,0:0:0:0:
320,192,52933,1,2,0:0:0:0:
64,192,53107,1,8,0:0:0:0:
320,192,53456,1,2,0:0:0:0:
448,192,53456,1,4,0:0:0:0:
192,192,53805,1,8,0:0:0:0:
64,192,54153,1,2,0:0:0:0:
448,192,54328,1,2,0:0:0:0:
320,192,54502,1,8,0:0:0:0:
64,192,54851,1,8,0:0:0:0:
192,192,54851,1,4,0:0:0:0:
320,192,55200,1,2,0:0:0:0:
64,192,55549,1,10,0:0:0:0:
192,192,55723,1,0,0:0:0:50:Tom1.wav
448,192,55898,128,0,56246:0:0:0:50:Tom2.wav
64,192,56246,128,2,56595:0:0:0:0:
192,192,56246,1,4,0:0:0:0:
320,192,56595,128,0,56944:0:0:0:0:
192,192,56944,128,8,57293:0:0:0:0:
448,192,57293,128,0,57642:0:0:0:0:
64,192,57642,128,2,58339:0:0:0:0:
448,192,58339,1,8,0:0:0:0:
192,192,58688,1,0,0:0:0:0:
320,192,58863,1,0,0:0:0:0:
448,192,59037,128,2,59560:0:0:0:0:
192,192,59560,1,2,0:0:0:0:
64,192,59735,128,8,60084:0:0:0:0:
448,192,60084,1,0,0:0:0:0:
192,192,60258,128,0,60607:0:0:0:0:
320,192,60607,128,8,61130:0:0:0:0:
64,192,61130,1,8,0:0:0:0:
192,192,61479,1,0,0:0:0:50:Tom2.wav
320,192,61653,1,0,0:0:0:50:Tom3.wav
64,192,61828,1,2,0:0:0:0:
448,192,61828,128,4,62177:0:0:0:0:
192,192,62177,128,0,62526:0:0:0:0:
320,192,62526,128,8,62874:0:0:0:0:
64,192,62874,128,0,63223:0:0:0:0:
448,192,63223,128,2,63921:0:0:0:0:
64,192,63921,1,8,0:0:0:0:
192,192,64270,128,10,64619:0:0:0:0:
320,192,64619,128,6,65142:0:0:0:0:
448,192,64619,1,0,0:0:0:0:
64,192,65142,128,0,65665:0:0:0:50:Tom3.wav
448,192,65665,128,8,66014:0:0:0:0:
192,192,66014,1,2,0:0:0:0:
320,192,66014,1,4,0:0:0:0:
64,192,66712,1,0,0:0:0:0:
192,192,66886,1,0,0:0:0:0:
320,192,67060,128,0,67409:0:0:0:0:
64,192,67409,1,2,0:0:0:0:
448,192,67409,128,0,67758:0:0:0:0:
192,192,67758,128,0,68107:0:0:0:0:
320,192,68107,1,0,0:0:0:0:
448,192,68281,1,2,0:0:0:0:
64,192,68456,128,8,68805:0:0:0:0:
192,192,68805,128,2,69153:0:0:0:0:
320,192,69153,1,8,0:0:0:0:
64,192,69502,1,2,0:0:0:0:
192,192,69677,1,2,0:0:0:0:
448,192,69851,128,0,70200:0:0:0:0:
320,192,70200,128,0,70549:0:0:0:0:
64,192,70549,128,0,70898:0:0:0:0:
192,192,70898,1,0,0:0:0:0:
320,192,71072,1,2,0:0:0:0:
448,192,71246,128,8,71595:0:0:0:0:
192,192,71595,128,2,71944:0:0:0:0:
64,192,71944,1,8,0:0:0:0:
448,192,72293,1,2,0:0:0:0:
192,192,72467,1,2,0:0:0:0:
320,192,72642,128,0,72991:0:0:0:0:
64,192,72991,128,2,73339:0:0:0:0:
192,192,73339,128,8,73688:0:0:0:0:
320,192,73688,128,0,74037:0:0:0:0:
448,192,74037,128,8,74386:0:0:0:0:
192,192,74386,128,2,74735:0:0:0:0:
64,192,74735,128,8,75084:0:0:0:0:
448,192,75084,1,2,0:0:0:0:
64,192,75433,1,8,0:0:0:0:
192,192,75607,1,0,0:0:0:0:
448,192,75781,128,2,76130:0:0:0:0:
320,192,76130,128,8,76479:0:0:0:0:
192,192,76479,128,0,76828:0:0:0:0:
448,192,76828,128,8,77177:0:0:0:0:
64,192,77177,128,2,77526:0:0:0:0:
320,192,77526,1,8,0:0:0:0:
448,192,77526,1,4,0:0:0:0:
192,192,77874,1,2,0:0:0:0:
448,192,78049,1,8,0:0:0:0:
64,192,78223,128,10,78572:0:0:0:0:
448,192,78572,1,4,0:0:0:0:
320,192,78572,128,0,78921:0:0:0:0:
192,192,78921,128,0,79270:0:0:0:0:
448,192,79270,1,0,0:0:0:0:
320,192,79444,1,2,0:0:0:0:
64,192,79619,128,8,79967:0:0:0:0:
448,192,79967,128,2,80316:0:0:0:0:
192,192,80316,1,8,0:0:0:0:
64,192,80665,1,2,0:0:0:0:
320,192,80839,1,2,0:0:0:0:
192,192,81014,128,0,81363:0:0:0:0:
448,192,81363,128,0,81712:0:0:0:0:
64,192,81712,128,0,82060:0:0:0:0:
320,192,82060,1,0,0:0:0:0:
448,192,82235,1,2,0:0:0:0:
192,192,82409,128,8,82758:0:0:0:0:
320,192,82758,128,2,83107:0:0:0:0:
64,192,83107,1,8,0:0:0:0:
192,192,83456,1,2,0:0:0:0:
320,192,83630,1,2,0:0:0:0:
448,192,83805,128,0,84153:0:0:0:0:
320,192,84153,1,4,0:0:0:0:
64,192,84153,128,0,84502:0:0:0:0:
192,192,84502,128,0,84851:0:0:0:0:
320,192,84851,1,0,0:0:0:0:
64,192,85026,1,2,0:0:0:0:
448,192,85200,128,8,85549:0:0:0:0:
320,192,85549,128,4,85898:0:0:0:0:
192,192,85549,1,2,0:0:0:0:
448,192,85898,1,8,0:0:0:0:
64,192,86246,1,2,0:0:0:0:
192,192,86421,1,2,0:0:0:0:
448,192,86595,128,0,86944:0:0:0:0:
320,192,86944,1,4,0:0:0:0:
64,192,86944,128,8,87293:0:0:0:0:
448,192,87293,128,2,87642:0:0:0:0:
192,192,87642,128,2,87991:0:0:0:0:
320,192,87991,128,2,88339:0:0:0:0:
448,192,88339,1,4,0:0:0:0:
64,192,88339,128,2,89735:0:0:0:0:
