osu file format v14

[General]
AudioFilename: audio.mp3
AudioLeadIn: 0
PreviewTime: 66697
Countdown: 0
SampleSet: Soft
StackLeniency: 0.4
Mode: 0
LetterboxInBreaks: 0
WidescreenStoryboard: 1

[Editor]
Bookmarks: 1988,11755,22918,34081,56406,67569,88499,99662,121988,133151,154081,165069,165593,176406,188965,200127,211290,232220,236406,246301
DistanceSpacing: 0.9
BeatDivisor: 4
GridSize: 4
TimelineZoom: 1.8

[Metadata]
Title:Otome-domo yo.
TitleUnicode:乙女どもよ。
Artist:CHiCO with HoneyWorks
ArtistUnicode:CHiCO with HoneyWorks
Creator:Silent Rock
Version:Hard
Source:荒ぶる季節の乙女どもよ。
Tags:O Maidens in Your Savage Season Araburu Kisetsu no Otome-domo yo. Opening Anime Japanese Pop Loneight l1106188 L18
BeatmapID:2153060
BeatmapSetID:1014705

[Difficulty]
HPDrainRate:6
CircleSize:4.5
OverallDifficulty:7.2
ApproachRate:8
SliderMultiplier:1.5
SliderTickRate:1

[Events]
//Background and Video events
0,0,"Otome domo yo.jpg",0,0
//Break Periods
2,188965,199377
//Storyboard Layer 0 (Background)
//Storyboard Layer 1 (Fail)
//Storyboard Layer 2 (Pass)
//Storyboard Layer 3 (Foreground)
//Storyboard Layer 4 (Overlay)
//Storyboard Sound Samples

[TimingPoints]
593,348.837209302326,4,2,2,60,1,0
1988,-200,4,2,2,60,0,0
3383,-200,4,2,1,60,0,0
4779,-200,4,2,2,60,0,0
6174,-200,4,2,1,60,0,0
7569,-200,4,2,2,60,0,0
8965,-200,4,2,1,60,0,0
10360,-200,4,2,2,60,0,0
11058,-200,4,2,1,60,0,0
11755,-133.333333333333,4,2,2,70,0,0
14720,-133.333333333333,4,2,2,50,0,0
14895,-133.333333333333,4,2,2,80,0,0
17337,-117.647058823529,4,2,2,80,0,0
20127,-105.263157894737,4,2,2,80,0,0
20825,-105.263157894737,4,2,2,85,0,0
21174,-105.263157894737,4,2,2,90,0,0
21523,-95.2380952380952,4,2,2,95,0,0
21872,-95.2380952380952,4,2,2,100,0,0
22918,-83.3333333333333,4,2,2,90,0,1
34081,-100,4,2,4,80,0,0
34430,-100,4,2,3,80,0,0
45244,-100,4,2,4,80,0,0
45593,-100,4,2,3,80,0,0
53616,-100,4,2,4,80,0,0
53965,-100,4,2,3,80,0,0
54313,-100,4,2,4,80,0,0
54662,-100,4,2,3,80,0,0
55011,-100,4,2,4,80,0,0
55360,-100,4,2,3,80,0,0
56058,-100,4,2,2,80,0,0
56406,-100,4,2,4,80,0,0
56755,-100,4,2,3,80,0,0
61639,-100,4,2,2,80,0,0
61988,-100,4,2,4,80,0,0
62337,-100,4,2,3,80,0,0
64081,-100,4,2,4,80,0,0
64255,-100,4,2,3,80,0,0
64779,-100,4,2,4,80,0,0
65127,-100,4,2,2,54,0,0
65302,-100,4,2,2,60,0,0
65476,-100,4,2,2,66,0,0
65651,-100,4,2,2,72,0,0
65825,-100,4,2,2,78,0,0
65999,-100,4,2,2,84,0,0
66174,-100,4,2,4,90,0,0
66872,-100,4,2,4,65,0,0
67220,-100,4,2,4,75,0,0
67569,-83.3333333333333,4,2,2,90,0,1
72453,-83.3333333333333,4,2,1,90,0,1
72627,-83.3333333333333,4,2,2,90,0,1
88499,-83.3333333333333,4,2,2,80,0,0
99662,-100,4,2,4,80,0,0
100011,-100,4,2,3,80,0,0
110825,-100,4,2,4,80,0,0
111174,-100,4,2,3,80,0,0
119197,-100,4,2,4,80,0,0
119546,-100,4,2,3,80,0,0
119894,-100,4,2,4,80,0,0
120243,-100,4,2,3,80,0,0
120592,-100,4,2,4,80,0,0
120941,-100,4,2,3,80,0,0
121465,-100,4,2,2,80,0,0
121639,-100,4,2,2,80,0,0
121987,-100,4,2,4,80,0,0
122336,-100,4,2,3,80,0,0
122511,-100,4,2,2,80,0,0
122686,-100,4,2,3,80,0,0
123732,-100,4,2,2,80,0,0
123906,-100,4,2,3,80,0,0
124430,-100,4,2,2,80,0,0
124604,-100,4,2,3,80,0,0
124779,-100,4,2,4,80,0,0
125127,-100,4,2,3,80,0,0
127220,-100,4,2,2,80,0,0
127569,-100,4,2,4,80,0,0
127918,-100,4,2,2,80,0,0
128267,-100,4,2,3,80,0,0
128616,-100,4,2,2,80,0,0
128965,-100,4,2,3,80,0,0
129313,-100,4,2,2,80,0,0
129488,-100,4,2,3,80,0,0
129662,-100,4,2,4,80,0,0
129836,-100,4,2,3,80,0,0
130186,-100,4,2,2,80,0,0
130360,-100,4,2,4,80,0,0
130708,-100,4,2,2,54,0,0
130883,-100,4,2,2,60,0,0
131058,-100,4,2,2,66,0,0
131232,-100,4,2,2,72,0,0
131406,-100,4,2,2,78,0,0
131580,-100,4,2,2,84,0,0
131755,-100,4,2,4,90,0,0
132453,-100,4,2,4,65,0,0
132627,-100,4,2,2,65,0,0
132801,-100,4,2,4,75,0,0
132976,-100,4,2,2,75,0,0
133151,-83.3333333333333,4,2,2,90,0,1
138034,-83.3333333333333,4,2,1,90,0,1
138209,-83.3333333333333,4,2,2,90,0,1
149197,-83.3333333333333,4,2,1,90,0,1
149372,-83.3333333333333,4,2,2,90,0,1
154081,-125,4,2,2,80,0,0
163848,-100,4,2,2,80,0,0
165593,-83.3333333333333,4,2,2,80,0,0
165680,-100,4,2,2,80,0,0
176406,-125,4,2,4,80,0,0
176754,-125,4,2,3,80,0,0
181638,-125,4,2,2,80,0,0
181987,-125,4,2,4,80,0,0
182336,-125,4,2,3,80,0,0
184080,-125,4,2,4,80,0,0
184254,-125,4,2,3,80,0,0
184778,-125,4,2,4,80,0,0
185126,-125,4,2,2,54,0,0
185301,-125,4,2,2,60,0,0
185476,-125,4,2,2,66,0,0
185650,-100,4,2,2,72,0,0
185824,-100,4,2,2,78,0,0
185998,-100,4,2,2,84,0,0
186173,-100,4,2,4,90,0,0
187569,-125,4,2,4,30,0,0
188965,-125,4,2,2,80,0,0
205709,-100,4,2,2,80,0,0
206581,-100,4,2,5,80,0,0
206755,-100,4,2,2,80,0,0
209197,-100,4,2,2,85,0,0
209895,-100,4,2,4,90,0,0
210593,-100,4,2,2,85,0,0
210941,-100,4,2,4,85,0,0
211290,-83.3333333333333,4,2,2,90,0,1
216173,-83.3333333333333,4,2,1,90,0,1
216348,-83.3333333333333,4,2,2,90,0,1
227336,-83.3333333333333,4,2,1,90,0,1
227511,-83.3333333333333,4,2,2,90,0,1
232220,-100,4,2,2,80,0,0
233616,-100,4,2,2,80,0,0
235011,-250,4,2,2,80,0,0
235360,-250,4,2,2,50,0,0
235709,-200,4,2,2,20,0,0
235883,-200,4,2,2,5,0,0
236058,-100,4,2,4,80,0,0
236406,-83.3333333333333,4,2,2,90,0,0
247395,-83.3333333333333,4,2,1,90,0,0

[Colours]
Combo1 : 235,73,50
Combo2 : 250,247,175
Combo3 : 38,155,47
Combo4 : 225,217,176

[HitObjects]
183,267,1988,5,4,0:0:0:0:
329,117,3383,5,2,0:0:0:0:
181,119,4779,5,4,0:0:0:0:
331,265,6174,5,2,0:0:0:0:
256,192,7569,5,4,0:0:0:0:
256,192,8965,5,2,0:0:0:0:
329,117,10360,6,0,L|251:123,1,75,4|0,0:0|0:0,0:0:0:0:
183,267,11058,2,0,L|261:261,1,75,2|0,0:0|0:0,0:0:0:0:
428,85,11755,6,0,B|404:125|420:168|420:168|408:192|408:192|420:216|420:216|405:259|430:302,1,225.000008583069,6|4,0:3|0:0,0:0:0:0:
84,299,13151,6,0,B|108:259|92:216|92:216|104:192|104:192|92:168|92:168|107:125|82:82,1,225.000008583069,6|4,0:3|0:0,0:0:0:0:
256,8,14197,1,2,3:2:0:0:
428,85,14546,6,0,P|432:128|424:161,1,56.2500021457673,6|0,0:3|0:0,0:0:0:0:
414,212,14895,2,0,P|337:187|272:247,1,168.750006437302,4|2,0:1|0:1,0:0:0:0:
359,382,15941,6,0,L|353:269,1,112.500004291535,12|2,0:3|0:0,0:0:0:0:
350,185,16465,1,8,0:3:0:0:
347,188,16552,1,4,0:1:0:0:
344,191,16639,2,0,P|315:198|281:198,1,56.2500021457673,8|0,0:3|0:0,0:0:0:0:
214,197,16988,1,2,0:1:0:0:
214,197,17337,6,0,L|221:263,1,63.7500012159348,12|0,0:3|0:0,0:0:0:0:
290,354,17686,2,0,L|297:291,1,63.7500012159348,2|0,0:0|0:0,0:0:0:0:
366,196,18034,2,0,L|372:259,1,63.7500012159348,2|0,3:2|0:0,0:0:0:0:
441,354,18383,2,0,L|447:290,1,63.7500012159348,12|0,0:0|0:0,0:0:0:0:
438,255,18645,1,0,0:0:0:0:
435,253,18732,6,0,P|405:251|363:264,1,63.7500012159348,2|0,0:0|0:0,0:0:0:0:
311,213,19081,2,0,P|286:230|262:267,1,63.7500012159348,2|0,0:0|0:0,0:0:0:0:
249,332,19430,2,0,P|222:318|192:286,1,63.7500012159348,6|0,0:0|0:0,0:0:0:0:
122,305,19779,2,0,P|109:277|107:233,1,63.7500012159348,8|0,3:2|0:0,0:0:0:0:
83,162,20127,6,0,L|157:167,1,71.2499980974198,6|0,0:3|0:0,0:0:0:0:
197,94,20476,2,0,L|126:89,1,71.2499980974198,8|0,0:0|0:0,0:0:0:0:
238,169,20825,2,0,P|266:146|282:103,2,71.2499980974198,2|2|12,3:2|0:0|0:0,0:0:0:0:
154,166,21348,1,2,0:0:0:0:
192,239,21523,6,0,P|230:251|269:247,1,78.7499975967408,6|2,0:3|0:1,0:0:0:0:
314,237,21784,1,2,0:1:0:0:
317,240,21872,2,0,L|305:333,1,78.7499975967408,6|8,0:0|0:3,0:0:0:0:
226,374,22220,1,6,0:3:0:0:
397,184,22569,1,6,0:3:0:0:
147,131,22918,6,0,P|148:175|184:215,1,89.9999972534181,6|0,0:3|0:0,0:0:0:0:
121,259,23267,2,0,P|80:199|77:113,1,134.999995880127,8|8,0:0|0:3,0:0:0:0:
72,97,23616,2,0,P|112:102|160:78,1,89.9999972534181,2|2,0:0|0:0,0:0:0:0:
210,21,23965,2,0,P|250:16|298:40,1,89.9999972534181,8|0,0:0|0:0,0:0:0:0:
374,44,24313,6,0,B|342:88|368:130|376:124|404:171|368:224,1,179.999994506836,6|8,0:0|0:0,0:0:0:0:
303,173,24837,1,0,0:0:0:0:
248,232,25011,2,0,L|153:225,1,89.9999972534181,2|8,3:2|0:3,0:0:0:0:
77,217,25360,1,8,0:0:0:0:
251,307,25709,6,0,P|293:293|321:248,1,89.9999972534181,6|0,0:0|0:0,0:0:0:0:
381,296,26058,2,0,P|334:351|252:378,1,134.999995880127,8|8,0:0|0:3,0:0:0:0:
239,384,26406,2,0,P|188:361|156:364,1,89.9999972534181,2|2,0:0|0:0,0:0:0:0:
76,382,26755,1,8,0:0:0:0:
101,304,26930,1,0,0:0:0:0:
54,237,27104,6,0,P|39:177|126:105,1,179.999994506836,2|8,1:2|0:0,0:0:0:0:
199,113,27627,1,0,1:0:0:0:
211,193,27802,2,0,L|122:188,1,89.9999972534181,2|8,3:2|0:3,0:0:0:0:
54,237,28151,1,8,0:0:0:0:
167,39,28499,6,0,P|241:43|276:139,1,179.999994506836,6|8,0:3|0:0,0:0:0:0:
211,193,29023,1,0,0:0:0:0:
214,196,29110,1,8,0:3:0:0:
217,199,29197,2,0,P|253:219|310:216,1,89.9999972534181,2|2,0:0|0:0,0:0:0:0:
380,175,29546,2,0,L|373:271,1,89.9999972534181,8|0,0:0|0:0,0:0:0:0:
445,319,29895,6,0,L|458:139,1,179.999994506836,2|8,1:2|0:0,0:0:0:0:
461,58,30418,1,0,1:0:0:0:
388,94,30593,2,0,P|346:102|289:80,1,89.9999972534181,2|8,0:0|0:3,0:0:0:0:
245,30,30941,1,8,0:0:0:0:
66,168,31290,6,0,B|100:155|135:169|135:169|174:211|154:271,1,179.999994506836,6|8,0:3|0:0,0:0:0:0:
119,354,31813,1,0,0:0:0:0:
206,332,31988,2,0,P|250:331|298:340,1,89.9999972534181,6|2,0:0|0:0,0:0:0:0:
380,367,32337,2,0,P|428:379|477:377,1,89.9999972534181,8|0,3:2|0:0,0:0:0:0:
483,294,32686,6,0,P|424:299|365:191,1,179.999994506836,6|8,0:3|0:0,0:0:0:0:
456,168,33209,2,0,L|449:213,2,44.999998626709,2|2|2,1:2|0:0|0:1,0:0:0:0:
376,86,33558,2,0,L|386:139,2,44.999998626709,2|2|8,0:0|0:0|0:3,0:0:0:0:
446,41,33906,1,8,0:3:0:0:
373,3,34081,6,0,P|317:27|297:110,1,150,4|0,3:0|1:0,0:0:0:0:
325,177,34604,1,8,3:1:0:0:
325,177,34953,2,0,P|365:170|404:184,2,75,0|4|0,3:0|1:0|0:0,0:0:0:0:
260,215,35476,6,0,P|225:229|134:158,1,150,4|0,3:0|1:0,0:0:0:0:
134,99,35999,1,0,0:0:0:0:
205,76,36174,2,0,L|211:150,1,75,8|0,3:0|3:0,0:0:0:0:
137,174,36523,2,0,L|131:249,1,75,4|0,1:2|0:0,0:0:0:0:
180,304,36872,6,0,B|260:297|246:351|321:342,1,150,4|0,3:1|1:0,0:0:0:0:
394,356,37395,2,0,L|400:281,1,75,8|0,3:1|0:0,0:0:0:0:
366,214,37744,2,0,P|329:223|293:216,2,75,0|4|0,3:0|1:0|0:0,0:0:0:0:
400,281,38267,6,0,P|331:296|242:273,1,150,4|0,3:0|1:0,0:0:0:0:
199,227,38790,1,0,0:0:0:0:
130,257,38965,2,0,L|137:333,1,75,8|0,3:0|3:0,0:0:0:0:
211,339,39313,1,0,1:2:0:0:
254,279,39488,1,0,1:0:0:0:
199,227,39662,6,0,P|181:175|239:106,1,150,4|0,3:1|1:0,0:0:0:0:
256,179,40186,1,8,3:1:0:0:
256,179,40534,2,0,P|292:172|337:187,2,75,0|4|0,3:0|1:0|0:0,0:0:0:0:
199,227,41058,6,0,P|163:234|118:219,1,75,4|0,3:0|3:0,0:0:0:0:
166,153,41406,2,0,P|141:125|132:78,1,75,0|0,1:0|0:0,0:0:0:0:
213,87,41755,2,0,P|224:52|260:20,1,75,8|0,3:0|3:0,0:0:0:0:
293,94,42104,2,0,P|329:86|374:101,1,75,4|0,1:2|0:0,0:0:0:0:
326,166,42453,6,0,B|280:225|320:291|320:291|333:285|340:280,1,150,4|0,3:1|1:0,0:0:0:0:
393,230,42976,1,8,3:1:0:0:
396,233,43151,2,0,P|431:219|467:226,2,75,0|0|4,3:0|0:0|1:0,0:0:0:0:
333,283,43674,1,0,3:0:0:0:
333,283,43848,6,0,P|270:323|192:290,1,150,2|8,3:0|1:0,0:0:0:0:
162,233,44372,1,0,3:0:0:0:
192,164,44546,1,4,3:0:0:0:
150,101,44720,2,0,L|106:102,2,37.5,0|0|2,1:0|1:0|1:3,0:0:0:0:
225,95,45069,1,0,1:0:0:0:
239,222,45244,6,0,P|165:234|120:182,1,150,6|0,3:0|1:0,0:0:0:0:
192,164,45767,1,8,3:1:0:0:
192,164,46116,1,0,3:0:0:0:
239,222,46290,2,0,P|275:232|327:217,1,75,4|0,1:0|0:0,0:0:0:0:
377,189,46639,6,0,P|376:131|452:85,1,150,2|0,3:2|1:0,0:0:0:0:
446,159,47162,1,0,0:0:0:0:
449,162,47337,2,0,B|446:217|446:217|422:245|422:245|421:317,1,150,2|8,3:1|1:2,0:0:0:0:
211,365,48034,6,0,B|214:310|214:310|238:282|238:282|239:210,1,150,4|0,3:1|1:0,0:0:0:0:
240,148,48558,1,8,3:1:0:0:
240,148,48906,1,0,3:0:0:0:
175,186,49081,2,0,P|135:189|90:172,1,75,4|0,1:0|0:0,0:0:0:0:
35,144,49430,6,0,B|14:184|31:220|43:215|57:250|39:288,1,150,4|0,3:0|1:0,0:0:0:0:
0,361,49953,1,0,3:0:0:0:
0,361,50127,2,0,L|90:357,1,75,8|0,3:0|0:0,0:0:0:0:
144,329,50476,1,8,1:2:0:0:
209,365,50651,1,0,1:0:0:0:
277,335,50825,6,0,P|291:257|364:238,1,150,4|0,3:1|1:0,0:0:0:0:
423,256,51348,1,8,3:1:0:0:
423,256,51697,2,0,L|418:330,2,75,0|4|0,3:0|1:0|1:0,0:0:0:0:
408,182,52220,6,0,L|412:107,1,75,2|0,3:2|0:0,0:0:0:0:
343,78,52569,2,0,L|338:152,1,75,2|0,1:2|0:0,0:0:0:0:
264,167,52918,2,0,L|268:92,1,75,2|0,3:1|3:0,0:0:0:0:
199,63,53267,2,0,L|194:137,1,75,8|8,1:2|0:0,0:0:0:0:
130,34,53616,6,0,L|120:183,1,150,12|0,3:0|1:0,0:0:0:0:
84,249,54139,1,4,3:1:0:0:
84,249,54313,2,0,P|122:258|166:243,1,75,4|0,3:0|0:0,0:0:0:0:
192,183,54662,2,0,P|154:174|110:189,1,75,2|0,1:3|0:0,0:0:0:0:
231,247,55011,6,0,B|270:216|270:216|262:110,1,150,12|2,3:0|1:2,0:0:0:0:
251,41,55534,2,0,L|212:47,2,37.5,0|0|2,1:0|1:0|1:0,0:0:0:0:
321,66,55883,1,0,0:0:0:0:
391,39,56058,2,0,P|436:38|471:58,1,75,10|8,0:1|0:3,0:0:0:0:
508,109,56406,6,0,P|472:143|470:242,1,150,6|0,3:0|0:0,0:0:0:0:
512,309,56930,1,0,3:0:0:0:
512,309,57104,2,0,B|467:299|437:324|445:335|415:357|373:350,1,150,2|0,1:2|3:0,0:0:0:0:
186,224,57802,6,0,L|193:298,1,75,2|0,3:2|1:0,0:0:0:0:
260,254,58151,2,0,L|253:163,1,75,0|0,0:0|3:0,0:0:0:0:
193,298,58499,2,0,P|229:328|310:317,1,112.5,2|0,1:2|0:0,0:0:0:0:
324,308,58848,2,0,P|358:300|404:313,1,75,8|0,3:2|0:0,0:0:0:0:
462,345,59197,6,0,P|439:290|461:201,1,150,4|0,3:1|3:0,0:0:0:0:
506,146,59720,1,0,3:0:0:0:
506,146,59895,2,0,P|472:154|426:141,1,75,4|0,1:0|0:0,0:0:0:0:
368,105,60244,2,0,P|315:90|262:106,1,112.5,0|0,3:0|3:0,0:0:0:0:
233,130,60593,5,4,3:1:0:0:
277,190,60767,2,0,P|300:245|278:334,1,150,0|0,1:0|3:0,0:0:0:0:
214,366,61290,2,0,L|138:359,1,75,4|0,1:0|0:0,0:0:0:0:
64,348,61639,1,10,0:1:0:0:
64,348,61813,1,8,0:3:0:0:
110,288,61988,6,0,P|125:244|77:151,1,150,6|0,3:0|0:0,0:0:0:0:
14,125,62511,1,0,2:0:0:0:
14,125,62686,2,0,B|37:81|82:80|82:80|178:80,1,150,2|0,1:2|3:0,0:0:0:0:
353,33,63383,6,0,P|352:70|340:105,1,75,2|0,3:2|1:0,0:0:0:0:
269,131,63732,2,0,P|269:168|281:203,1,75,0|0,0:0|3:0,0:0:0:0:
337,254,64081,1,6,1:3:0:0:
286,309,64255,1,0,1:0:0:0:
286,309,64343,1,0,1:0:0:0:
286,309,64430,2,0,L|194:305,1,75,8|0,1:2|0:0,0:0:0:0:
135,303,64779,5,6,3:0:0:0:
135,303,65127,2,0,P|131:344|118:381,1,75,4|4,0:1|0:1,0:0:0:0:
50,338,65476,2,0,P|38:303|36:266,1,75,10|2,0:1|0:1,0:0:0:0:
169,242,65825,2,0,P|165:283|152:320,1,75,8|8,0:3|0:3,0:0:0:0:
2,205,66174,1,12,3:1:0:0:
2,205,66872,6,0,P|37:197|86:217,1,75,2|0,0:0|0:0,0:0:0:0:
136,248,67220,2,0,P|191:260|253:230,1,112.5,8|0,0:0|0:0,0:0:0:0:
272,206,67569,6,0,P|296:286|384:301,1,179.999994506836,6|12,0:3|0:0,0:0:0:0:
351,225,68093,1,8,0:3:0:0:
348,222,68180,1,2,0:0:0:0:
345,219,68267,2,0,L|350:123,1,89.9999972534181,2|2,0:0|0:0,0:0:0:0:
433,96,68616,2,0,L|428:192,1,89.9999972534181,8|0,0:0|0:0,0:0:0:0:
363,40,68965,6,0,B|308:37|282:63|290:73|254:106|198:98,1,179.999994506836,2|12,3:0|0:0,0:0:0:0:
111,78,69488,1,0,0:0:0:0:
139,163,69662,1,2,0:0:0:0:
139,163,69837,1,2,0:0:0:0:
91,239,70011,2,0,P|126:250|181:242,1,89.9999972534181,8|0,0:0|0:0,0:0:0:0:
50,307,70360,6,0,P|136:331|231:307,1,179.999994506836,2|12,3:0|0:0,0:0:0:0:
289,252,70883,1,8,0:3:0:0:
292,255,70970,1,2,0:0:0:0:
295,258,71058,2,0,L|290:347,1,89.9999972534181,2|2,0:0|0:0,0:0:0:0:
370,384,71406,2,0,L|375:295,1,89.9999972534181,8|0,0:0|0:0,0:0:0:0:
431,202,71755,6,0,P|379:270|295:258,1,179.999994506836,2|12,3:0|0:0,0:0:0:0:
348,192,72279,1,0,0:0:0:0:
291,134,72453,2,0,P|290:89|308:47,1,89.9999972534181,2|2,1:2|0:0,0:0:0:0:
242,10,72802,2,0,P|217:75|220:150,1,134.999995880127,8|0,0:0|0:0,0:0:0:0:
229,181,73151,6,0,P|185:175|143:188,1,89.9999972534181,2|0,3:0|0:0,0:0:0:0:
103,268,73499,2,0,P|147:274|189:261,1,89.9999972534181,12|8,0:0|0:3,0:0:0:0:
232,249,73761,1,2,0:0:0:0:
235,252,73848,2,0,L|233:342,1,89.9999972534181,2|2,0:0|0:0,0:0:0:0:
310,361,74197,2,0,L|312:271,1,89.9999972534181,8|0,0:0|0:0,0:0:0:0:
387,381,74546,6,0,L|390:201,1,179.999994506836,2|12,3:0|0:0,0:0:0:0:
425,117,75069,1,8,0:3:0:0:
422,120,75156,1,2,0:0:0:0:
419,123,75244,2,0,P|376:131|325:118,1,89.9999972534181,2|2,0:0|0:0,0:0:0:0:
265,73,75593,1,8,0:0:0:0:
191,107,75767,1,0,0:0:0:0:
105,79,75941,6,0,L|108:168,1,89.9999972534181,2|0,3:0|0:0,0:0:0:0:
33,200,76290,2,0,L|30:111,1,89.9999972534181,12|0,0:0|0:0,0:0:0:0:
40,32,76639,2,0,P|71:5|122:0,1,89.9999972534181,2|0,3:2|0:0,0:0:0:0:
179,53,76988,2,0,P|210:80|261:85,1,89.9999972534181,12|0,0:0|0:0,0:0:0:0:
334,60,77337,5,2,3:0:0:0:
200,192,77686,1,6,0:3:0:0:
334,324,78034,1,2,3:2:0:0:
384,264,78209,1,8,0:3:0:0:
381,261,78296,1,2,0:0:0:0:
378,258,78383,2,0,P|330:245|288:257,1,89.9999972534181,6|2,0:0|0:0,0:0:0:0:
255,328,78732,6,0,B|208:300|209:245|209:245|209:158,1,179.999994506836,6|12,3:0|0:0,0:0:0:0:
211,74,79255,1,8,0:3:0:0:
214,77,79343,1,2,0:0:0:0:
217,80,79430,2,0,P|260:95|304:91,1,89.9999972534181,2|2,0:0|0:0,0:0:0:0:
380,63,79779,2,0,L|374:152,1,89.9999972534181,8|0,0:0|0:0,0:0:0:0:
457,36,80127,6,0,L|446:215,1,179.999994506836,2|12,3:0|0:0,0:0:0:0:
441,306,80651,1,0,0:0:0:0:
362,260,80825,2,0,P|318:259|278:278,1,89.9999972534181,2|2,0:0|0:0,0:0:0:0:
208,336,81174,2,0,P|167:355|123:354,1,89.9999972534181,8|0,0:0|0:0,0:0:0:0:
37,327,81523,6,0,B|21:288|26:255|26:255|64:227|141:238,1,179.999994506836,2|12,3:0|0:0,0:0:0:0:
215,255,82046,1,8,0:3:0:0:
218,258,82133,1,2,0:0:0:0:
221,261,82220,2,0,L|218:160,1,89.9999972534181,2|2,0:0|0:0,0:0:0:0:
125,146,82569,2,0,L|127:235,1,89.9999972534181,8|0,0:0|0:0,0:0:0:0:
194,78,82918,6,0,B|243:74|292:100|266:106|313:133|363:124,1,179.999994506836,2|12,3:0|0:0,0:0:0:0:
447,91,83441,1,2,0:0:0:0:
488,171,83616,1,0,0:0:0:0:
488,171,83790,1,2,0:0:0:0:
404,203,83965,2,0,P|385:244|392:293,1,89.9999972534181,8|0,0:0|0:0,0:0:0:0:
363,123,84313,6,0,P|315:185|302:283,1,179.999994506836,6|12,3:0|0:0,0:0:0:0:
338,367,84837,1,8,0:3:0:0:
335,370,84924,1,2,0:0:0:0:
332,373,85011,2,0,L|242:370,1,89.9999972534181,2|2,0:0|0:0,0:0:0:0:
212,280,85360,2,0,L|301:282,1,89.9999972534181,8|0,0:0|0:0,0:0:0:0:
150,351,85709,6,0,B|119:300|119:300|134:180,1,179.999994506836,2|12,3:0|0:0,0:0:0:0:
148,91,86232,1,0,0:0:0:0:
219,144,86406,2,0,P|257:156|318:138,1,89.9999972534181,2|2,0:0|0:0,0:0:0:0:
368,82,86755,2,0,P|348:155|345:221,1,134.999995880127,8|0,0:0|0:0,0:0:0:0:
348,259,87104,6,0,P|310:247|249:265,1,89.9999972534181,6|0,3:0|0:0,0:0:0:0:
189,311,87453,1,12,0:0:0:0:
123,249,87627,2,0,L|129:204,2,44.999998626709,2|2|2,0:0|0:0|0:0,0:0:0:0:
207,180,87976,2,0,L|178:141,2,44.999998626709,2|2|6,0:1|0:1|0:0,0:0:0:0:
217,71,88325,1,8,0:3:0:0:
194,67,88412,1,8,0:3:0:0:
172,63,88499,6,0,P|250:43|337:98,1,179.999994506836,6|8,3:0|0:0,0:0:0:0:
370,162,89023,2,0,L|416:159,2,44.999998626709,0|2|2,0:0|0:0|3:2,0:0:0:0:
288,161,89372,1,2,0:0:0:0:
236,223,89546,2,0,P|199:240|151:235,1,89.9999972534181,12|0,0:0|0:0,0:0:0:0:
116,309,89895,6,0,P|214:320|293:283,1,179.999994506836,2|8,1:2|0:0,0:0:0:0:
348,235,90418,1,0,0:0:0:0:
295,172,90593,2,0,L|302:79,1,89.9999972534181,6|2,0:0|0:0,0:0:0:0:
381,70,90941,2,0,L|374:159,1,89.9999972534181,8|0,3:2|0:0,0:0:0:0:
461,58,91290,6,0,L|447:237,1,179.999994506836,2|8,3:0|0:0,0:0:0:0:
442,318,91813,1,0,0:0:0:0:
439,321,91901,1,2,0:0:0:0:
436,324,91988,2,0,P|392:334|342:320,1,89.9999972534181,2|2,3:2|0:0,0:0:0:0:
279,282,92337,2,0,P|235:272|185:286,1,89.9999972534181,12|0,0:0|0:0,0:0:0:0:
117,314,92686,6,0,B|99:261|118:229|129:234|152:191|130:139,1,179.999994506836,2|8,3:2|0:0,0:0:0:0:
81,76,93209,1,2,0:0:0:0:
161,65,93383,2,0,P|202:62|258:35,2,89.9999972534181,0|2|8,3:2|0:0|1:2,0:0:0:0:
0,221,94081,6,0,P|86:234|115:319,1,179.999994506836,6|8,0:3|0:0,0:0:0:0:
173,370,94604,1,0,0:0:0:0:
178,367,94691,1,2,0:0:0:0:
183,364,94779,2,0,P|195:312|190:255,1,89.9999972534181,2|2,3:2|0:0,0:0:0:0:
166,199,95127,2,0,L|264:206,1,89.9999972534181,12|0,0:0|0:0,0:0:0:0:
336,265,95476,6,0,B|348:287|348:287|193:275,1,179.999994506836,2|8,1:2|0:0,0:0:0:0:
122,314,95999,1,2,0:0:0:0:
54,268,96174,2,0,P|49:222|67:179,1,89.9999972534181,4|2,0:0|0:0,0:0:0:0:
141,154,96523,2,0,P|146:108|128:65,1,89.9999972534181,8|0,3:2|0:0,0:0:0:0:
59,27,96872,6,0,P|131:42|245:36,1,179.999994506836,2|8,3:0|0:0,0:0:0:0:
316,19,97395,1,0,0:0:0:0:
319,22,97482,1,2,0:0:0:0:
322,25,97569,2,0,L|317:123,1,89.9999972534181,2|0,3:2|0:0,0:0:0:0:
283,198,97918,1,6,0:3:0:0:
355,251,98093,1,8,0:0:0:0:
284,307,98267,6,0,P|240:320|188:305,2,89.9999972534181,6|2|8,0:0|0:0|0:0,0:0:0:0:
355,251,98790,2,0,L|360:207,2,44.999998626709,2|0|2,0:0|0:0|3:2,0:0:0:0:
283,198,99139,2,0,L|278:154,2,44.999998626709,2|0|2,0:0|0:0|0:0,0:0:0:0:
364,107,99488,1,2,0:0:0:0:
280,54,99662,6,0,L|121:68,1,150,4|0,3:0|1:0,0:0:0:0:
55,78,100186,1,8,3:1:0:0:
55,78,100534,2,0,P|46:44|53:1,2,75,0|4|0,3:0|1:0|0:0,0:0:0:0:
98,139,101058,6,0,P|116:212|93:282,1,150,4|0,3:0|1:0,0:0:0:0:
36,330,101581,1,0,0:0:0:0:
105,357,101755,2,0,P|141:360|196:345,1,75,8|0,3:0|3:0,0:0:0:0:
242,312,102104,2,0,P|278:309|333:324,1,75,4|0,1:2|0:0,0:0:0:0:
381,353,102453,6,0,P|358:308|378:208,1,150,4|0,3:1|1:0,0:0:0:0:
433,167,102976,1,8,3:1:0:0:
433,167,103325,2,0,P|469:176|513:169,2,75,0|4|0,3:0|1:0|0:0,0:0:0:0:
362,140,103848,6,0,P|291:124|221:156,1,150,4|0,3:0|1:0,0:0:0:0:
176,214,104372,1,0,0:0:0:0:
250,224,104546,1,8,3:0:0:0:
27,194,104895,2,0,L|102:204,1,75,0|0,1:2|1:0,0:0:0:0:
176,213,105244,6,0,P|200:281|271:295,2,150,4|0|0,3:1|1:0|0:0,0:0:0:0:
205,144,106116,1,0,3:0:0:0:
189,70,106290,2,0,P|158:50|116:48,1,75,4|0,1:0|0:0,0:0:0:0:
47,62,106639,6,0,L|59:137,1,75,4|0,3:0|3:0,0:0:0:0:
135,122,106988,2,0,L|123:197,1,75,0|0,1:0|0:0,0:0:0:0:
49,209,107337,2,0,L|61:284,1,75,8|0,3:0|3:0,0:0:0:0:
125,344,107686,2,0,L|137:269,1,75,4|0,1:2|0:0,0:0:0:0:
193,220,108034,6,0,P|250:211|328:255,1,150,4|0,3:1|1:0,0:0:0:0:
365,319,108558,1,8,3:1:0:0:
365,319,108732,2,0,L|370:160,1,150,0|4,3:0|1:0,0:0:0:0:
371,93,109255,1,0,3:0:0:0:
371,93,109430,6,0,P|331:103|293:99,1,75,2|0,3:0|0:0,0:0:0:0:
435,132,109779,1,8,1:0:0:0:
369,169,109953,1,0,0:0:0:0:
369,169,110127,2,0,L|366:243,1,75,4|0,3:0|1:0,0:0:0:0:
380,279,110389,1,0,1:0:0:0:
383,282,110476,2,0,P|336:284|299:310,1,75,2|0,1:3|1:0,0:0:0:0:
252,375,110825,6,0,P|284:309|261:240,1,150,6|0,3:0|1:0,0:0:0:0:
203,191,111348,1,8,0:1:0:0:
203,191,111697,1,0,3:0:0:0:
273,165,111872,2,0,L|348:170,1,75,4|0,1:0|0:0,0:0:0:0:
392,100,112220,6,0,L|242:90,1,150,2|0,3:2|1:0,0:0:0:0:
171,63,112744,1,0,0:0:0:0:
171,63,112918,2,0,P|150:141|90:163,1,150,2|8,3:1|1:2,0:0:0:0:
0,327,113616,6,0,L|149:317,1,150,4|0,3:1|1:0,0:0:0:0:
224,311,114139,1,8,3:1:0:0:
224,311,114488,1,0,3:0:0:0:
180,248,114662,2,0,P|178:211|190:176,1,75,4|0,1:0|0:0,0:0:0:0:
224,109,115011,6,0,P|278:139|361:99,1,150,4|0,3:0|1:0,0:0:0:0:
379,36,115534,1,0,3:0:0:0:
430,90,115709,2,0,L|425:169,1,75,8|0,3:0|0:0,0:0:0:0:
425,240,116058,1,8,1:2:0:0:
425,240,116232,1,0,1:0:0:0:
350,220,116406,6,0,B|282:210|293:271|210:255,1,150,4|0,3:1|1:0,0:0:0:0:
137,234,116930,1,8,3:1:0:0:
137,234,117279,2,0,L|142:329,2,75,0|4|0,3:0|1:0|1:0,0:0:0:0:
133,158,117802,5,2,3:2:0:0:
379,226,118151,1,2,1:2:0:0:
256,0,118499,1,2,3:1:0:0:
214,62,118674,2,0,L|224:98,2,37.5,0|0|8,3:0|1:0|1:2,0:0:0:0:
287,139,119023,1,0,1:0:0:0:
283,157,119110,1,0,1:0:0:0:
280,175,119197,6,0,B|262:284|262:284|232:259,1,150,12|0,3:0|1:0,0:0:0:0:
175,208,119720,1,4,3:1:0:0:
175,208,119895,2,0,P|158:237|158:282,1,75,4|0,3:0|0:0,0:0:0:0:
213,328,120244,2,0,P|230:295|231:258,1,75,2|0,1:3|0:0,0:0:0:0:
140,351,120593,6,0,B|84:376|27:358|27:358|37:320,1,150,12|2,3:0|1:2,0:0:0:0:
71,258,121116,2,0,L|116:253,2,37.5,0|0|2,1:0|1:0|1:0,0:0:0:0:
37,190,121465,1,2,0:1:0:0:
18,187,121552,1,8,0:3:0:0:
0,185,121639,2,0,P|2:147|8:110,1,75,10|8,0:1|0:3,0:0:0:0:
27,37,121988,6,0,P|68:56|186:44,1,150,6|0,3:0|0:0,0:0:0:0:
240,23,122511,1,8,0:3:0:0:
235,97,122685,1,2,1:2:0:0:
220,321,123034,1,0,3:0:0:0:
421,221,123383,6,0,P|380:214|338:225,1,75,2|0,3:2|1:0,0:0:0:0:
310,286,123732,2,0,P|351:293|393:282,1,75,10|0,0:1|3:0,0:0:0:0:
444,242,124081,2,0,L|440:82,1,150,2|12,1:2|0:1,0:0:0:0:
435,16,124604,1,0,0:0:0:0:
372,58,124779,6,0,P|327:78|227:48,1,150,12|0,3:0|3:0,0:0:0:0:
178,0,125302,1,0,3:0:0:0:
178,0,125476,1,4,1:0:0:0:
256,192,125825,1,0,3:0:0:0:
50,163,126174,6,0,L|56:88,2,75,4|0|0,3:1|1:0|0:0,0:0:0:0:
42,237,126697,1,0,3:0:0:0:
111,207,126872,2,0,P|161:201|222:278,1,150,4|10,1:0|0:1,0:0:0:0:
190,338,127395,1,8,0:3:0:0:
144,278,127569,5,6,3:0:0:0:
342,304,127918,1,8,0:3:0:0:
368,106,128267,1,2,1:2:0:0:
170,80,128616,1,8,0:3:0:0:
246,266,128965,6,0,L|255:190,1,75,2|0,3:2|1:0,0:0:0:0:
186,162,129313,2,0,L|176:237,1,75,8|0,0:3|3:0,0:0:0:0:
246,117,129662,2,0,P|217:93|171:89,1,75,6|0,1:3|1:0,0:0:0:0:
144,96,129924,1,0,1:0:0:0:
141,99,130011,2,0,L|150:23,1,75,8|8,1:2|0:3,0:0:0:0:
108,169,130360,5,6,3:0:0:0:
108,169,130709,2,0,P|148:177|186:163,1,75,4|4,0:1|0:1,0:0:0:0:
224,227,131058,2,0,P|250:196|257:156,1,75,10|2,0:1|0:1,0:0:0:0:
219,99,131406,1,8,0:3:0:0:
242,27,131581,1,8,0:3:0:0:
313,3,131755,1,12,3:1:0:0:
313,3,132452,5,2,0:1:0:0:
336,75,132627,1,8,0:3:0:0:
407,99,132802,2,0,L|484:94,1,75,8|8,0:0|0:3,0:0:0:0:
350,148,133151,6,0,P|290:165|295:271,1,179.999994506836,6|12,0:3|0:0,0:0:0:0:
357,328,133674,1,8,0:3:0:0:
354,331,133761,1,2,0:0:0:0:
351,334,133848,2,0,L|251:342,1,89.9999972534181,2|2,0:0|0:0,0:0:0:0:
201,275,134197,2,0,L|290:267,1,89.9999972534181,8|0,0:0|0:0,0:0:0:0:
172,360,134546,6,0,P|112:297|133:214,1,179.999994506836,2|12,3:0|0:0,0:0:0:0:
199,165,135069,1,0,0:0:0:0:
271,202,135244,2,0,P|314:210|362:189,1,89.9999972534181,2|2,0:0|0:0,0:0:0:0:
404,128,135593,2,0,L|407:27,1,89.9999972534181,8|0,0:0|0:0,0:0:0:0:
480,179,135941,6,0,L|485:0,1,179.999994506836,2|12,3:0|0:0,0:0:0:0:
406,38,136465,1,8,0:3:0:0:
403,41,136552,1,2,0:0:0:0:
400,44,136639,2,0,P|356:57|301:42,1,89.9999972534181,2|2,0:0|0:0,0:0:0:0:
241,10,136988,2,0,L|243:99,1,89.9999972534181,8|0,0:0|0:0,0:0:0:0:
140,143,137337,6,0,P|221:112|287:168,1,179.999994506836,2|12,3:0|0:0,0:0:0:0:
309,246,137860,1,2,0:0:0:0:
229,229,138034,1,2,1:2:0:0:
229,229,138209,1,2,0:0:0:0:
174,287,138383,2,0,P|133:305|44:286,1,134.999995880127,8|0,0:0|0:0,0:0:0:0:
15,265,138732,6,0,L|24:169,1,89.9999972534181,2|0,3:0|0:0,0:0:0:0:
104,167,139081,2,0,L|95:71,1,89.9999972534181,12|8,0:0|0:3,0:0:0:0:
68,41,139343,1,2,0:0:0:0:
71,44,139430,2,0,P|114:56|170:48,1,89.9999972534181,2|2,0:0|0:0,0:0:0:0:
234,28,139779,2,0,P|278:23|321:35,1,89.9999972534181,8|0,0:0|0:0,0:0:0:0:
398,111,140127,6,0,L|401:21,1,89.9999972534181,2|0,3:0|0:0,0:0:0:0:
271,111,140476,2,0,L|268:201,1,89.9999972534181,12|0,0:0|0:0,0:0:0:0:
320,262,140825,1,2,0:0:0:0:
320,262,140999,1,2,0:0:0:0:
239,279,141174,2,0,P|195:285|151:278,1,89.9999972534181,8|0,0:0|0:0,0:0:0:0:
106,346,141523,6,0,P|201:366|282:351,1,179.999994506836,2|12,3:0|0:0,0:0:0:0:
362,358,142046,1,8,0:3:0:0:
365,361,142133,1,0,0:0:0:0:
368,364,142220,2,0,P|357:321|366:273,1,89.9999972534181,2|2,3:2|0:0,0:0:0:0:
420,210,142569,2,0,P|431:167|422:119,1,89.9999972534181,12|0,0:0|0:0,0:0:0:0:
378,55,142918,5,2,3:0:0:0:
378,55,143093,1,2,0:0:0:0:
339,126,143267,1,6,0:3:0:0:
134,55,143616,1,2,3:2:0:0:
173,126,143790,2,0,L|162:169,2,44.999998626709,8|2|6,0:3|0:0|0:0,0:0:0:0:
82,168,144139,1,8,0:3:0:0:
87,189,144226,1,8,0:3:0:0:
93,211,144313,6,0,P|173:229|207:317,1,179.999994506836,6|12,3:0|0:0,0:0:0:0:
283,344,144837,1,8,0:3:0:0:
286,347,144924,1,2,0:0:0:0:
289,350,145011,2,0,L|280:246,1,89.9999972534181,2|2,0:0|0:0,0:0:0:0:
200,223,145360,2,0,L|207:312,1,89.9999972534181,8|0,0:0|0:0,0:0:0:0:
273,172,145709,6,0,B|221:141|221:141|99:150,1,179.999994506836,2|12,3:0|0:0,0:0:0:0:
20,156,146232,1,0,0:0:0:0:
51,81,146406,1,2,0:0:0:0:
51,81,146581,1,2,0:0:0:0:
131,75,146755,2,0,B|219:67,1,89.9999972534181,8|0,0:0|0:0,0:0:0:0:
313,27,147104,6,0,P|307:113|379:160,1,179.999994506836,2|12,3:0|0:0,0:0:0:0:
460,142,147627,1,8,0:3:0:0:
463,145,147715,1,2,0:0:0:0:
466,148,147802,2,0,L|459:237,1,89.9999972534181,2|2,0:0|0:0,0:0:0:0:
482,310,148151,2,0,P|431:310|391:272,1,89.9999972534181,8|0,0:0|0:0,0:0:0:0:
316,384,148499,6,0,L|325:204,1,179.999994506836,2|12,3:0|0:0,0:0:0:0:
317,123,149023,1,0,0:0:0:0:
252,171,149197,1,2,1:2:0:0:
252,171,149372,1,2,0:0:0:0:
175,144,149546,2,0,P|131:135|89:151,1,89.9999972534181,8|0,0:0|0:0,0:0:0:0:
37,87,149895,6,0,P|119:54|207:67,1,179.999994506836,6|12,3:0|0:0,0:0:0:0:
278,105,150418,1,8,0:3:0:0:
281,108,150505,1,2,0:0:0:0:
284,111,150593,2,0,L|276:209,1,89.9999972534181,2|2,0:0|0:0,0:0:0:0:
201,230,150941,2,0,L|208:140,1,89.9999972534181,8|0,0:0|0:0,0:0:0:0:
265,280,151290,6,0,B|355:274|333:342|430:335,1,179.999994506836,2|12,3:0|0:0,0:0:0:0:
510,326,151813,1,0,0:0:0:0:
460,261,151988,1,2,0:0:0:0:
460,261,152162,1,2,0:0:0:0:
502,191,152337,2,0,P|505:151|477:98,1,89.9999972534181,8|0,0:0|0:0,0:0:0:0:
469,15,152686,6,0,P|403:50|296:32,1,179.999994506836,6|12,3:0|0:0,0:0:0:0:
228,0,153209,2,0,L|231:44,2,44.999998626709,2|2|2,0:0|0:0|0:0,0:0:0:0:
181,108,153558,2,0,L|177:159,2,44.999998626709,4|2|6,0:1|0:1|0:0,0:0:0:0:
228,216,153906,1,8,0:3:0:0:
229,238,153993,1,8,0:3:0:0:
231,260,154080,5,6,3:0:0:0:
349,89,155476,5,6,1:3:0:0:
228,216,156523,5,12,0:2:0:0:
331,196,156872,1,6,3:0:0:0:
165,151,157220,2,8,P|141:235|198:300,1,180,8|2,0:0|0:1,0:0:0:0:
271,314,157918,2,0,L|269:242,1,60,12|8,0:0|0:3,0:0:0:0:
267,120,158267,5,2,3:2:0:0:
267,120,158616,2,0,L|330:130,2,40,8|2|2,0:0|0:0|0:0,0:0:0:0:
201,88,158965,2,0,L|241:38,2,40,2|4|2,3:1|0:1|0:1,0:0:0:0:
140,129,159313,2,0,L|117:69,2,40,2|8|8,1:0|0:3|0:3,0:0:0:0:
145,202,159662,6,0,P|156:253|270:269,1,180,6|2,0:3|0:0,0:0:0:0:
320,223,160360,2,0,P|359:202|433:230,1,120,8|4,3:2|0:0,0:0:0:0:
512,384,161058,5,2,1:2:0:0:
512,384,161232,2,0,L|504:259,1,120,8|2,0:0|0:0,0:0:0:0:
501,192,161755,1,12,0:0:0:0:
360,323,162104,1,2,3:2:0:0:
306,98,162453,6,0,P|365:89|425:89,1,120,6|8,3:0|0:0,0:0:0:0:
206,286,163151,2,0,P|146:294|86:294,1,120,8|6,3:0|0:3,0:0:0:0:
152,61,163848,5,6,0:3:0:0:
217,114,164023,2,0,L|209:168,2,37.5,8|8|2,0:0|0:0|0:0,0:0:0:0:
285,64,164372,2,0,L|276:5,2,37.5,8|8|2,0:0|0:0|0:0,0:0:0:0:
357,106,164720,1,2,0:1:0:0:
437,79,164895,2,0,P|469:79|513:86,1,75,8|8,0:0|0:3,0:0:0:0:
512,86,165593,6,0,P|445:118|454:220,1,179.999994506836,6|2,0:3|0:0,0:0:0:0:
512,273,166116,1,2,0:0:0:0:
425,298,166290,2,0,L|350:295,1,75,8|0,0:0|0:0,0:0:0:0:
454,374,166639,6,0,L|304:369,1,150,6|8,3:2|0:0,0:0:0:0:
213,364,167162,1,0,0:0:0:0:
263,289,167337,2,0,P|273:252|264:211,1,75,2|2,3:2|0:0,0:0:0:0:
192,179,167686,2,0,P|182:216|191:257,1,75,8|0,0:0|0:0,0:0:0:0:
262,134,168034,6,0,P|203:97|123:132,1,150,6|8,3:2|0:0,0:0:0:0:
192,179,168558,1,0,0:0:0:0:
262,134,168732,2,0,L|259:53,1,75,2|0,0:0|0:0,0:0:0:0:
338,36,169081,2,0,L|342:148,1,112.5,8|0,0:0|0:0,0:0:0:0:
343,190,169430,6,0,P|277:220|270:291,1,150,2|8,1:2|0:0,0:0:0:0:
334,353,169953,1,0,1:0:0:0:
247,375,170127,2,0,L|166:371,1,75,6|2,0:0|0:0,0:0:0:0:
82,365,170476,1,8,0:0:0:0:
82,365,170825,6,0,B|105:331|105:331|81:300|81:300|106:268|106:268|54:186|130:194|91:93,1,300,6|2,0:3|0:0,0:0:0:0:
72,8,171697,2,0,L|-16:17,2,75,2|8|2,0:0|0:0|0:0,0:0:0:0:
162,4,172220,6,0,P|160:64|246:101,1,150,2|8,1:2|0:0,0:0:0:0:
319,83,172744,1,2,1:2:0:0:
319,83,172918,2,0,P|377:96|390:189,1,150,2|8,1:2|0:0,0:0:0:0:
351,253,173441,1,2,0:0:0:0:
351,253,173616,6,0,B|297:250|297:250|263:270|263:270|206:266,1,150,6|8,0:3|0:0,0:0:0:0:
116,41,174313,2,0,B|140:89|140:89|174:108|174:108|199:160,1,150,6|8,0:3|0:0,0:0:0:0:
51,350,175011,6,0,B|80:304|80:304|80:265|80:265|112:217,1,150,6|8,0:3|0:0,0:0:0:0:
173,108,175534,1,2,0:0:0:0:
176,111,175622,1,2,0:1:0:0:
179,114,175709,2,0,P|211:123|253:116,1,75,8|8,0:3|0:3,0:0:0:0:
324,63,176058,1,8,0:0:0:0:
382,131,176232,1,8,0:3:0:0:
454,77,176406,6,0,P|471:140|439:199,1,120,6|0,3:0|0:0,0:0:0:0:
397,237,176930,1,0,3:0:0:0:
397,237,177104,2,0,P|342:227|283:256,1,120,2|0,1:2|3:0,0:0:0:0:
164,384,177802,6,0,L|168:312,1,60,2|0,3:2|1:0,0:0:0:0:
222,152,178325,2,0,L|225:211,1,60,0|2,3:0|1:2,0:0:0:0:
0,218,178848,1,8,3:2:0:0:
0,218,179023,1,0,1:0:0:0:
0,218,179197,6,0,P|52:204|83:90,1,180,4|0,3:1|3:0,0:0:0:0:
34,41,179895,2,0,P|87:52|166:48,1,120,4|0,1:0|3:0,0:0:0:0:
223,36,180418,1,0,0:0:0:0:
200,104,180593,6,0,L|205:163,1,60,4|0,3:1|1:0,0:0:0:0:
276,152,180941,1,0,0:0:0:0:
253,220,181116,2,0,L|258:279,1,60,2|8,3:1|1:2,0:0:0:0:
217,338,181464,1,0,0:0:0:0:
214,341,181552,1,0,0:0:0:0:
211,344,181639,2,0,P|241:347|268:358,1,60,2|8,0:1|0:3,0:0:0:0:
334,384,181988,6,0,P|355:330|413:310,1,120,6|0,3:0|0:0,0:0:0:0:
480,326,182511,1,0,0:0:0:0:
480,326,182686,2,0,L|474:197,1,120,2|0,1:2|3:0,0:0:0:0:
512,49,183383,6,0,L|447:56,1,60,2|0,3:2|1:0,0:0:0:0:
281,140,183906,2,0,L|340:146,1,60,0|6,3:0|1:3,0:0:0:0:
186,25,184430,1,8,1:2:0:0:
186,25,184604,1,0,0:0:0:0:
186,25,184779,6,0,P|186:92|178:149,1,120,6|4,3:0|0:1,0:0:0:0:
156,213,185302,1,4,0:1:0:0:
226,246,185476,1,10,0:1:0:0:
226,246,185651,1,2,0:1:0:0:
298,204,185825,1,8,0:3:0:0:
298,204,185999,1,8,0:3:0:0:
380,240,186174,1,12,3:1:0:0:
256,192,186261,12,4,187569,0:0:0:0:
110,70,200127,6,0,P|86:224|216:164,1,360,6|0,0:3|0:0,0:0:0:0:
131,153,201523,5,6,0:3:0:0:
284,319,202220,1,2,0:1:0:0:
352,103,202918,6,0,B|282:80|241:128|241:128|225:193|277:255|336:264,1,300,6|2,0:3|0:0,0:0:0:0:
373,269,203965,1,8,0:0:0:0:
407,37,204313,6,0,P|291:12|186:64,1,240,6|4,0:3|0:1,0:0:0:0:
157,105,205186,1,2,0:1:0:0:
143,152,205360,1,8,0:3:0:0:
142,151,205709,6,0,P|178:162|214:153,1,75,6|0,0:3|0:0,0:0:0:0:
288,117,206058,2,0,P|324:108|359:118,1,75,6|0,0:0|0:0,0:0:0:0:
424,169,206406,1,2,0:0:0:0:
436,87,206581,1,2,0:3:0:0:
359,118,206755,2,0,P|340:153|345:197,1,75,8|0,0:0|0:0,0:0:0:0:
378,261,207104,6,0,L|302:271,1,75,2|0,0:0|1:0,0:0:0:0:
267,197,207453,2,0,L|343:187,1,75,2|0,0:0|0:0,0:0:0:0:
222,265,207802,1,2,1:2:0:0:
186,192,207976,1,0,0:0:0:0:
141,260,208151,2,0,P|148:299|186:338,1,75,8|0,0:0|0:0,0:0:0:0:
32,333,208499,6,0,P|99:303|168:326,1,150,6|8,0:0|0:0,0:0:0:0:
230,374,209023,1,0,0:0:0:0:
297,327,209197,2,0,P|299:284|289:245,1,75,2|2,0:0|0:0,0:0:0:0:
239,186,209546,1,8,0:0:0:0:
306,127,209720,1,8,0:0:0:0:
257,41,209895,1,4,3:0:0:0:
257,41,210593,5,2,0:1:0:0:
306,127,210767,1,2,0:1:0:0:
303,130,210854,1,8,0:0:0:0:
300,133,210941,2,0,P|282:166|281:214,1,75,8|0,0:0|0:0,0:0:0:0:
194,274,211290,6,0,L|284:283,1,89.9999972534181,6|0,0:3|0:0,0:0:0:0:
342,351,211639,2,0,L|252:359,1,89.9999972534181,12|8,0:0|0:3,0:0:0:0:
211,365,211901,1,2,0:0:0:0:
206,365,211988,1,2,0:0:0:0:
131,333,212162,1,2,0:0:0:0:
59,372,212337,2,0,P|49:329|63:287,1,89.9999972534181,8|0,0:0|0:0,0:0:0:0:
28,156,212686,6,0,P|50:238|135:249,1,179.999994506836,2|12,3:0|0:0,0:0:0:0:
197,196,213209,1,0,0:0:0:0:
261,245,213383,2,0,L|251:343,1,89.9999972534181,2|2,0:0|0:0,0:0:0:0:
325,369,213732,2,0,L|338:234,1,134.999995880127,8|0,0:0|0:0,0:0:0:0:
358,199,214081,6,0,P|322:171|311:121,1,89.9999972534181,2|0,3:0|0:0,0:0:0:0:
315,48,214430,1,12,0:0:0:0:
242,83,214604,1,8,0:3:0:0:
239,86,214691,1,2,0:0:0:0:
235,89,214779,2,0,L|141:88,1,89.9999972534181,2|2,0:0|0:0,0:0:0:0:
111,161,215127,2,0,L|200:161,1,89.9999972534181,8|0,0:0|0:0,0:0:0:0:
77,234,215476,6,0,L|257:234,1,179.999994506836,2|12,3:0|0:0,0:0:0:0:
333,206,215999,1,0,0:0:0:0:
400,251,216174,1,2,1:2:0:0:
400,251,216348,1,2,0:0:0:0:
468,206,216523,2,0,P|478:163|467:105,1,89.9999972534181,8|0,0:0|0:0,0:0:0:0:
512,34,216872,6,0,L|422:41,1,89.9999972534181,2|0,3:0|0:0,0:0:0:0:
357,90,217220,2,0,P|318:115|226:88,1,134.999995880127,12|2,0:0|0:0,0:0:0:0:
203,71,217569,2,0,P|201:115|208:171,1,89.9999972534181,2|2,0:0|0:0,0:0:0:0:
277,198,217918,2,0,P|279:242|272:298,1,89.9999972534181,8|0,0:0|0:0,0:0:0:0:
158,339,218267,6,0,P|242:313|321:353,1,179.999994506836,2|12,3:0|0:0,0:0:0:0:
397,380,218790,1,8,0:3:0:0:
400,377,218877,1,0,0:0:0:0:
403,374,218965,2,0,L|398:271,1,89.9999972534181,2|2,0:0|0:0,0:0:0:0:
394,203,219313,1,8,0:0:0:0:
394,203,219488,1,0,0:0:0:0:
327,249,219662,6,0,P|283:260|239:254,1,89.9999972534181,2|0,3:0|0:0,0:0:0:0:
166,217,220011,2,0,P|122:205|78:211,1,89.9999972534181,12|8,0:0|0:3,0:0:0:0:
43,232,220273,1,0,0:0:0:0:
40,235,220360,2,0,L|45:132,1,89.9999972534181,2|2,3:2|3:2,0:0:0:0:
45,63,220709,1,12,0:0:0:0:
113,105,220883,6,0,L|157:100,2,44.999998626709,8|8|6,0:0|0:0|3:0,0:0:0:0:
222,51,221232,2,0,L|276:56,2,44.999998626709,8|2|6,0:0|0:1|0:3,0:0:0:0:
331,105,221581,1,8,0:0:0:0:
353,102,221668,1,8,0:0:0:0:
375,100,221755,6,0,L|464:91,1,89.9999972534181,8|8,3:2|0:3,0:0:0:0:
512,168,222104,1,8,0:0:0:0:
509,190,222191,1,8,0:0:0:0:
506,212,222278,1,8,0:3:0:0:
503,235,222365,1,8,0:3:0:0:
501,257,222453,6,0,P|428:242|354:313,1,179.999994506836,6|12,3:0|0:0,0:0:0:0:
278,356,222976,1,8,0:3:0:0:
275,353,223063,1,8,0:0:0:0:
272,350,223151,2,0,P|267:313|294:237,1,89.9999972534181,2|2,0:0|0:0,0:0:0:0:
329,188,223499,2,0,L|239:191,1,89.9999972534181,8|0,0:0|0:0,0:0:0:0:
376,111,223848,6,0,L|196:118,1,179.999994506836,2|12,3:0|0:0,0:0:0:0:
105,121,224372,1,2,0:0:0:0:
108,124,224459,1,8,0:0:0:0:
111,127,224546,1,2,0:0:0:0:
155,204,224720,1,2,0:0:0:0:
90,267,224895,2,0,P|87:311|99:354,1,89.9999972534181,8|0,0:0|0:0,0:0:0:0:
13,381,225244,6,0,P|-3:289|15:203,1,179.999994506836,2|12,3:0|0:0,0:0:0:0:
59,127,225767,1,8,0:3:0:0:
62,130,225854,1,2,0:0:0:0:
65,133,225941,2,0,P|100:146|166:132,1,89.9999972534181,2|2,0:0|0:0,0:0:0:0:
230,97,226290,2,0,P|265:84|331:98,1,89.9999972534181,8|0,0:0|0:0,0:0:0:0:
421,135,226639,6,0,B|426:104|408:79|408:79|343:106|350:174,1,179.999994506836,2|12,3:0|0:0,0:0:0:0:
369,261,227162,1,2,0:0:0:0:
372,264,227249,1,8,0:0:0:0:
375,267,227337,1,2,1:2:0:0:
288,241,227511,1,2,0:0:0:0:
224,304,227686,2,0,P|173:325|99:287,1,134.999995880127,8|0,0:0|0:0,0:0:0:0:
82,254,228034,6,0,L|90:159,1,89.9999972534181,6|0,3:0|0:0,0:0:0:0:
165,115,228383,2,0,P|196:145|240:147,1,89.9999972534181,12|8,0:0|0:3,0:0:0:0:
282,130,228645,1,8,0:0:0:0:
286,127,228732,1,2,0:0:0:0:
362,173,228906,1,2,0:0:0:0:
446,139,229081,2,0,L|439:238,1,89.9999972534181,8|0,0:0|0:0,0:0:0:0:
383,344,229430,6,0,B|352:300|352:300|477:310,1,179.999994506836,2|12,3:0|0:0,0:0:0:0:
439,228,229953,1,2,0:0:0:0:
493,156,230127,1,2,0:0:0:0:
439,83,230302,1,8,0:3:0:0:
436,86,230389,1,8,0:3:0:0:
433,89,230476,2,0,P|393:102|342:89,1,89.9999972534181,8|0,0:0|0:0,0:0:0:0:
253,100,230825,6,0,B|236:125|240:151|279:153|307:122|315:69|293:24,1,179.999994506836,6|12,3:0|0:0,0:0:0:0:
90,131,231523,2,0,L|76:189,3,44.999998626709,2|8|8|2,0:0|0:0|0:0|0:1,0:0:0:0:
121,205,231872,2,0,L|135:263,3,44.999998626709,6|2|8|8,0:0|0:1|0:3|0:3,0:0:0:0:
86,304,232220,5,6,3:0:0:0:
268,244,233616,6,0,B|278:287|250:329|250:329|220:314|212:278,1,150,2|0,1:2|0:0,0:0:0:0:
295,155,234313,2,0,B|327:124|378:127|378:127|380:161|353:186,1,150,6|0,0:2|0:0,0:0:0:0:
204,176,235011,6,0,B|162:164|139:118|139:118|167:99|202:110,1,150,2|0,3:2|0:0,0:0:0:0:
196,108,236058,6,0,P|228:108|251:100,2,50,2|0|0,0:0|0:0|0:0,0:0:0:0:
104,63,236406,6,0,P|126:138|93:236,1,179.999994506836,6|8,0:3|0:0,0:0:0:0:
20,283,236930,1,0,0:0:0:0:
23,286,237017,1,8,0:3:0:0:
26,289,237104,2,0,P|63:296|100:338,1,89.9999972534181,2|2,0:0|0:0,0:0:0:0:
175,379,237453,2,0,P|193:346|252:333,1,89.9999972534181,8|0,0:0|0:0,0:0:0:0:
325,363,237802,6,0,B|296:272|374:291|342:190,1,179.999994506836,6|8,0:0|0:0,0:0:0:0:
261,229,238325,1,0,0:0:0:0:
180,188,238499,2,0,P|135:186|92:209,1,89.9999972534181,2|8,3:2|0:3,0:0:0:0:
39,276,238848,2,0,L|50:133,1,134.999995880127,8|0,0:0|0:0,0:0:0:0:
55,96,239197,6,0,P|122:106|178:20,1,179.999994506836,6|8,0:0|0:0,0:0:0:0:
265,0,239720,1,0,0:0:0:0:
268,3,239808,1,8,0:3:0:0:
271,6,239895,2,0,P|272:48|254:111,1,89.9999972534181,2|2,0:0|0:0,0:0:0:0:
206,166,240244,2,0,P|249:172|278:205,1,89.9999972534181,8|0,0:0|0:0,0:0:0:0:
265,324,240593,6,0,P|280:242|364:232,1,179.999994506836,2|8,1:2|0:0,0:0:0:0:
424,298,241116,1,0,1:0:0:0:
449,211,241290,2,0,L|442:113,1,89.9999972534181,2|8,3:2|0:3,0:0:0:0:
462,33,241639,2,0,P|404:49|325:21,1,134.999995880127,8|0,0:0|0:0,0:0:0:0:
298,0,241988,6,0,B|327:60|307:113|307:113|277:131|229:117,1,179.999994506836,6|8,0:3|0:0,0:0:0:0:
161,89,242511,1,0,0:0:0:0:
158,92,242598,1,8,0:3:0:0:
155,95,242686,2,0,P|149:136|178:194,1,89.9999972534181,2|2,0:0|0:0,0:0:0:0:
218,253,243034,2,0,P|223:294|195:352,1,89.9999972534181,8|0,0:0|0:0,0:0:0:0:
256,166,243383,6,0,B|304:205|305:275|305:275|316:244|343:227,1,179.999994506836,2|8,1:2|0:0,0:0:0:0:
419,191,243906,1,0,1:0:0:0:
371,114,244081,2,0,P|370:72|387:19,2,89.9999972534181,2|8|8,0:0|0:3|0:0,0:0:0:0:
447,332,244779,6,0,P|391:265|306:275,1,179.999994506836,6|8,0:3|0:0,0:0:0:0:
237,334,245302,1,0,0:0:0:0:
158,289,245476,2,0,P|142:248|162:187,1,89.9999972534181,6|2,0:0|0:0,0:0:0:0:
226,155,245825,2,0,P|242:196|222:257,1,89.9999972534181,8|0,3:2|0:0,0:0:0:0:
147,114,246174,6,0,P|218:69|301:110,1,179.999994506836,6|8,0:3|0:0,0:0:0:0:
337,178,246697,1,2,0:0:0:0:
338,183,246784,1,8,0:3:0:0:
339,188,246872,1,2,0:3:0:0:
284,266,247046,1,8,0:0:0:0:
331,356,247220,1,8,0:0:0:0:
443,356,247395,1,12,0:3:0:0:
