osu file format v14

[General]
AudioFilename: audio.mp3
AudioLeadIn: 0
PreviewTime: 188825
Countdown: 0
SampleSet: Soft
StackLeniency: 0.4
Mode: 0
LetterboxInBreaks: 0
WidescreenStoryboard: 1

[Editor]
DistanceSpacing: 1
BeatDivisor: 4
GridSize: 32
TimelineZoom: 1.8

[Metadata]
Title:Otome-domo yo.
TitleUnicode:乙女どもよ。
Artist:CHiCO with HoneyWorks
ArtistUnicode:CHiCO with HoneyWorks
Creator:-[Shady]-
Version:Stixy's Hard
Source:荒ぶる季節の乙女どもよ。
Tags:anime japanese j-pop jpop pop op opening full ver version Araburu Kisetsu no O Maidens in Your Savage Season 小林修己 Naoki Kobayashi 中西 Nakanishi 宮本耕三 Kozo Miyamoto 田宮 空 Sora Tamiya AIR Stixy
BeatmapID:2495308
BeatmapSetID:1109660

[Difficulty]
HPDrainRate:4
CircleSize:3.5
OverallDifficulty:6
ApproachRate:7.5
SliderMultiplier:1.5
SliderTickRate:1

[Events]
//Background and Video events
0,0,"Araburu.jpg",0,0
//Break Periods
2,188825,199172
//Storyboard Layer 0 (Background)
//Storyboard Layer 1 (Fail)
//Storyboard Layer 2 (Pass)
//Storyboard Layer 3 (Foreground)
//Storyboard Layer 4 (Overlay)
//Storyboard Sound Samples

[TimingPoints]
463,348.837209302326,4,2,1,60,1,0
1858,-125,4,2,1,45,0,0
11625,-200,4,2,1,60,0,0
12672,-200,4,2,1,50,0,0
13021,-200,4,2,1,60,0,0
14067,-200,4,2,1,50,0,0
14416,-200,4,2,1,60,0,0
14765,-200,4,2,2,50,0,0
15811,-200,4,2,1,60,0,0
16160,-200,4,2,2,50,0,0
17207,-111.111111111111,4,2,1,60,0,0
17556,-111.111111111111,4,2,1,55,0,0
18602,-111.111111111111,4,2,1,60,0,0
18951,-111.111111111111,4,2,1,55,0,0
19997,-111.111111111111,4,2,1,60,0,0
20346,-111.111111111111,4,2,1,55,0,0
20695,-111.111111111111,4,2,2,55,0,0
21044,-111.111111111111,4,2,1,55,0,0
21393,-111.111111111111,4,2,1,60,0,0
21742,-111.111111111111,4,2,2,60,0,0
22090,-111.111111111111,4,2,1,60,0,0
22788,-99.9999999999999,4,2,1,75,0,0
25840,-99.9999999999999,4,2,1,5,0,0
25928,-99.9999999999999,4,2,1,75,0,0
28631,-99.9999999999999,4,2,1,5,0,0
28718,-99.9999999999999,4,2,1,75,0,0
32817,-99.9999999999999,4,2,1,5,0,0
32904,-99.9999999999999,4,2,1,75,0,0
33951,-125,4,2,1,50,0,0
44765,-125,4,2,2,50,0,0
45114,-111.111111111111,4,2,1,55,0,0
52352,-111.111111111111,4,2,1,5,0,0
52439,-111.111111111111,4,2,1,55,0,0
53399,-111.111111111111,4,2,1,5,0,0
53486,-111.111111111111,4,2,1,60,0,0
55579,-111.111111111111,4,2,2,55,0,0
56276,-125,4,2,1,50,0,0
64649,-125,4,2,1,60,0,0
64997,-125,4,2,1,65,0,0
65346,-125,4,2,2,70,0,0
65695,-125,4,2,1,75,0,0
66044,-125,4,2,1,80,0,0
67439,-90.9090909090909,4,2,1,85,0,1
67701,-90.9090909090909,4,2,1,5,0,1
67788,-90.9090909090909,4,2,1,85,0,1
70492,-90.9090909090909,4,2,1,5,0,1
70579,-90.9090909090909,4,2,1,85,0,1
73282,-90.9090909090909,4,2,1,5,0,1
73369,-90.9090909090909,4,2,1,85,0,1
77904,-90.9090909090909,4,2,2,85,0,1
78602,-90.9090909090909,4,2,1,85,0,1
78864,-90.9090909090909,4,2,1,5,0,1
78951,-90.9090909090909,4,2,1,85,0,1
81654,-90.9090909090909,4,2,1,5,0,1
81742,-90.9090909090909,4,2,1,85,0,1
84445,-90.9090909090909,4,2,1,5,0,1
84532,-90.9090909090909,4,2,1,85,0,1
87236,-90.9090909090909,4,2,1,5,0,1
87323,-90.9090909090909,4,2,2,85,0,1
87672,-90.9090909090909,4,2,1,85,0,1
88369,-100,4,2,1,75,0,0
88631,-100,4,2,1,5,0,0
88718,-100,4,2,1,75,0,0
91422,-100,4,2,1,5,0,0
91509,-100,4,2,1,75,0,0
94213,-100,4,2,1,5,0,0
94300,-100,4,2,1,75,0,0
97003,-100,4,2,1,5,0,0
97090,-100,4,2,1,75,0,0
98137,-100,4,2,2,75,0,0
98835,-100,4,2,1,75,0,0
99532,-111.111111111111,4,2,1,55,0,0
110346,-111.111111111111,4,2,2,55,0,0
110695,-111.111111111111,4,2,1,55,0,0
119067,-111.111111111111,4,2,1,60,0,0
121160,-111.111111111111,4,2,2,55,0,0
121509,-111.111111111111,4,2,1,55,0,0
121858,-125,4,2,1,50,0,0
122381,-125,4,2,2,50,0,0
122556,-125,4,2,1,50,0,0
123428,-125,4,2,2,50,0,0
123602,-125,4,2,1,50,0,0
125172,-125,4,2,2,50,0,0
125346,-125,4,2,1,50,0,0
126218,-125,4,2,2,50,0,0
126567,-125,4,2,1,50,0,0
127963,-125,4,2,2,50,0,0
128137,-125,4,2,1,50,0,0
129009,-125,4,2,2,50,0,0
129358,-125,4,2,1,50,0,0
130230,-125,4,2,1,60,0,0
130579,-125,4,2,1,65,0,0
130928,-125,4,2,2,70,0,0
131276,-125,4,2,1,75,0,0
131625,-125,4,2,1,80,0,0
132323,-125,4,2,1,70,0,0
132672,-125,4,2,1,80,0,0
133021,-90.9090909090909,4,2,1,85,0,1
133282,-90.9090909090909,4,2,1,5,0,1
133369,-90.9090909090909,4,2,1,85,0,1
136073,-90.9090909090909,4,2,1,5,0,1
136160,-90.9090909090909,4,2,1,85,0,1
143486,-90.9090909090909,4,2,2,85,0,1
144183,-90.9090909090909,4,2,1,85,0,1
144445,-90.9090909090909,4,2,1,5,0,1
144532,-90.9090909090909,4,2,1,85,0,1
147236,-90.9090909090909,4,2,1,5,0,1
147323,-90.9090909090909,4,2,1,85,0,1
150026,-90.9090909090909,4,2,1,5,0,1
150114,-90.9090909090909,4,2,1,85,0,1
152817,-90.9090909090909,4,2,1,5,0,1
152904,-90.9090909090909,4,2,1,85,0,1
153253,-90.9090909090909,4,2,2,85,0,1
153951,-200,4,2,1,85,0,0
154997,-200,4,2,1,50,0,0
156393,-200,4,2,2,50,0,0
156742,-125,4,2,1,50,0,0
157090,-125,4,2,2,50,0,0
157963,-125,4,2,1,50,0,0
158486,-125,4,2,2,50,0,0
159532,-111.111111111111,4,2,1,50,0,0
162323,-111.111111111111,4,2,1,55,0,0
163369,-111.111111111111,4,2,1,60,0,0
163718,-111.111111111111,4,2,1,65,0,0
165463,-99.9999999999999,4,2,1,70,0,0
165724,-99.9999999999999,4,2,1,5,0,0
165811,-99.9999999999999,4,2,1,70,0,0
173399,-99.9999999999999,4,2,1,5,0,0
173486,-99.9999999999999,4,2,1,70,0,0
174096,-99.9999999999999,4,2,1,5,0,0
174183,-99.9999999999999,4,2,1,70,0,0
175579,-99.9999999999999,4,2,2,70,0,0
176276,-125,4,2,1,50,0,0
184649,-125,4,2,1,60,0,0
184997,-125,4,2,1,65,0,0
185346,-125,4,2,2,70,0,0
185695,-125,4,2,1,75,0,0
186044,-200,4,2,1,80,0,0
187439,-200,4,2,1,35,0,0
199997,-200,4,2,1,55,0,0
202090,-200,4,2,2,55,0,0
202788,-200,4,2,1,55,0,0
203137,-200,4,2,2,55,0,0
205230,-200,4,2,1,55,0,0
205579,-111.111111111111,4,2,1,60,0,0
208369,-111.111111111111,4,2,1,65,0,0
208718,-111.111111111111,4,2,1,70,0,0
209067,-111.111111111111,4,2,2,75,0,0
209416,-111.111111111111,4,2,1,80,0,0
209765,-111.111111111111,4,2,1,85,0,0
211160,-90.9090909090908,4,2,1,85,0,1
211422,-90.9090909090908,4,2,1,5,0,1
211509,-90.9090909090908,4,2,1,85,0,1
214213,-90.9090909090908,4,2,1,5,0,1
214300,-90.9090909090908,4,2,1,85,0,1
220753,-90.9090909090908,4,2,2,85,0,1
221974,-90.9090909090908,4,2,1,85,0,1
222585,-90.9090909090908,4,2,1,5,0,1
222672,-90.9090909090908,4,2,1,85,0,1
225375,-90.9090909090908,4,2,1,5,0,1
225463,-90.9090909090908,4,2,1,85,0,1
228166,-90.9090909090908,4,2,1,5,0,1
228253,-90.9090909090908,4,2,1,85,0,1
229997,-90.9090909090908,4,2,2,85,0,1
230346,-90.9090909090908,4,2,1,85,0,1
230957,-90.9090909090908,4,2,1,5,0,1
231044,-90.9090909090908,4,2,2,85,0,1
231393,-90.9090909090908,4,2,1,85,0,1
232090,-125,4,2,1,45,0,0
236044,-125,4,2,1,50,0,0
236160,-125,4,2,1,55,0,0
236276,-100,4,2,1,75,0,0
239329,-100,4,2,1,5,0,0
239416,-100,4,2,1,75,0,0
242119,-100,4,2,1,5,0,0
242207,-100,4,2,1,75,0,0
246218,-100,4,2,2,75,0,0
246742,-100,4,2,1,75,0,0

[Colours]
Combo1 : 234,236,136
Combo2 : 117,255,117
Combo3 : 235,139,137
Combo4 : 136,236,221

[HitObjects]
0,122,1858,6,0,B|95:98|74:172|173:143,1,180,2|0,0:0|0:0,0:0:0:0:
228,81,2556,2,0,L|238:21,2,60,2|2|2,0:0|0:0|0:0,0:0:0:0:
233,217,3253,6,0,P|286:231|352:184,1,120,2|0,0:0|0:0,0:0:0:0:
424,88,3951,2,0,L|445:206,1,120,2|2,0:0|0:0,0:0:0:0:
320,91,4649,6,0,P|266:76|200:123,1,120,2|2,0:0|0:0,0:0:0:0:
155,167,5172,1,0,0:0:0:0:
78,132,5346,2,0,L|102:-9,1,120,2|2,0:0|0:0,0:0:0:0:
212,104,6044,6,0,L|180:292,1,180,2|0,0:0|0:0,0:0:0:0:
126,346,6742,2,0,P|98:357|68:354,2,60,2|2|2,0:0|0:0|0:0,0:0:0:0:
262,248,7439,6,0,P|315:241|382:280,1,120,2|2,0:0|0:0,0:0:0:0:
446,311,7963,1,0,0:0:0:0:
484,236,8137,2,0,L|453:94,1,120,2|2,0:0|0:0,0:0:0:0:
328,57,8835,6,0,P|270:48|209:89,1,120,2|0,0:0|0:0,0:0:0:0:
179,153,9358,1,0,0:0:0:0:
217,227,9532,2,0,P|226:259|213:303,2,60,2|2|2,0:0|0:0|0:0,0:0:0:0:
81,173,10230,6,0,L|106:46,1,120,2|0,0:0|0:0,0:0:0:0:
236,21,10928,2,0,P|290:12|349:45,1,120,2|0,0:0|0:0,0:0:0:0:
470,145,11625,6,0,B|341:127|399:223|262:200,1,225,6|2,1:2|0:0,0:0:0:0:
283,72,13021,2,0,P|191:13|89:59,1,225,6|2,1:2|1:2,0:0:0:0:
20,158,14416,5,6,1:2:0:0:
123,231,14765,2,0,P|127:295|100:350,1,112.5,10|10,0:3|0:3,0:0:0:0:
26,168,15811,1,6,1:2:0:0:
146,125,16160,2,0,L|182:131,1,37.5,10|0,0:3|0:0,0:0:0:0:
207,152,16422,1,8,0:3:0:0:
207,152,16509,2,0,L|243:145,2,37.5,10|8|10,0:3|0:3|0:3,0:0:0:0:
405,34,17207,6,0,L|420:115,1,67.4999979400635,6|0,1:2|0:0,0:0:0:0:
471,169,17556,2,0,L|455:250,1,67.4999979400635,2|0,1:2|0:0,0:0:0:0:
392,293,17904,2,0,P|333:310|265:271,1,134.999995880127,2|2,1:2|1:2,0:0:0:0:
100,323,18602,6,0,L|85:242,1,67.4999979400635,6|0,1:2|0:0,0:0:0:0:
34,188,18951,2,0,L|50:107,1,67.4999979400635,2|0,1:2|0:0,0:0:0:0:
3,45,19300,2,0,P|60:13|124:29,1,134.999995880127,2|2,1:2|1:2,0:0:0:0:
249,71,19997,6,0,L|333:54,1,67.4999979400635,14|0,1:2|0:0,0:0:0:0:
389,104,20346,2,0,L|473:87,1,67.4999979400635,2|2,1:2|1:2,0:0:0:0:
510,159,20695,1,10,1:3:0:0:
450,222,20869,1,10,1:3:0:0:
499,294,21044,2,0,P|502:331|482:371,1,67.4999979400635,10|10,1:2|2:0,0:0:0:0:
416,312,21393,6,0,L|328:298,1,67.4999979400635,14|0,1:2|1:0,0:0:0:0:
307,287,21654,1,0,1:3:0:0:
307,287,21742,2,0,L|323:235,3,33.7499989700318,8|8|8|8,0:3|0:3|0:3|0:3,0:0:0:0:
300,213,22090,2,0,P|236:204|177:244,1,134.999995880127,6|6,1:2|1:2,0:0:0:0:
238,54,22788,6,0,B|176:42|176:42|148:53|148:53|92:42,1,150,6|8,1:2|0:0,0:0:0:0:
9,107,23311,1,0,1:0:0:0:
9,107,23399,1,0,1:0:0:0:
9,107,23486,1,0,1:0:0:0:
60,198,23660,1,0,1:0:0:0:
155,156,23835,2,0,P|189:142|225:149,1,75,10|0,0:0|0:0,0:0:0:0:
300,222,24183,6,0,L|275:378,1,150,6|8,1:2|0:0,0:0:0:0:
379,384,24707,1,4,0:3:0:0:
461,319,24881,2,0,P|472:283|469:246,1,75,2|0,1:2|1:0,0:0:0:0:
408,161,25230,2,0,P|405:123|416:88,1,75,10|0,0:0|0:0,0:0:0:0:
340,15,25579,6,0,P|285:7|236:33,1,112.5,6|0,1:2|0:0,0:0:0:0:
210,79,25928,2,0,L|231:163,1,75,8|4,0:0|0:3,0:0:0:0:
266,187,26189,1,0,1:0:0:0:
266,187,26276,2,0,L|245:271,1,75,0|0,1:0|1:0,0:0:0:0:
164,324,26625,1,10,0:0:0:0:
63,292,26800,1,2,1:2:0:0:
120,204,26974,6,0,L|89:44,1,150,6|10,1:2|0:0,0:0:0:0:
187,12,27497,1,4,0:3:0:0:
276,67,27672,2,0,P|316:67|352:49,1,75,2|0,1:2|1:0,0:0:0:0:
446,13,28021,1,8,0:0:0:0:
446,13,28369,6,0,B|423:83|423:83|458:142,1,112.5,6|0,1:2|0:0,0:0:0:0:
445,169,28718,2,0,P|410:184|358:171,1,75,8|4,0:0|0:3,0:0:0:0:
329,157,28980,1,0,1:0:0:0:
329,157,29067,2,0,P|295:142|258:146,1,75,2|0,1:2|1:0,0:0:0:0:
165,95,29416,2,0,L|150:9,1,75,8|0,0:0|0:0,0:0:0:0:
57,65,29765,6,0,L|85:227,1,150,6|8,1:2|0:0,0:0:0:0:
20,298,30288,2,0,L|32:371,1,75,4|2,0:3|1:2,0:0:0:0:
140,384,30637,1,0,1:0:0:0:
207,303,30811,2,0,P|246:298|290:321,1,75,10|0,0:0|0:0,0:0:0:0:
355,383,31160,6,0,B|321:334|321:334|362:237,1,150,6|8,1:2|0:0,0:0:0:0:
411,161,31683,1,4,0:3:0:0:
452,63,31858,2,0,P|417:52|381:60,1,75,2|2,1:2|1:2,0:0:0:0:
291,116,32207,2,0,P|254:123|219:112,1,75,10|0,0:0|1:0,0:0:0:0:
116,89,32556,6,0,B|130:131|130:131|125:157|125:157|141:195,1,112.5,14|0,0:0|0:0,0:0:0:0:
165,241,32904,2,0,P|129:259|88:256,1,75,0|0,1:0|1:0,0:0:0:0:
55,232,33166,1,0,1:0:0:0:
55,232,33253,2,0,L|38:319,1,75,8|0,1:2|1:0,0:0:0:0:
128,363,33602,1,0,1:0:0:0:
221,314,33776,1,0,1:0:0:0:
165,241,33951,6,0,L|188:103,1,120,6|8,1:2|0:0,0:0:0:0:
240,59,34474,1,2,0:0:0:0:
240,59,34823,1,2,1:2:0:0:
313,98,34997,2,0,P|345:98|384:73,1,60,10|2,0:0|0:0,0:0:0:0:
429,28,35346,6,0,P|409:83|430:138,1,120,2|8,1:2|0:0,0:0:0:0:
430,138,36044,2,0,L|448:210,1,60,2|0,1:2|1:0,0:0:0:0:
487,268,36393,2,0,L|469:340,1,60,8|0,0:0|0:0,0:0:0:0:
396,363,36742,6,0,P|334:374|268:329,1,120,6|8,1:2|0:0,0:0:0:0:
250,273,37265,1,2,0:0:0:0:
250,273,37614,1,2,1:2:0:0:
289,199,37788,2,0,L|274:115,1,60,10|2,0:2|0:0,0:0:0:0:
252,59,38137,6,0,P|199:32|140:42,1,120,2|8,1:2|0:0,0:0:0:0:
66,82,38660,1,2,0:0:0:0:
114,151,38835,2,0,P|118:191|107:222,1,60,2|0,1:2|1:0,0:0:0:0:
50,265,39183,2,0,P|46:305|57:336,1,60,10|2,0:0|0:0,0:0:0:0:
130,351,39532,6,0,L|262:325,1,120,6|8,1:2|0:0,0:0:0:0:
247,328,40230,1,2,1:2:0:0:
286,254,40404,1,2,1:2:0:0:
229,191,40579,2,0,P|228:162|253:120,1,60,10|2,0:0|0:0,0:0:0:0:
306,80,40928,6,0,B|364:92|364:92|435:65,1,120,2|10,1:2|0:0,0:0:0:0:
420,70,41625,2,0,P|412:109|425:145,1,60,2|0,1:2|1:0,0:0:0:0:
470,192,41974,2,0,P|478:231|465:267,1,60,10|0,0:0|0:0,0:0:0:0:
409,304,42323,6,0,P|350:294|299:323,1,120,6|8,1:2|0:0,0:0:0:0:
237,384,42846,1,2,0:0:0:0:
194,311,43021,2,0,L|218:189,1,120,2|10,1:2|0:0,0:0:0:0:
170,122,43544,1,2,0:0:0:0:
118,56,43718,6,0,P|87:54|54:74,1,60,2|0,1:2|1:0,0:0:0:0:
16,137,44067,1,10,0:0:0:0:
69,202,44242,1,2,0:0:0:0:
22,271,44416,2,0,L|39:350,1,60,2|0,1:2|0:0,0:0:0:0:
73,357,44678,1,0,1:0:0:0:
73,357,44765,2,0,P|108:360|137:344,1,60,8|8,0:3|0:3,0:0:0:0:
201,287,45114,6,0,B|274:276|258:323|329:313,1,134.999995880127,6|8,1:2|0:0,0:0:0:0:
402,253,45637,2,0,L|388:170,1,67.4999979400635,2|0,0:0|0:0,0:0:0:0:
444,114,45986,1,2,1:2:0:0:
395,40,46160,2,0,P|363:32|331:38,1,67.4999979400635,8|2,0:0|0:0,0:0:0:0:
257,98,46509,6,0,B|221:125|221:125|119:102,1,134.999995880127,2|8,1:2|0:0,0:0:0:0:
45,68,47032,1,2,0:0:0:0:
11,156,47207,2,0,P|6:196|28:233,1,67.4999979400635,2|0,1:2|1:0,0:0:0:0:
88,283,47556,1,8,0:0:0:0:
88,283,47904,6,0,B|131:294|131:294|172:286|172:286|219:296,1,134.999995880127,6|8,1:2|0:0,0:0:0:0:
288,230,48428,2,0,P|292:187|275:150,1,67.4999979400635,2|0,0:0|1:0,0:0:0:0:
226,89,48776,1,2,1:2:0:0:
302,33,48951,2,0,L|378:37,1,67.4999979400635,10|2,0:0|0:0,0:0:0:0:
452,82,49300,6,0,B|477:136|477:136|453:226,1,134.999995880127,2|8,1:2|0:0,0:0:0:0:
398,283,49823,1,2,0:0:0:0:
478,332,49997,2,0,B|397:317|428:376|333:352,1,134.999995880127,2|10,1:2|0:0,0:0:0:0:
278,292,50521,1,2,0:0:0:0:
201,346,50695,6,0,P|140:362|72:318,1,134.999995880127,6|10,1:2|0:0,0:0:0:0:
33,246,51218,1,2,0:0:0:0:
33,246,51567,1,2,1:2:0:0:
71,159,51742,2,0,L|56:77,1,67.4999979400635,10|2,0:0|0:0,0:0:0:0:
128,29,52090,6,0,P|176:5|245:21,1,101.249996910095,2|0,1:2|0:0,0:0:0:0:
252,46,52439,2,0,L|240:112,1,67.4999979400635,10|0,0:0|0:0,0:0:0:0:
321,161,52788,2,0,P|361:168|395:156,1,67.4999979400635,2|0,1:2|1:0,0:0:0:0:
471,116,53137,2,0,B|491:157|491:157|470:235,1,101.249996910095,10|0,0:0|0:0,0:0:0:0:
456,253,53486,6,0,B|387:240|411:297|329:276,1,134.999995880127,6|8,1:2|0:0,0:0:0:0:
248,226,54009,1,2,0:0:0:0:
185,296,54183,2,0,L|200:371,1,67.4999979400635,6|0,1:2|1:0,0:0:0:0:
103,362,54532,1,8,0:0:0:0:
24,308,54707,1,0,0:0:0:0:
93,244,54881,6,0,P|90:203|66:172,1,67.4999979400635,14|0,1:2|1:0,0:0:0:0:
16,107,55230,2,0,P|19:66|43:35,1,67.4999979400635,0|0,1:0|0:0,0:0:0:0:
72,18,55492,1,0,1:2:0:0:
72,18,55579,2,0,L|138:27,1,67.4999979400635,8|8,0:3|0:3,0:0:0:0:
209,90,55928,1,8,0:3:0:0:
283,32,56102,1,8,0:3:0:0:
345,104,56276,6,0,L|322:230,1,120,6|2,1:2|0:0,0:0:0:0:
371,292,56800,1,0,1:0:0:0:
306,345,56974,2,0,P|260:361|192:334,1,120,10|2,0:0|0:0,0:0:0:0:
195,337,57672,6,0,L|179:251,1,60,2|8,1:2|0:0,0:0:0:0:
242,216,58021,2,0,L|257:130,1,60,0|0,0:0|1:0,0:0:0:0:
205,87,58369,1,8,0:0:0:0:
205,87,58718,2,0,P|170:84|145:96,1,60,2|2,0:0|0:0,0:0:0:0:
58,65,59067,6,0,L|84:195,1,120,2|0,1:2|0:0,0:0:0:0:
136,246,59590,1,2,1:2:0:0:
74,304,59765,1,10,0:0:0:0:
74,304,60114,1,2,0:0:0:0:
148,343,60288,6,0,L|210:337,1,60,2|4,1:2|1:2,0:0:0:0:
256,268,60637,2,0,L|374:256,1,120,10|0,0:0|1:0,0:0:0:0:
452,290,61160,1,8,0:0:0:0:
452,290,61509,2,0,P|461:252|452:218,1,60,2|2,1:2|1:2,0:0:0:0:
394,175,61858,6,0,B|373:135|373:135|406:55,1,120,6|2,1:2|0:0,0:0:0:0:
345,2,62381,1,0,1:0:0:0:
280,56,62556,2,0,P|224:67|170:38,1,120,10|2,0:0|1:2,0:0:0:0:
170,38,63253,5,2,1:2:0:0:
114,101,63428,2,0,L|135:173,1,60,8|0,0:0|0:0,0:0:0:0:
203,199,63776,1,0,1:0:0:0:
161,272,63951,2,0,P|131:282|95:270,1,60,8|8,0:0|0:2,0:0:0:0:
64,260,64213,1,8,0:2:0:0:
64,260,64300,2,0,L|47:202,1,60,8|0,0:2|1:0,0:0:0:0:
93,131,64649,6,0,L|52:-8,1,120,6|0,1:2|1:0,0:0:0:0:
149,0,65172,1,0,1:0:0:0:
218,46,65346,2,0,P|254:51|277:43,1,60,8|8,0:3|0:3,0:0:0:0:
355,17,65695,1,8,0:0:0:0:
338,99,65869,1,8,0:0:0:0:
431,73,66044,5,14,0:0:0:0:
431,73,66742,6,0,P|422:118|426:134,1,60,2|2,0:0|0:0,0:0:0:0:
474,198,67090,2,0,P|483:226|480:255,1,60,2|2,0:0|0:0,0:0:0:0:
445,281,67352,1,2,0:0:0:0:
445,281,67439,6,0,L|307:267,1,123.75000377655,6|0,1:2|0:0,0:0:0:0:
269,282,67788,2,0,P|259:237|265:192,1,82.5000025177003,10|0,0:0|0:0,0:0:0:0:
331,120,68137,1,2,1:3:0:0:
261,38,68311,1,2,1:2:0:0:
177,105,68486,2,0,P|132:107|97:89,1,82.5000025177003,10|0,0:0|0:0,0:0:0:0:
1,46,68835,6,0,L|33:216,1,165.000005035401,2|8,1:2|0:0,0:0:0:0:
108,279,69358,1,0,0:0:0:0:
60,373,69532,2,0,P|106:385|150:373,1,82.5000025177003,2|2,1:2|1:2,0:0:0:0:
243,367,69881,2,0,P|230:321|197:289,1,82.5000025177003,10|0,0:0|0:0,0:0:0:0:
116,238,70230,6,0,L|140:100,1,123.75000377655,6|0,1:2|0:0,0:0:0:0:
177,84,70579,2,0,P|215:69|259:77,1,82.5000025177003,10|0,0:0|0:0,0:0:0:0:
308,99,70840,1,0,1:3:0:0:
308,99,70928,2,0,P|348:105|386:90,1,82.5000025177003,2|2,1:3|1:2,0:0:0:0:
471,24,71276,1,10,0:0:0:0:
470,23,71625,6,0,B|444:101|498:100|459:195,1,165.000005035401,2|8,1:2|0:0,0:0:0:0:
397,259,72149,1,0,0:0:0:0:
450,353,72323,2,0,P|404:368|365:360,1,82.5000025177003,2|2,1:2|1:2,0:0:0:0:
299,283,72672,2,0,P|258:278|219:292,1,82.5000025177003,10|0,0:0|0:0,0:0:0:0:
131,353,73021,6,0,B|119:303|119:303|125:279|125:279|115:232,1,123.75000377655,6|0,1:2|0:0,0:0:0:0:
138,184,73369,2,0,L|150:98,1,82.5000025177003,10|0,0:0|0:0,0:0:0:0:
165,53,73631,1,0,1:3:0:0:
165,52,73718,2,0,P|203:39|244:43,1,82.5000025177003,2|0,1:2|1:0,0:0:0:0:
340,91,74067,2,0,P|380:94|419:81,1,82.5000025177003,10|0,0:0|0:0,0:0:0:0:
496,7,74416,6,0,P|464:79|505:147,1,165.000005035401,2|8,1:2|0:0,0:0:0:0:
450,240,74939,1,0,0:0:0:0:
361,178,75114,2,0,P|320:174|281:187,1,82.5000025177003,0|2,1:2|1:2,0:0:0:0:
191,245,75463,1,10,0:0:0:0:
109,175,75637,1,2,1:2:0:0:
183,96,75811,6,0,P|191:57|178:18,1,82.5000025177003,6|0,1:2|0:0,0:0:0:0:
82,66,76160,2,0,P|43:78|15:109,1,82.5000025177003,10|0,0:0|0:0,0:0:0:0:
109,175,76509,2,0,P|139:202|179:210,1,82.5000025177003,2|0,1:2|1:0,0:0:0:0:
266,146,76858,2,0,P|296:118|336:111,1,82.5000025177003,10|0,0:0|0:0,0:0:0:0:
436,150,77207,6,0,L|419:240,1,82.5000025177003,6|0,1:2|0:0,0:0:0:0:
473,324,77556,1,14,0:0:0:0:
473,324,77904,2,0,L|400:318,3,41.2500012588501,10|8|10|8,0:3|0:3|0:3|0:3,0:0:0:0:
389,354,78253,2,0,L|348:348,3,41.2500012588501,10|8|8|8,0:3|0:3|0:3|0:3,0:0:0:0:
313,307,78602,6,0,P|290:243|333:163,1,123.75000377655,6|0,1:2|0:0,0:0:0:0:
347,158,78951,2,0,L|329:74,1,82.5000025177003,10|0,0:0|0:0,0:0:0:0:
298,40,79213,1,0,1:2:0:0:
298,40,79300,2,0,P|254:34|216:49,1,82.5000025177003,2|2,1:2|1:2,0:0:0:0:
135,114,79649,2,0,P|96:127|56:120,1,82.5000025177003,10|0,0:0|0:0,0:0:0:0:
30,224,79997,6,0,P|97:232|193:202,1,165.000005035401,2|10,1:2|0:0,0:0:0:0:
265,127,80521,1,0,0:0:0:0:
316,220,80695,2,0,L|305:310,1,82.5000025177003,2|2,1:2|1:2,0:0:0:0:
391,366,81044,2,0,P|436:369|479:353,1,82.5000025177003,10|0,0:0|0:0,0:0:0:0:
419,261,81393,6,0,L|438:132,1,123.75000377655,6|0,1:2|0:0,0:0:0:0:
395,103,81742,2,0,L|383:17,1,82.5000025177003,10|0,0:0|0:0,0:0:0:0:
331,13,82003,1,0,1:3:0:0:
331,13,82090,2,0,P|288:26|247:18,1,82.5000025177003,2|2,1:3|1:2,0:0:0:0:
164,82,82439,1,10,0:0:0:0:
164,82,82788,6,0,B|101:76|101:76|65:95|65:95|4:86,1,165.000005035401,2|10,1:2|0:0,0:0:0:0:
22,192,83311,1,0,0:0:0:0:
126,168,83486,2,0,L|216:182,1,82.5000025177003,2|2,1:2|1:2,0:0:0:0:
281,102,83835,2,0,L|362:89,1,82.5000025177003,10|0,0:0|0:0,0:0:0:0:
455,139,84183,6,0,P|483:194|473:253,1,123.75000377655,2|0,1:2|0:0,0:0:0:0:
437,294,84532,2,0,L|355:306,1,82.5000025177003,10|0,0:0|0:0,0:0:0:0:
312,274,84794,1,0,1:3:0:0:
312,274,84881,2,0,L|230:286,1,82.5000025177003,2|2,1:3|1:2,0:0:0:0:
147,354,85230,2,0,P|125:318|126:276,1,82.5000025177003,10|0,0:0|0:0,0:0:0:0:
184,188,85579,6,0,B|122:181|122:181|89:202|89:202|13:191,1,165.000005035401,6|10,1:2|0:0,0:0:0:0:
38,85,86102,1,0,0:0:0:0:
133,37,86276,2,0,L|221:47,1,82.5000025177003,2|2,1:2|1:2,0:0:0:0:
292,121,86625,2,0,L|373:111,1,82.5000025177003,10|0,0:0|0:0,0:0:0:0:
459,46,86974,6,0,P|426:97|441:159,1,123.75000377655,14|0,0:0|0:0,0:0:0:0:
468,188,87323,2,0,L|446:273,1,82.5000025177003,10|8,0:3|0:3,0:0:0:0:
448,375,87672,2,0,L|408:365,3,41.2500012588501,10|8|8|8,0:0|0:0|0:0|0:0,0:0:0:0:
354,370,88021,2,0,P|336:378|309:379,3,41.2500012588501,10|8|8|8,0:0|0:0|0:0|0:0,0:0:0:0:
280,345,88369,6,0,B|256:311|256:311|268:241,1,112.5,6|0,1:2|0:0,0:0:0:0:
306,210,88718,2,0,L|289:119,1,75,8|4,0:0|0:3,0:0:0:0:
266,93,88980,1,8,1:2:0:0:
266,93,89067,2,0,L|283:2,1,75,2|0,1:2|1:0,0:0:0:0:
175,3,89416,1,10,0:0:0:0:
175,3,89765,6,0,B|97:2|125:54|36:46,1,150,2|10,1:2|0:0,0:0:0:0:
1,139,90288,1,4,0:3:0:0:
79,208,90463,2,0,P|83:249|55:293,1,75,2|0,1:2|1:0,0:0:0:0:
34,375,90811,2,0,P|71:383|110:370,1,75,10|0,0:0|0:0,0:0:0:0:
184,298,91160,6,0,B|254:282|254:282|308:306,1,112.5,6|0,1:2|0:0,0:0:0:0:
331,333,91509,2,0,L|417:316,1,75,10|4,0:0|0:3,0:0:0:0:
450,290,91771,1,8,1:2:0:0:
450,290,91858,2,0,P|459:255|445:210,1,75,2|0,1:2|1:0,0:0:0:0:
370,150,92207,2,0,P|360:115|374:70,1,75,10|0,0:0|0:0,0:0:0:0:
439,0,92556,6,0,P|376:37|304:22,1,150,2|10,1:2|0:0,0:0:0:0:
212,72,93079,1,4,0:3:0:0:
124,14,93253,2,0,P|86:10|34:43,1,75,2|0,1:2|1:0,0:0:0:0:
3,116,93602,1,10,0:0:0:0:
3,116,93951,6,0,B|16:160|16:160|11:180|11:180|31:247,1,112.5,6|0,1:2|0:0,0:0:0:0:
52,267,94300,2,0,P|88:277|123:265,1,75,10|4,0:0|0:3,0:0:0:0:
156,224,94561,1,8,0:0:0:0:
156,224,94649,2,0,P|190:211|226:221,1,75,2|0,1:2|1:0,0:0:0:0:
306,289,94997,2,0,L|298:377,1,75,10|2,0:0|0:2,0:0:0:0:
404,371,95346,6,0,P|439:380|474:368,1,75,2|0,1:2|0:0,0:0:0:0:
504,266,95695,1,10,0:0:0:0:
409,220,95869,1,4,0:3:0:0:
471,139,96044,2,0,P|480:98|470:56,1,75,2|0,1:2|1:2,0:0:0:0:
385,4,96393,1,10,0:0:0:0:
385,4,96742,6,0,P|330:-3|276:55,1,112.5,6|0,1:2|0:0,0:0:0:0:
257,72,97090,2,0,L|268:146,1,75,8|4,0:0|0:3,0:0:0:0:
304,184,97352,1,8,0:0:0:0:
304,184,97439,2,0,L|292:258,1,75,0|0,1:0|1:0,0:0:0:0:
219,334,97788,2,0,P|181:349|139:339,1,75,14|8,0:0|0:0,0:0:0:0:
100,320,98050,1,8,0:0:0:0:
100,320,98137,6,0,P|63:315|28:330,1,75,8|8,0:3|0:3,0:0:0:0:
18,225,98486,2,0,L|31:143,1,75,8|0,0:3|0:0,0:0:0:0:
70,117,98747,1,8,0:3:0:0:
70,117,98835,2,0,L|57:35,1,75,8|0,0:2|1:0,0:0:0:0:
154,1,99183,1,10,0:2:0:0:
224,71,99358,1,2,1:2:0:0:
301,15,99532,6,0,B|374:5|363:56|432:42,1,134.999995880127,6|8,1:2|0:0,0:0:0:0:
429,42,100404,1,2,1:2:0:0:
480,119,100579,2,0,P|488:152|480:185,1,67.4999979400635,10|2,0:0|0:0,0:0:0:0:
401,238,100928,6,0,L|262:213,1,134.999995880127,2|10,1:2|0:0,0:0:0:0:
180,250,101451,1,2,1:2:0:0:
94,288,101625,2,0,P|76:259|75:226,1,67.4999979400635,2|0,1:2|1:0,0:0:0:0:
129,148,101974,2,0,P|128:114|110:86,1,67.4999979400635,10|0,0:0|0:0,0:0:0:0:
34,29,102323,6,0,P|85:49|159:15,1,134.999995880127,6|8,1:2|0:0,0:0:0:0:
155,19,103195,1,2,1:2:0:0:
226,80,103369,2,0,L|297:68,1,67.4999979400635,10|2,0:0|0:0,0:0:0:0:
363,6,103718,6,0,P|348:71|377:130,1,134.999995880127,2|8,1:2|0:0,0:0:0:0:
445,59,104242,1,2,0:0:0:0:
503,133,104416,2,0,L|486:223,1,67.4999979400635,2|0,1:2|1:0,0:0:0:0:
417,259,104765,2,0,P|385:268|352:261,1,67.4999979400635,10|2,0:0|0:0,0:0:0:0:
281,198,105114,6,0,B|241:181|241:181|126:203,1,134.999995880127,6|8,1:2|0:0,0:0:0:0:
151,198,105986,1,2,1:2:0:0:
75,254,106160,2,0,P|57:217|62:179,1,67.4999979400635,10|2,0:0|0:0,0:0:0:0:
115,115,106509,6,0,L|90:39,1,67.4999979400635,2|0,1:2|0:0,0:0:0:0:
177,6,106858,2,0,P|209:-2|251:11,1,67.4999979400635,10|0,0:0|0:0,0:0:0:0:
318,61,107207,1,2,1:2:0:0:
256,132,107381,1,0,1:0:0:0:
324,197,107556,1,10,0:0:0:0:
324,197,107904,6,0,L|463:176,1,134.999995880127,6|8,1:2|0:0,0:0:0:0:
512,249,108428,1,2,0:0:0:0:
452,322,108602,2,0,L|385:332,1,67.4999979400635,2|0,1:2|1:0,0:0:0:0:
301,288,108951,1,8,0:0:0:0:
234,354,109125,1,2,0:0:0:0:
165,288,109300,6,0,L|191:145,1,134.999995880127,2|12,1:2|0:3,0:0:0:0:
139,70,109823,1,2,0:0:0:0:
60,121,109997,2,0,L|47:187,1,67.4999979400635,2|0,1:2|0:0,0:0:0:0:
19,228,110259,1,0,1:0:0:0:
19,228,110346,2,0,L|31:294,1,67.4999979400635,8|8,0:3|0:3,0:0:0:0:
100,359,110695,6,0,P|165:369|223:337,1,134.999995880127,6|8,1:2|0:0,0:0:0:0:
223,337,111567,1,2,1:2:0:0:
298,279,111742,2,0,P|330:272|363:279,1,67.4999979400635,10|2,0:0|0:0,0:0:0:0:
444,328,112090,6,0,B|409:294|409:294|429:210,1,134.999995880127,2|8,1:2|0:0,0:0:0:0:
486,126,112614,1,2,0:0:0:0:
417,60,112788,2,0,P|385:52|349:61,1,67.4999979400635,2|0,1:2|0:0,0:0:0:0:
269,108,113137,2,0,P|237:115|201:106,1,67.4999979400635,10|0,0:0|0:0,0:0:0:0:
150,28,113486,6,0,B|100:23|100:23|72:39|72:39|20:30,1,134.999995880127,6|8,1:2|0:0,0:0:0:0:
20,30,114358,1,2,1:2:0:0:
42,121,114532,2,0,L|22:204,1,67.4999979400635,10|2,0:0|0:0,0:0:0:0:
9,279,114881,6,0,B|94:303|94:303|135:281,1,134.999995880127,2|10,1:2|0:0,0:0:0:0:
198,211,115404,1,2,0:0:0:0:
167,121,115579,2,0,P|165:87|179:57,1,67.4999979400635,2|0,1:2|0:0,0:0:0:0:
256,1,115928,1,10,0:0:0:0:
336,50,116102,1,2,0:0:0:0:
416,1,116276,6,0,P|470:35|480:104,1,134.999995880127,6|8,1:2|0:0,0:0:0:0:
480,101,117149,1,2,1:2:0:0:
442,187,117323,2,0,L|461:251,1,67.4999979400635,10|2,0:0|0:0,0:0:0:0:
406,329,117672,5,2,1:2:0:0:
324,281,117846,1,0,0:0:0:0:
252,343,118021,2,0,P|219:351|186:345,1,67.4999979400635,10|0,0:0|0:0,0:0:0:0:
118,280,118369,2,0,L|135:200,1,67.4999979400635,2|0,1:2|0:0,0:0:0:0:
104,175,118631,1,0,1:0:0:0:
104,175,118718,2,0,L|87:95,1,67.4999979400635,8|0,1:2|1:0,0:0:0:0:
120,73,118980,1,0,1:0:0:0:
120,73,119067,6,0,P|177:39|242:53,1,134.999995880127,6|8,1:2|0:0,0:0:0:0:
335,19,119590,1,2,1:2:0:0:
398,89,119765,2,0,L|384:171,1,67.4999979400635,2|0,1:2|1:0,0:0:0:0:
443,231,120114,2,0,L|429:313,1,67.4999979400635,10|0,0:0|0:0,0:0:0:0:
342,329,120463,5,14,0:0:0:0:
342,329,120811,2,0,L|331:262,1,67.4999979400635,2|0,1:2|0:0,0:0:0:0:
290,236,121073,1,0,1:0:0:0:
290,236,121160,2,0,P|258:226|225:233,1,67.4999979400635,8|8,0:3|0:3,0:0:0:0:
149,289,121509,1,2,1:2:0:0:
69,238,121683,1,2,1:2:0:0:
147,182,121858,6,0,B|167:148|167:148|135:74,1,120,6|2,1:2|1:2,0:0:0:0:
186,7,122381,1,8,0:3:0:0:
249,62,122556,2,0,P|304:70|367:25,1,120,2|2,1:2|1:2,0:0:0:0:
357,39,123253,6,0,L|346:123,1,60,2|8,1:2|0:3,0:0:0:0:
411,154,123602,2,0,L|395:273,1,120,2|2,1:2|1:2,0:0:0:0:
395,273,124300,2,0,P|368:281|331:270,1,60,10|2,0:0|0:0,0:0:0:0:
274,208,124649,6,0,B|214:203|238:248|162:238,1,120,6|0,1:2|1:0,0:0:0:0:
90,195,125172,1,10,0:3:0:0:
144,130,125346,2,0,P|148:72|109:28,1,120,2|2,1:2|1:2,0:0:0:0:
109,28,126044,6,0,L|168:18,1,60,0|10,1:2|0:3,0:0:0:0:
243,57,126393,2,0,L|302:47,1,60,0|0,1:0|1:0,0:0:0:0:
383,72,126742,1,2,1:2:0:0:
383,72,127090,2,0,L|369:142,1,60,2|2,1:2|1:2,0:0:0:0:
428,191,127439,6,0,P|375:215|320:197,1,120,6|2,1:2|1:2,0:0:0:0:
259,138,127963,1,8,0:3:0:0:
194,84,128137,2,0,P|138:65|85:90,1,120,2|2,1:2|1:2,0:0:0:0:
85,90,128835,6,0,L|106:166,1,60,2|8,1:2|0:3,0:0:0:0:
44,209,129183,2,0,L|65:285,1,60,0|0,0:0|1:0,0:0:0:0:
122,321,129532,2,0,P|151:329|180:321,1,60,8|8,0:0|0:0,0:0:0:0:
205,287,129794,1,8,1:2:0:0:
205,287,129881,2,0,P|233:278|262:286,1,60,10|2,0:2|1:2,0:0:0:0:
338,321,130230,5,6,1:2:0:0:
338,321,130579,2,0,L|353:252,1,60,0|0,1:2|1:0,0:0:0:0:
299,195,130928,2,0,L|284:126,1,60,8|8,0:3|0:3,0:0:0:0:
328,63,131276,1,8,0:0:0:0:
257,16,131451,1,8,0:0:0:0:
185,60,131625,5,14,0:0:0:0:
185,60,132323,1,2,1:2:0:0:
174,146,132497,1,2,1:2:0:0:
174,146,132585,1,2,1:2:0:0:
174,146,132672,2,0,L|185:194,3,30,10|8|8|8,0:0|0:0|0:0|0:0,0:0:0:0:
164,231,133021,6,0,P|111:260|51:250,1,123.75000377655,6|0,1:2|0:0,0:0:0:0:
10,214,133369,2,0,L|30:130,1,82.5000025177003,10|0,0:0|0:0,0:0:0:0:
80,111,133631,1,0,1:3:0:0:
80,111,133718,2,0,L|50:28,1,82.5000025177003,2|2,1:3|1:2,0:0:0:0:
150,0,134067,2,0,P|190:-7|230:0,1,82.5000025177003,10|0,0:0|0:0,0:0:0:0:
296,85,134416,6,0,L|267:247,1,165.000005035401,2|8,1:2|0:0,0:0:0:0:
337,329,134939,1,0,0:0:0:0:
429,274,135114,2,0,L|414:192,1,82.5000025177003,2|2,1:2|1:2,0:0:0:0:
471,101,135463,2,0,L|485:19,1,82.5000025177003,10|0,0:0|0:0,0:0:0:0:
379,1,135811,6,0,P|318:-5|268:28,1,123.75000377655,6|0,1:2|0:0,0:0:0:0:
233,70,136160,2,0,L|247:151,1,82.5000025177003,10|0,0:0|0:0,0:0:0:0:
215,195,136422,1,0,1:3:0:0:
215,194,136509,2,0,P|177:211|136:208,1,82.5000025177003,2|2,1:3|1:2,0:0:0:0:
39,162,136858,1,10,0:0:0:0:
39,162,137207,6,0,B|14:244|67:238|36:323,1,165.000005035401,2|8,1:2|0:0,0:0:0:0:
129,376,137730,1,0,0:0:0:0:
207,303,137904,2,0,P|246:293|288:308,1,82.5000025177003,2|2,1:2|1:2,0:0:0:0:
380,356,138253,2,0,P|418:368|458:358,1,82.5000025177003,10|0,0:0|0:0,0:0:0:0:
422,256,138602,6,0,L|403:156,1,82.5000025177003,6|0,1:2|0:0,0:0:0:0:
490,107,138951,2,0,L|508:7,1,82.5000025177003,10|0,1:2|0:0,0:0:0:0:
455,4,139213,1,0,1:3:0:0:
455,4,139300,2,0,P|415:0|378:16,1,82.5000025177003,2|0,1:3|1:0,0:0:0:0:
284,71,139649,2,0,P|243:74|206:58,1,82.5000025177003,10|0,0:0|0:0,0:0:0:0:
116,7,139997,6,0,B|147:51|147:51|112:181,1,165.000005035401,2|10,1:2|0:2,0:0:0:0:
57,248,140521,1,0,0:0:0:0:
127,326,140695,2,0,P|167:338|206:326,1,82.5000025177003,0|0,1:0|1:0,0:0:0:0:
275,246,141044,1,10,0:0:0:0:
366,302,141218,1,2,1:2:0:0:
443,226,141393,6,0,P|446:185|428:148,1,82.5000025177003,6|0,1:2|0:0,0:0:0:0:
391,47,141742,2,0,P|354:64|331:98,1,82.5000025177003,10|0,0:0|0:0,0:0:0:0:
261,181,142090,2,0,P|295:204|336:207,1,82.5000025177003,2|0,1:3|1:0,0:0:0:0:
428,148,142439,2,0,P|461:125|502:121,1,82.5000025177003,10|0,0:0|0:0,0:0:0:0:
489,228,142788,6,0,L|470:335,1,82.5000025177003,6|0,1:2|0:0,0:0:0:0:
376,354,143137,1,14,0:0:0:0:
376,354,143486,2,0,L|362:296,3,41.2500012588501,10|8|10|8,0:3|0:3|0:3|0:3,0:0:0:0:
321,282,143835,2,0,L|335:224,3,41.2500012588501,10|8|8|8,0:3|0:3|0:3|0:3,0:0:0:0:
307,193,144183,6,0,L|278:59,1,123.75000377655,6|0,1:2|0:0,0:0:0:0:
238,35,144532,2,0,P|198:29|160:43,1,82.5000025177003,10|0,0:0|0:0,0:0:0:0:
118,77,144794,1,0,1:3:0:0:
118,77,144881,2,0,P|79:91|39:84,1,82.5000025177003,2|2,1:3|1:2,0:0:0:0:
53,190,145230,2,0,L|77:268,1,82.5000025177003,10|0,0:0|0:0,0:0:0:0:
156,197,145579,6,0,P|230:166|306:192,1,165.000005035401,2|10,1:2|0:0,0:0:0:0:
396,251,146102,1,0,0:0:0:0:
464,168,146276,2,0,L|443:65,1,82.5000025177003,2|2,1:2|1:2,0:0:0:0:
366,40,146625,2,0,P|325:32|287:47,1,82.5000025177003,10|0,0:0|0:0,0:0:0:0:
213,124,146974,6,0,B|172:155|172:155|82:137,1,123.75000377655,6|0,1:2|0:0,0:0:0:0:
54,168,147323,2,0,L|73:258,1,82.5000025177003,10|0,0:0|0:0,0:0:0:0:
113,282,147585,1,0,1:3:0:0:
113,282,147672,2,0,L|94:372,1,82.5000025177003,2|2,1:3|1:2,0:0:0:0:
199,332,148021,1,10,0:0:0:0:
199,331,148369,6,0,P|266:288|343:308,1,165.000005035401,2|10,1:2|0:0,0:0:0:0:
429,360,148893,1,0,0:0:0:0:
504,284,149067,2,0,L|488:198,1,82.5000025177003,2|2,1:2|1:2,0:0:0:0:
413,126,149416,2,0,L|429:40,1,82.5000025177003,10|0,0:0|0:0,0:0:0:0:
323,13,149765,6,0,B|261:12|279:49|205:43,1,123.75000377655,6|0,1:2|0:0,0:0:0:0:
155,25,150114,2,0,P|165:65|155:102,1,82.5000025177003,10|0,0:0|0:0,0:0:0:0:
124,147,150375,1,0,1:3:0:0:
124,147,150463,2,0,P|116:188|127:231,1,82.5000025177003,2|2,1:3|1:2,0:0:0:0:
224,187,150811,2,0,L|322:177,1,82.5000025177003,10|0,0:0|0:0,0:0:0:0:
409,208,151160,6,0,P|449:270|418:361,1,165.000005035401,2|10,1:2|0:0,0:0:0:0:
341,286,151683,1,0,0:0:0:0:
263,360,151858,2,0,L|181:353,1,82.5000025177003,2|2,1:2|1:2,0:0:0:0:
103,277,152207,2,0,L|21:270,1,82.5000025177003,10|0,0:0|1:0,0:0:0:0:
58,169,152556,6,0,L|216:185,1,123.75000377655,14|0,0:0|0:0,0:0:0:0:
221,147,152904,2,0,P|229:106|218:67,1,82.5000025177003,8|8,1:2|1:2,0:0:0:0:
206,19,153166,1,8,1:2:0:0:
206,19,153253,2,0,L|275:7,3,41.2500012588501,8|8|8|8,0:3|0:3|0:3|0:3,0:0:0:0:
294,36,153602,2,0,L|363:24,3,41.2500012588501,8|8|8|8,0:3|0:3|0:3|0:3,0:0:0:0:
381,47,153951,6,0,B|367:100|398:134|398:134|380:169|380:169|407:213|394:261,1,225,6|0,1:2|0:0,0:0:0:0:
268,226,155346,2,0,B|140:215|196:313|63:284,1,225,6|8,1:2|3:0,0:0:0:0:
81,157,156742,5,6,1:2:0:0:
108,28,157090,2,0,P|171:16|224:47,1,120,10|2,3:0|0:0,0:0:0:0:
272,113,157614,1,8,3:0:0:0:
226,190,157788,2,0,L|242:272,1,60,2|0,0:0|1:0,0:0:0:0:
314,295,158137,6,0,P|357:302|397:283,1,90,6|0,1:2|0:0,0:0:0:0:
415,245,158486,2,0,L|427:186,2,40,10|8|8,0:3|0:3|0:3,0:0:0:0:
457,187,158835,2,0,L|445:128,2,40,10|8|8,0:3|0:3|0:3,0:0:0:0:
415,129,159183,2,0,L|427:70,2,40,10|8|8,0:3|0:3|0:3,0:0:0:0:
396,51,159532,6,0,B|283:44|325:122|206:100,1,202.499993820191,6|0,1:2|1:0,0:0:0:0:
125,70,160230,1,10,0:0:0:0:
125,70,160928,5,2,1:2:0:0:
90,150,161102,2,0,L|122:283,1,134.999995880127,8|0,0:0|1:0,0:0:0:0:
193,330,161625,2,0,P|260:331|312:291,1,134.999995880127,14|6,1:3|1:3,0:0:0:0:
422,154,162323,6,0,L|385:20,1,134.999995880127,6|2,1:2|1:2,0:0:0:0:
278,163,163021,2,0,L|315:297,1,134.999995880127,10|14,0:0|0:0,0:0:0:0:
157,214,163718,5,2,1:2:0:0:
100,146,163893,2,0,L|113:90,2,33.7499989700318,8|8|8,0:0|0:0|0:0,0:0:0:0:
72,234,164242,1,2,1:2:0:0:
72,234,164329,1,0,1:2:0:0:
72,234,164416,2,0,L|81:266,3,33.7499989700318,8|8|8|8,0:0|0:0|0:0|0:0,0:0:0:0:
62,306,164765,2,0,L|70:338,2,33.7499989700318,8|8|8,0:0|0:0|0:0,0:0:0:0:
253,136,165463,6,0,P|291:174|288:229,1,112.5,6|0,1:2|0:0,0:0:0:0:
255,270,165811,1,2,1:2:0:0:
315,356,165986,1,0,1:0:0:0:
380,274,166160,2,0,P|416:269|451:283,1,75,8|0,0:0|0:0,0:0:0:0:
491,186,166509,6,0,L|456:28,1,150,2|8,1:2|0:0,0:0:0:0:
358,10,167032,1,0,1:0:0:0:
293,92,167207,2,0,P|256:95|222:80,1,75,2|2,1:2|1:2,0:0:0:0:
141,12,167556,2,0,P|104:8|70:23,1,75,10|0,0:0|0:0,0:0:0:0:
125,111,167904,6,0,B|156:164|156:164|123:265,1,150,6|10,1:2|1:2,0:0:0:0:
60,321,168428,1,2,1:2:0:0:
149,375,168602,2,0,P|185:381|220:368,1,75,2|0,1:2|1:0,0:0:0:0:
279,280,168951,1,10,0:0:0:0:
279,280,169300,6,0,B|291:220|291:220|283:191|283:191|297:132,1,150,2|8,1:2|0:0,0:0:0:0:
353,44,169823,1,0,1:0:0:0:
420,124,169997,2,0,L|404:219,1,75,2|2,1:2|1:2,0:0:0:0:
368,295,170346,2,0,L|383:390,1,75,10|2,0:0|1:2,0:0:0:0:
286,321,170695,6,0,B|207:316|235:369|145:356,1,150,6|10,1:2|0:0,0:0:0:0:
60,294,171218,2,0,P|31:227|69:165,1,150,2|2,1:2|1:2,0:0:0:0:
52,61,171742,1,10,2:0:0:0:
134,0,171916,1,2,1:2:0:0:
221,57,172090,6,0,P|293:66|353:23,1,150,2|10,1:2|0:0,0:0:0:0:
458,13,172614,1,2,1:2:0:0:
471,116,172788,2,0,L|455:189,1,75,2|0,0:0|1:0,0:0:0:0:
430,291,173137,2,0,B|398:319|398:319|298:295,1,112.5,10|2,0:0|0:0,0:0:0:0:
298,259,173486,6,0,L|214:264,1,75,14|0,0:0|0:0,0:0:0:0:
137,324,173835,2,0,P|116:280|131:215,1,112.5,10|2,0:2|0:2,0:0:0:0:
146,170,174183,2,0,L|60:171,1,75,10|0,0:0|1:0,0:0:0:0:
36,71,174532,2,0,L|110:69,1,75,10|2,0:0|0:0,0:0:0:0:
200,13,174881,5,14,1:2:0:0:
200,13,175230,2,0,P|239:6|281:23,1,75,0|0,1:0|1:0,0:0:0:0:
305,55,175492,1,0,1:0:0:0:
305,55,175579,2,0,P|294:71|289:89,3,37.5,8|8|8|8,0:3|0:3|0:3|0:3,0:0:0:0:
319,133,175928,1,10,0:3:0:0:
249,211,176102,1,10,0:3:0:0:
202,126,176276,6,0,B|114:127|144:185|34:176,1,180,6|0,1:2|1:0,0:0:0:0:
0,99,176974,1,10,0:2:0:0:
0,99,177497,1,0,1:0:0:0:
48,29,177672,5,2,1:2:0:0:
120,70,177846,2,0,L|249:46,1,120,8|0,0:0|0:0,0:0:0:0:
320,30,178369,1,8,0:0:0:0:
320,30,179067,6,0,B|307:93|307:93|321:127|321:127|299:210,1,180,2|2,1:2|1:2,0:0:0:0:
351,270,179765,1,10,0:0:0:0:
351,270,180463,5,0,1:0:0:0:
292,330,180637,2,0,P|234:337|184:301,1,120,6|2,0:3|1:2,0:0:0:0:
170,221,181160,2,0,L|186:151,1,60,14|0,0:0|0:0,0:0:0:0:
157,129,181422,1,0,1:0:0:0:
157,129,181509,2,0,L|141:59,1,60,2|2,1:2|1:2,0:0:0:0:
67,34,181858,6,0,L|33:235,1,180,6|0,1:2|1:0,0:0:0:0:
93,274,182556,1,10,0:0:0:0:
93,274,183253,5,2,1:2:0:0:
166,232,183428,2,0,P|223:228|264:269,1,120,8|0,0:0|1:0,0:0:0:0:
308,341,183951,1,8,0:0:0:0:
308,341,184300,2,0,P|338:348|367:341,1,60,2|2,1:2|1:2,0:0:0:0:
410,268,184649,6,0,L|390:142,1,120,6|0,1:2|1:0,0:0:0:0:
424,72,185172,1,0,1:0:0:0:
361,15,185346,2,0,P|332:12|300:22,1,60,8|8,0:3|0:3,0:0:0:0:
234,69,185695,1,8,0:0:0:0:
156,36,185869,1,8,0:0:0:0:
74,71,186044,6,0,P|126:193|165:358,1,300,6|6,1:2|1:2,0:0:0:0:
43,66,199997,6,0,B|165:41|129:135|254:108,1,225,6|0,1:2|0:0,0:0:0:0:
340,20,201393,2,0,P|377:84|367:157,1,150,6|8,1:2|0:3,0:0:0:0:
367,157,202788,5,6,1:2:0:0:
292,262,203137,2,0,L|177:240,1,112.5,10|10,0:3|0:3,0:0:0:0:
98,281,203835,1,10,0:3:0:0:
16,153,204183,2,0,L|33:63,1,75,6|8,1:2|0:3,0:0:0:0:
86,6,204707,1,8,0:3:0:0:
159,70,204881,2,0,L|209:56,1,37.5,10|2,0:3|0:0,0:0:0:0:
276,11,205230,2,0,L|312:21,1,37.5,2|2,0:0|0:0,0:0:0:0:
380,70,205579,6,0,P|389:99|367:154,1,67.4999979400635,6|0,1:2|0:0,0:0:0:0:
313,189,205928,2,0,L|243:178,1,67.4999979400635,2|0,1:2|0:0,0:0:0:0:
173,226,206276,1,2,1:2:0:0:
103,171,206451,1,0,0:0:0:0:
48,239,206625,2,0,L|70:324,1,67.4999979400635,2|0,1:2|0:0,0:0:0:0:
134,355,206974,6,0,P|200:366|256:332,1,134.999995880127,2|0,1:2|1:0,0:0:0:0:
256,332,207672,2,0,L|244:256,1,67.4999979400635,2|2,1:2|0:0,0:0:0:0:
294,192,208021,2,0,L|306:116,1,67.4999979400635,2|0,1:2|0:0,0:0:0:0:
364,61,208369,5,14,0:0:0:0:
364,61,208718,2,0,P|396:52|428:60,1,67.4999979400635,0|0,1:2|1:0,0:0:0:0:
487,126,209067,2,0,L|470:196,1,67.4999979400635,8|8,0:3|0:3,0:0:0:0:
408,253,209416,1,8,0:0:0:0:
454,327,209590,1,8,0:0:0:0:
378,371,209765,5,14,0:0:0:0:
378,371,210463,2,0,L|304:361,1,67.4999979400635,2|2,1:2|1:2,0:0:0:0:
281,329,210724,1,0,1:2:0:0:
281,329,210811,2,0,L|207:319,1,67.4999979400635,10|8,0:0|0:0,0:0:0:0:
108,299,211160,6,0,L|129:145,1,123.75000377655,6|0,1:2|0:0,0:0:0:0:
92,133,211509,2,0,P|82:90|95:44,1,82.5000025177003,10|0,0:0|0:0,0:0:0:0:
197,87,211858,1,2,1:3:0:0:
252,0,212032,1,2,1:2:0:0:
336,67,212207,2,0,P|381:69|416:51,1,82.5000025177003,10|0,0:0|0:0,0:0:0:0:
512,8,212556,6,0,L|480:178,1,165.000005035401,2|8,1:2|0:0,0:0:0:0:
403,243,213079,1,0,0:0:0:0:
453,338,213253,2,0,P|407:350|363:338,1,82.5000025177003,2|2,1:2|1:2,0:0:0:0:
267,337,213602,2,0,P|280:291|313:259,1,82.5000025177003,10|0,0:0|0:0,0:0:0:0:
365,206,213951,6,0,L|341:68,1,123.75000377655,6|0,1:2|0:0,0:0:0:0:
305,47,214300,2,0,P|267:32|223:40,1,82.5000025177003,10|0,0:0|0:0,0:0:0:0:
182,67,214561,1,0,1:3:0:0:
182,67,214649,2,0,P|142:73|104:58,1,82.5000025177003,2|2,1:3|1:2,0:0:0:0:
18,0,214997,1,10,0:0:0:0:
18,0,215346,6,0,B|0:47|0:47|31:163,1,165.000005035401,2|8,1:2|0:0,0:0:0:0:
133,186,215869,1,0,0:0:0:0:
226,133,216043,2,0,P|265:123|307:138,1,82.5000025177003,2|2,1:2|1:2,0:0:0:0:
383,62,216393,2,0,P|422:52|464:67,1,82.5000025177003,10|0,0:0|0:0,0:0:0:0:
418,162,216741,6,0,L|399:262,1,82.5000025177003,6|0,1:2|0:0,0:0:0:0:
490,277,217090,2,0,L|508:377,1,82.5000025177003,10|0,0:0|0:0,0:0:0:0:
455,380,217352,1,0,1:3:0:0:
455,380,217439,2,0,P|415:384|378:368,1,82.5000025177003,2|0,1:3|1:0,0:0:0:0:
284,313,217788,2,0,P|243:310|206:326,1,82.5000025177003,10|0,0:0|0:0,0:0:0:0:
116,377,218137,6,0,B|147:333|147:333|110:205,1,165.000005035401,2|10,1:2|0:0,0:0:0:0:
90,121,218660,1,0,1:0:0:0:
90,121,218747,1,0,1:2:0:0:
90,121,218834,2,0,P|125:94|190:93,1,82.5000025177003,0|0,1:3|1:0,0:0:0:0:
265,116,219183,1,10,1:2:0:0:
358,69,219357,1,2,1:2:0:0:
428,149,219532,6,0,P|431:189|413:226,1,82.5000025177003,6|0,1:2|0:0,0:0:0:0:
386,331,219881,2,0,P|349:314|326:280,1,82.5000025177003,10|0,0:0|0:0,0:0:0:0:
257,198,220229,2,0,P|291:175|332:172,1,82.5000025177003,2|0,1:3|1:0,0:0:0:0:
413,227,220578,2,0,P|446:250|487:254,1,82.5000025177003,10|8,0:0|0:3,0:0:0:0:
512,210,220840,1,8,0:3:0:0:
512,210,220928,6,0,L|491:113,1,82.5000025177003,8|8,0:3|0:3,0:0:0:0:
439,37,221276,2,0,P|415:35|386:42,3,41.2500012588501,8|8|8|8,0:3|0:3|0:3|0:3,0:0:0:0:
354,70,221625,2,0,P|333:72|313:70,3,41.2500012588501,10|8|10|8,0:3|0:3|0:3|0:3,0:0:0:0:
272,35,221974,2,0,P|251:32|231:35,3,41.2500012588501,10|8|8|8,0:2|0:2|0:2|0:2,0:0:0:0:
184,63,222323,6,0,P|207:127|164:207,1,123.75000377655,6|0,1:2|0:0,0:0:0:0:
150,212,222672,2,0,L|168:296,1,82.5000025177003,10|0,0:0|0:0,0:0:0:0:
199,330,222934,1,0,1:3:0:0:
199,330,223021,2,0,P|243:336|281:321,1,82.5000025177003,2|2,1:3|1:2,0:0:0:0:
362,256,223370,2,0,P|401:243|441:250,1,82.5000025177003,10|0,0:0|0:0,0:0:0:0:
467,146,223718,6,0,P|400:138|304:168,1,165.000005035401,2|8,1:2|0:0,0:0:0:0:
215,213,224242,1,0,1:0:0:0:
215,213,224329,1,0,1:0:0:0:
215,213,224416,2,0,L|226:124,1,82.5000025177003,2|2,1:3|1:2,0:0:0:0:
160,45,224765,2,0,P|115:42|72:58,1,82.5000025177003,10|0,0:0|0:0,0:0:0:0:
45,158,225114,6,0,L|26:287,1,123.75000377655,6|0,1:2|0:0,0:0:0:0:
81,281,225463,2,0,L|93:367,1,82.5000025177003,10|0,0:0|0:0,0:0:0:0:
149,360,225724,1,0,1:3:0:0:
149,360,225811,2,0,P|192:347|233:355,1,82.5000025177003,2|2,1:3|1:2,0:0:0:0:
334,371,226160,1,10,0:0:0:0:
334,371,226509,6,0,P|356:294|321:217,1,165.000005035401,2|8,1:2|0:0,0:0:0:0:
253,136,227032,1,0,0:0:0:0:
204,232,227207,2,0,L|122:244,1,82.5000025177003,2|2,1:3|1:2,0:0:0:0:
166,342,227556,2,0,L|85:355,1,82.5000025177003,10|0,0:0|0:0,0:0:0:0:
16,275,227904,6,0,P|-12:220|-2:161,1,123.75000377655,6|0,1:2|0:0,0:0:0:0:
34,120,228253,2,0,L|116:108,1,82.5000025177003,10|0,0:0|0:0,0:0:0:0:
159,140,228515,1,0,1:3:0:0:
159,140,228602,2,0,L|241:128,1,82.5000025177003,2|2,1:3|1:2,0:0:0:0:
324,60,228951,2,0,P|346:96|345:138,1,82.5000025177003,10|0,0:0|0:0,0:0:0:0:
287,226,229300,6,0,B|349:233|349:233|382:212|382:212|458:223,1,165.000005035401,6|8,1:2|0:0,0:0:0:0:
433,329,229823,1,0,0:0:0:0:
338,377,229997,2,0,L|250:367,1,82.5000025177003,10|8,1:3|0:3,0:0:0:0:
215,331,230259,1,8,0:3:0:0:
215,331,230346,2,0,P|200:278|216:244,1,82.5000025177003,10|0,0:0|0:0,0:0:0:0:
279,172,230695,6,0,B|301:134|301:134|256:35,1,123.75000377655,6|0,1:2|0:0,0:0:0:0:
218,40,231044,2,0,P|194:41|162:60,3,41.2500012588501,8|8|8|8,0:3|0:3|0:3|0:3,0:0:0:0:
137,82,231393,2,0,P|117:88|97:89,3,41.2500012588501,8|8|8|8,0:0|0:0|0:0|0:0,0:0:0:0:
43,98,231742,2,0,L|54:138,3,41.2500012588501,8|8|8|8,0:0|0:0|0:0|0:0,0:0:0:0:
67,184,232090,5,14,0:0:0:0:
67,184,233486,6,0,L|41:318,1,120,2|0,0:0|0:0,0:0:0:0:
186,366,234183,2,0,P|244:367|289:329,1,120,2|0,0:0|0:0,0:0:0:0:
328,178,234881,1,2,0:0:0:0:
328,178,235928,2,0,L|341:118,2,40,2|2|2,0:0|0:0|0:0,0:0:0:0:
310,110,236276,6,0,B|248:98|248:98|220:109|220:109|164:98,1,150,6|8,1:2|0:0,0:0:0:0:
58,98,236800,1,0,1:0:0:0:
58,98,236887,1,0,1:0:0:0:
58,98,236974,1,0,1:0:0:0:
130,173,237148,1,0,1:0:0:0:
115,277,237323,2,0,P|153:276|188:252,1,75,10|0,0:0|0:0,0:0:0:0:
284,226,237672,6,0,B|297:283|297:283|259:382,1,150,2|10,1:2|0:0,0:0:0:0:
368,379,238195,1,0,0:0:0:0:
450,324,238369,2,0,P|461:288|458:251,1,75,0|0,1:0|1:0,0:0:0:0:
405,159,238718,2,0,P|402:121|413:86,1,75,10|0,0:0|0:0,0:0:0:0:
339,13,239067,6,0,P|284:5|235:31,1,112.5,6|0,1:2|0:0,0:0:0:0:
210,79,239416,2,0,L|231:163,1,75,8|0,0:0|0:0,0:0:0:0:
266,187,239677,1,0,1:0:0:0:
266,187,239764,2,0,L|245:271,1,75,0|0,1:0|1:0,0:0:0:0:
164,324,240113,1,10,0:0:0:0:
63,292,240288,1,2,0:0:0:0:
120,204,240462,6,0,L|89:44,1,150,2|10,1:2|0:0,0:0:0:0:
187,12,240985,1,0,1:0:0:0:
276,67,241160,2,0,P|316:67|352:49,1,75,2|0,1:2|1:0,0:0:0:0:
446,13,241509,1,10,0:0:0:0:
446,13,241857,6,0,B|423:83|423:83|458:142,1,112.5,6|0,1:2|0:0,0:0:0:0:
445,169,242206,2,0,P|410:184|358:171,1,75,10|0,0:0|0:0,0:0:0:0:
329,157,242468,1,0,1:3:0:0:
329,157,242555,2,0,P|295:142|258:146,1,75,2|0,1:2|1:0,0:0:0:0:
165,95,242904,2,0,L|150:9,1,75,8|0,0:0|0:0,0:0:0:0:
57,65,243253,6,0,L|85:227,1,150,2|8,1:2|0:0,0:0:0:0:
20,298,243776,2,0,L|32:371,1,75,0|2,1:0|1:2,0:0:0:0:
140,384,244125,1,0,1:0:0:0:
207,303,244299,2,0,P|246:298|290:321,1,75,10|0,0:0|0:0,0:0:0:0:
355,383,244648,6,0,B|321:334|321:334|362:237,1,150,6|8,1:2|0:0,0:0:0:0:
411,161,245171,1,0,1:0:0:0:
453,64,245346,2,0,P|418:53|382:61,1,75,2|2,1:2|1:2,0:0:0:0:
302,130,245695,1,10,0:0:0:0:
302,130,246044,6,0,L|220:117,1,75,6|8,1:2|0:3,0:0:0:0:
179,138,246306,1,8,0:3:0:0:
179,138,246393,2,0,L|115:126,3,37.5,8|8|8|8,0:3|0:3|0:3|0:3,0:0:0:0:
93,151,246742,2,0,P|71:198|86:239,1,75,2|2,1:2|1:2,0:0:0:0:
141,299,247090,1,2,1:2:0:0:
75,381,247265,1,14,0:0:0:0:
