osu file format v14

[General]
AudioFilename: audio.mp3
AudioLeadIn: 0
PreviewTime: 188825
Countdown: 0
SampleSet: Soft
StackLeniency: 0.7
Mode: 0
LetterboxInBreaks: 0
WidescreenStoryboard: 1

[Editor]
Bookmarks: 66034,67429,131615,132313,188825,199987,209755,210453,232080,232168,232255,232342,232429,232516,232604,232691,232778,232865,232953,233040,233127,233214,233301,233389,233476,234871,234958,235046,235133,235220,235307,235394,235482,235569,235656,235743,235830,235918,247255
DistanceSpacing: 1
BeatDivisor: 4
GridSize: 32
TimelineZoom: 1.8

[Metadata]
Title:Otome-domo yo.
TitleUnicode:乙女どもよ。
Artist:CHiCO with HoneyWorks
ArtistUnicode:CHiCO with HoneyWorks
Creator:-[Shady]-
Version:AIR's Insane
Source:荒ぶる季節の乙女どもよ。
Tags:anime japanese j-pop jpop pop op opening full ver version Araburu Kisetsu no O Maidens in Your Savage Season 小林修己 Naoki Kobayashi 中西 Nakanishi 宮本耕三 Kozo Miyamoto 田宮 空 Sora Tamiya AIR Stixy
BeatmapID:2319420
BeatmapSetID:1109660

[Difficulty]
HPDrainRate:5
CircleSize:4
OverallDifficulty:8
ApproachRate:9
SliderMultiplier:1.7
SliderTickRate:1

[Events]
//Background and Video events
0,0,"Araburu.jpg",0,0
//Break Periods
2,89965,97363
//Storyboard Layer 0 (Background)
//Storyboard Layer 1 (Fail)
//Storyboard Layer 2 (Pass)
//Storyboard Layer 3 (Foreground)
//Storyboard Layer 4 (Overlay)
//Storyboard Sound Samples

[TimingPoints]
463,348.837209302326,4,2,1,45,1,0
811,-125,4,2,1,45,0,0
11625,-125,4,2,1,60,0,0
12672,-125,4,2,1,50,0,0
13021,-125,4,2,1,60,0,0
14067,-125,4,2,1,50,0,0
14416,-125,4,2,1,60,0,0
14765,-125,4,2,2,50,0,0
15811,-125,4,2,1,60,0,0
16160,-125,4,2,2,50,0,0
17119,-125,4,2,2,5,0,0
17207,-100,4,2,1,60,0,0
17556,-100,4,2,1,55,0,0
18602,-100,4,2,1,60,0,0
18951,-100,4,2,1,55,0,0
19997,-100,4,2,1,60,0,0
20346,-100,4,2,1,55,0,0
20695,-100,4,2,2,55,0,0
21044,-100,4,2,1,55,0,0
21393,-100,4,2,1,60,0,0
21742,-100,4,2,2,60,0,0
22090,-100,4,2,1,60,0,0
22352,-100,4,2,1,5,0,0
22439,-71.4285714285714,4,2,1,60,0,0
22701,-71.4285714285714,4,2,1,5,0,0
22788,-83.3333333333333,4,2,1,75,0,1
24445,-83.3333333333333,4,2,1,5,0,1
24532,-83.3333333333333,4,2,1,75,0,1
27236,-83.3333333333333,4,2,1,5,0,1
27323,-83.3333333333333,4,2,1,75,0,1
31422,-83.3333333333333,4,2,1,5,0,1
31509,-83.3333333333333,4,2,1,75,0,1
33951,-100,4,2,1,50,0,0
42585,-100,4,2,1,5,0,0
42672,-100,4,2,1,50,0,0
44765,-100,4,2,2,50,0,0
44852,-100,4,2,2,5,0,0
44939,-100,4,2,2,50,0,0
45026,-100,4,2,2,5,0,0
45114,-100,4,2,1,55,0,0
50608,-100,4,2,1,5,0,0
50695,-100,4,2,1,55,0,0
53486,-100,4,2,1,60,0,0
55579,-100,4,2,2,55,0,0
56276,-100,4,2,1,50,0,0
62119,-100,4,2,1,5,0,0
62207,-100,4,2,1,50,0,0
64649,-100,4,2,1,60,0,0
64997,-100,4,2,1,65,0,0
65346,-100,4,2,2,70,0,0
65695,-100,4,2,1,75,0,0
66044,-100,4,2,1,80,0,0
67439,-83.3333333333333,4,2,1,85,0,1
67701,-83.3333333333333,4,2,1,5,0,1
67788,-83.3333333333333,4,2,1,85,0,1
70492,-83.3333333333333,4,2,1,5,0,1
70579,-83.3333333333333,4,2,1,85,0,1
76073,-83.3333333333333,4,2,1,5,0,1
76160,-83.3333333333333,4,2,1,85,0,1
77904,-83.3333333333333,4,2,2,85,0,1
78602,-83.3333333333333,4,2,1,85,0,1
78864,-83.3333333333333,4,2,1,5,0,1
78951,-83.3333333333333,4,2,1,85,0,1
81306,-83.3333333333333,4,2,1,5,0,1
81393,-83.3333333333333,4,2,1,85,0,1
84096,-83.3333333333333,4,2,1,5,0,1
84183,-83.3333333333333,4,2,1,85,0,1
87323,-83.3333333333333,4,2,2,85,0,1
87672,-83.3333333333333,4,2,1,85,0,1
88369,-83.3333333333333,4,2,1,75,0,0
96131,-83.3333333333333,4,2,1,5,0,0
96218,-83.3333333333333,4,2,1,75,0,0
96306,-83.3333333333333,4,2,1,5,0,0
96393,-83.3333333333333,4,2,1,75,0,0
98137,-83.3333333333333,4,2,2,75,0,0
98835,-83.3333333333333,4,2,1,75,0,0
99532,-100,4,2,1,55,0,0
107556,-100,4,2,1,55,0,0
110346,-100,4,2,2,55,0,0
110433,-100,4,2,2,5,0,0
110521,-100,4,2,2,55,0,0
110608,-100,4,2,2,5,0,0
110695,-100,4,2,1,55,0,0
113747,-100,4,2,1,5,0,0
113835,-100,4,2,1,55,0,0
115143,-100,4,2,1,5,0,0
115231,-100,4,2,1,55,0,0
116189,-100,4,2,1,5,0,0
116277,-100,4,2,1,55,0,0
119067,-100,4,2,1,60,0,0
119329,-100,4,2,1,5,0,0
119416,-100,4,2,1,60,0,0
121160,-100,4,2,2,55,0,0
121509,-100,4,2,1,55,0,0
121858,-100,4,2,1,50,0,0
122381,-100,4,2,2,50,0,0
122556,-100,4,2,1,50,0,0
123428,-100,4,2,2,50,0,0
123602,-100,4,2,1,50,0,0
124910,-100,4,2,1,5,0,0
124997,-100,4,2,1,50,0,0
125172,-100,4,2,2,50,0,0
125346,-100,4,2,1,50,0,0
126218,-100,4,2,2,50,0,0
126567,-100,4,2,1,50,0,0
127701,-100,4,2,1,5,0,0
127788,-100,4,2,1,50,0,0
127963,-100,4,2,2,50,0,0
128137,-100,4,2,1,50,0,0
129009,-100,4,2,2,50,0,0
129358,-100,4,2,1,50,0,0
130230,-100,4,2,1,60,0,0
130579,-100,4,2,1,65,0,0
130928,-100,4,2,2,70,0,0
131276,-100,4,2,1,75,0,0
131625,-100,4,2,1,80,0,0
132323,-100,4,2,1,70,0,0
132672,-100,4,2,1,80,0,0
133021,-83.3333333333333,4,2,1,85,0,1
133282,-83.3333333333333,4,2,1,5,0,1
133369,-83.3333333333333,4,2,1,85,0,1
136073,-83.3333333333333,4,2,1,5,0,1
136160,-83.3333333333333,4,2,1,85,0,1
140608,-83.3333333333333,4,2,1,5,0,1
140695,-83.3333333333333,4,2,1,85,0,1
141654,-83.3333333333333,4,2,1,5,0,1
141741,-83.3333333333333,4,2,1,85,0,1
143486,-83.3333333333333,4,2,2,85,0,1
144183,-83.3333333333333,4,2,1,85,0,1
144445,-83.3333333333333,4,2,1,5,0,1
144532,-83.3333333333333,4,2,1,85,0,1
147236,-83.3333333333333,4,2,1,5,0,1
147323,-83.3333333333333,4,2,1,85,0,1
149678,-83.3333333333333,4,2,1,5,0,1
149765,-83.3333333333333,4,2,1,85,0,1
152119,-83.3333333333333,4,2,1,5,0,1
152206,-83.3333333333333,4,2,1,85,0,1
153253,-83.3333333333333,4,2,2,85,0,1
153951,-100,4,2,1,85,0,0
154997,-100,4,2,1,50,0,0
156393,-100,4,2,2,50,0,0
156480,-100,4,2,2,5,0,0
156742,-100,4,2,1,50,0,0
157090,-100,4,2,2,50,0,0
157963,-100,4,2,1,50,0,0
158486,-100,4,2,2,50,0,0
159532,-100,4,2,1,50,0,0
162323,-100,4,2,1,55,0,0
163369,-100,4,2,1,60,0,0
163718,-100,4,2,1,65,0,0
165114,-166.666666666667,4,2,1,65,0,0
165375,-166.666666666667,4,2,1,5,0,0
165463,-83.3333333333333,4,2,1,70,0,0
165724,-83.3333333333333,4,2,1,5,0,0
165811,-83.3333333333333,4,2,1,70,0,0
175579,-83.3333333333333,4,2,2,70,0,0
176276,-100,4,2,1,50,0,0
179329,-100,4,2,1,5,0,0
179416,-100,4,2,1,50,0,0
180026,-100,4,2,1,5,0,0
180113,-100,4,2,1,50,0,0
184649,-100,4,2,1,60,0,0
184997,-100,4,2,1,65,0,0
185346,-100,4,2,2,70,0,0
185695,-100,4,2,1,75,0,0
186044,-100,4,2,1,80,0,0
187439,-100,4,2,1,35,0,0
188835,-125,4,2,1,35,0,0
194678,-125,4,2,1,5,0,0
194765,-125,4,2,1,35,0,0
195026,-125,4,2,1,5,0,0
195114,-125,4,2,1,35,0,0
195375,-125,4,2,1,5,0,0
195463,-125,4,2,1,35,0,0
195724,-125,4,2,1,5,0,0
195811,-125,4,2,1,35,0,0
199997,-125,4,2,1,55,0,0
202090,-125,4,2,2,55,0,0
202788,-125,4,2,1,55,0,0
203137,-125,4,2,2,55,0,0
205230,-125,4,2,1,55,0,0
205579,-100,4,2,1,60,0,0
208282,-100,4,2,1,5,0,0
208369,-100,4,2,1,65,0,0
208718,-100,4,2,1,70,0,0
209067,-100,4,2,2,75,0,0
209416,-100,4,2,1,80,0,0
209765,-100,4,2,1,85,0,0
211160,-83.3333333333333,4,2,1,85,0,1
211422,-83.3333333333333,4,2,1,5,0,1
211509,-83.3333333333333,4,2,1,85,0,1
214213,-83.3333333333333,4,2,1,5,0,1
214300,-83.3333333333333,4,2,1,85,0,1
215608,-83.3333333333333,4,2,1,5,0,1
215695,-83.3333333333333,4,2,1,85,0,1
219794,-83.3333333333333,4,2,1,5,0,1
219881,-83.3333333333333,4,2,1,85,0,1
220753,-83.3333333333333,4,2,2,85,0,1
221974,-83.3333333333333,4,2,1,85,0,1
222585,-83.3333333333333,4,2,1,5,0,1
222672,-83.3333333333333,4,2,1,85,0,1
223980,-83.3333333333333,4,2,1,5,0,1
224067,-83.3333333333333,4,2,1,85,0,1
225375,-83.3333333333333,4,2,1,5,0,1
225462,-83.3333333333333,4,2,1,85,0,1
228166,-83.3333333333333,4,2,1,5,0,1
228253,-83.3333333333333,4,2,1,85,0,1
229997,-83.3333333333333,4,2,2,85,0,1
230346,-83.3333333333333,4,2,1,85,0,1
231044,-83.3333333333333,4,2,2,85,0,1
231393,-83.3333333333333,4,2,1,85,0,1
232090,-100,4,2,1,45,0,0
236276,-83.3333333333333,4,2,1,75,0,1
236538,-83.3333333333333,4,2,1,5,0,1
236625,-83.3333333333333,4,2,1,75,0,1
237933,-83.3333333333333,4,2,1,5,0,1
238020,-83.3333333333333,4,2,1,75,0,1
239329,-83.3333333333333,4,2,1,5,0,1
239416,-83.3333333333333,4,2,1,75,0,1
240724,-83.3333333333333,4,2,1,5,0,1
240811,-83.3333333333333,4,2,1,75,0,1
243515,-83.3333333333333,4,2,1,5,0,1
243602,-83.3333333333333,4,2,1,75,0,1
246218,-83.3333333333333,4,2,2,75,0,1
246742,-83.3333333333333,4,2,1,75,0,1
247265,-166.666666666667,4,2,1,75,0,0

[Colours]
Combo1 : 234,236,136
Combo2 : 117,255,117
Combo3 : 235,139,137
Combo4 : 136,236,221

[HitObjects]
166,144,1160,6,0,L|90:142,2,68,2|2|2,0:0|0:0|0:0,0:0:0:0:
98,142,1858,2,0,L|247:134,1,136,2|0,0:0|0:0,0:0:0:0:
346,240,2556,6,0,L|422:242,2,68,2|2|2,0:0|0:0|0:0,0:0:0:0:
414,242,3254,2,0,L|265:250,1,136,2|0,0:0|0:0,0:0:0:0:
258,356,3951,5,2,0:0:0:0:
100,245,4300,1,2,0:0:0:0:
156,60,4649,1,2,0:0:0:0:
350,56,4997,1,2,0:0:0:0:
413,240,5346,1,2,0:0:0:0:
100,245,5695,1,2,0:0:0:0:
255,114,6044,2,0,B|260:146|260:146|251:168|251:168|258:186|258:186|257:272,1,136,2|0,0:0|0:0,0:0:0:0:
72,83,6742,6,0,P|91:58|137:38,2,68,2|2|2,0:0|0:0|0:0,0:0:0:0:
122,40,7439,2,0,P|80:85|87:163,1,136,2|2,0:0|0:0,0:0:0:0:
440,301,8137,6,0,P|421:326|375:346,2,68,2|0|2,0:0|0:0|0:0,0:0:0:0:
390,344,8834,2,0,P|432:299|425:221,1,136,2|0,0:0|0:0,0:0:0:0:
195,213,9532,2,0,L|278:212,2,68,2|2|2,0:0|0:0|0:0,0:0:0:0:
375,133,10230,5,2,0:0:0:0:
137,133,10579,1,2,0:0:0:0:
256,335,10928,1,2,0:0:0:0:
299,266,11276,1,2,0:0:0:0:
213,266,11451,1,0,0:0:0:0:
256,335,11625,1,6,1:2:0:0:
408,64,12672,6,0,L|503:62,1,68,2|0,0:0|0:2,0:0:0:0:
408,64,13021,1,6,1:2:0:0:
104,320,14067,6,0,L|9:322,1,68,2|0,1:2|0:0,0:0:0:0:
104,320,14416,1,6,1:2:0:0:
314,230,14765,2,0,B|388:222|388:222|432:241|463:246,1,136,10|2,0:3|0:0,0:0:0:0:
446,242,15288,1,10,0:3:0:0:
29,68,15811,1,6,1:2:0:0:
337,46,16160,1,10,0:3:0:0:
255,138,16335,1,8,0:3:0:0:
255,138,16422,1,8,0:3:0:0:
255,138,16509,1,10,0:3:0:0:
175,46,16683,1,8,0:3:0:0:
255,138,16858,2,0,L|255:251,1,102,10|0,0:3|0:0,0:0:0:0:
303,264,17207,6,0,P|345:284|402:266,1,85,6|0,1:2|0:0,0:0:0:0:
432,220,17556,2,0,P|390:200|333:218,1,85,2|0,1:2|0:0,0:0:0:0:
209,264,17904,2,0,P|167:284|110:266,1,85,2|0,1:2|0:0,0:0:0:0:
80,220,18253,2,0,P|122:200|179:218,1,85,2|2,1:2|0:0,0:0:0:0:
158,205,18515,1,2,0:0:0:0:
158,205,18602,2,0,L|151:102,1,85,6|0,1:2|0:0,0:0:0:0:
212,53,18951,2,0,L|312:53,1,85,2|0,1:2|0:0,0:0:0:0:
359,120,19300,2,0,L|354:205,1,85,2|0,1:2|0:0,0:0:0:0:
297,270,19649,2,0,L|212:270,1,85,2|0,1:2|0:0,0:0:0:0:
161,337,19997,5,14,1:2:0:0:
161,337,20172,1,0,1:0:0:0:
351,337,20346,1,2,1:2:0:0:
351,337,20521,1,2,1:2:0:0:
256,193,20695,1,10,1:3:0:0:
256,308,20869,1,10,1:3:0:0:
358,149,21044,1,10,1:2:0:0:
154,149,21218,1,10,2:0:0:0:
256,193,21393,5,14,1:2:0:0:
269,194,21480,1,0,1:0:0:0:
281,195,21567,1,0,1:0:0:0:
293,196,21654,1,0,1:3:0:0:
305,197,21742,1,8,0:3:0:0:
474,170,21916,1,8,0:3:0:0:
373,26,22090,2,0,L|219:56,1,127.5,6|0,1:2|0:0,0:0:0:0:
194,82,22439,6,0,P|144:63|215:35,1,178.499994552612,6|0,1:2|0:0,0:0:0:0:
188,96,22788,6,0,B|144:95|118:48|118:48|79:108|-23:98,1,203.999993774414,6|8,1:2|0:0,0:0:0:0:
37,191,23311,1,6,0:3:0:0:
67,189,23399,1,0,1:0:0:0:
97,187,23486,1,0,1:0:0:0:
159,324,23660,1,0,1:0:0:0:
56,297,23835,2,0,B|15:322|15:322|23:261,1,101.999996887207,10|0,0:0|0:0,0:0:0:0:
217,247,24183,6,0,B|306:251|306:251|348:277|383:293,1,152.999995330811,6|0,1:2|0:0,0:0:0:0:
426,288,24532,2,0,P|457:273|410:257,1,101.999996887207,8|4,0:0|0:3,0:0:0:0:
290,343,24881,1,2,1:2:0:0:
290,343,25056,1,0,1:0:0:0:
360,197,25230,2,0,L|355:77,1,101.999996887207,10|0,0:0|0:0,0:0:0:0:
219,74,25579,6,0,B|156:29|79:108|199:215,1,203.999993774414,6|8,1:2|0:0,0:0:0:0:
255,166,26102,1,4,0:3:0:0:
255,166,26189,1,0,1:0:0:0:
255,166,26276,1,0,1:0:0:0:
90,215,26451,1,0,1:0:0:0:
208,323,26625,2,0,L|317:342,1,101.999996887207,10|2,0:0|1:2,0:0:0:0:
156,353,26974,6,0,L|312:340,1,152.999995330811,6|0,1:2|0:0,0:0:0:0:
366,335,27323,2,0,B|410:366|410:366|401:313,1,101.999996887207,10|4,0:0|0:3,0:0:0:0:
312,227,27672,2,0,B|263:249|263:249|313:268,1,101.999996887207,2|0,1:2|1:0,0:0:0:0:
431,228,28021,2,0,B|435:174|435:174|394:208,1,101.999996887207,8|0,0:0|0:0,0:0:0:0:
398,205,28282,1,0,1:0:0:0:
398,205,28369,6,0,B|485:200|485:200|503:77,1,203.999993774414,6|8,1:2|0:0,0:0:0:0:
401,57,28893,1,4,0:3:0:0:
401,57,28980,1,0,1:0:0:0:
401,57,29067,1,2,1:2:0:0:
512,5,29242,1,0,1:0:0:0:
328,86,29416,2,0,L|225:86,1,101.999996887207,8|0,0:0|0:0,0:0:0:0:
118,33,29765,6,0,B|15:22|15:22|28:128,1,203.999993774414,6|8,1:2|0:0,0:0:0:0:
142,189,30288,1,4,0:3:0:0:
128,46,30463,2,0,L|10:35,1,101.999996887207,2|0,1:2|1:0,0:0:0:0:
142,189,30811,2,0,L|260:200,1,101.999996887207,10|0,0:0|0:0,0:0:0:0:
43,244,31160,6,0,P|23:304|115:288,1,152.999995330811,6|0,1:2|0:0,0:0:0:0:
146,304,31509,2,0,P|183:288|223:364,1,101.999996887207,8|4,0:0|0:3,0:0:0:0:
173,382,31858,1,2,1:2:0:0:
173,382,32032,1,2,1:2:0:0:
313,265,32207,1,10,0:0:0:0:
142,189,32381,1,0,1:0:0:0:
256,364,32556,5,14,0:0:0:0:
370,189,32730,1,0,1:0:0:0:
199,265,32904,1,0,1:3:0:0:
313,265,33079,1,0,1:0:0:0:
303,265,33166,1,0,1:0:0:0:
293,265,33253,1,8,1:2:0:0:
289,98,33428,1,0,1:0:0:0:
319,98,33515,1,0,1:0:0:0:
349,98,33602,1,0,1:0:0:0:
379,98,33689,1,0,1:0:0:0:
409,98,33776,1,0,1:0:0:0:
512,161,33951,6,0,B|521:112|521:112|512:92|512:92|515:68|515:68|445:14,2,170,6|8|0,1:2|0:0|0:0,0:0:0:0:
385,212,34823,1,2,1:2:0:0:
492,299,34997,2,0,L|505:394,1,85,10|2,0:0|0:0,0:0:0:0:
344,316,35346,2,0,B|278:342|278:342|250:313|250:313|274:244,1,170,2|8,1:2|0:0,0:0:0:0:
192,217,35869,1,0,1:0:0:0:
192,217,35957,1,0,1:0:0:0:
192,217,36044,1,2,1:2:0:0:
262,154,36218,1,0,1:0:0:0:
283,254,36393,2,0,L|247:355,1,85,8|0,0:0|0:0,0:0:0:0:
115,364,36742,6,0,B|63:350|63:350|53:328|53:328|33:318|33:318|13:244,1,170,6|8,1:2|0:0,0:0:0:0:
101,168,37265,1,0,1:0:0:0:
101,168,37352,1,0,1:0:0:0:
101,168,37439,1,0,1:0:0:0:
5,115,37614,1,2,1:2:0:0:
95,73,37788,2,0,L|108:-13,1,85,10|2,0:2|0:0,0:0:0:0:
224,67,38137,6,0,B|340:27|279:124|408:72,1,170,2|8,1:2|0:0,0:0:0:0:
264,144,38660,1,2,0:0:0:0:
367,4,38835,1,2,1:2:0:0:
367,4,39009,1,0,1:0:0:0:
445,168,39183,2,0,L|451:266,1,85,10|2,0:0|0:0,0:0:0:0:
407,372,39532,6,0,P|351:340|339:218,1,170,6|8,1:2|0:0,0:0:0:0:
243,220,40056,1,0,1:0:0:0:
243,220,40143,1,0,1:0:0:0:
243,220,40230,1,2,1:2:0:0:
131,315,40404,1,2,1:2:0:0:
190,369,40579,2,0,P|214:306|186:262,1,85,10|2,0:0|0:0,0:0:0:0:
41,190,40928,6,0,B|26:146|26:146|29:130|29:130|20:114|20:114|48:19,2,170,2|10|2,1:2|0:0|1:2,0:0:0:0:
209,66,41800,1,0,1:0:0:0:
283,104,41974,2,0,L|274:190,1,85,10|0,0:0|0:0,0:0:0:0:
438,109,42323,6,0,L|422:260,1,127.5,6|0,1:2|0:0,0:0:0:0:
461,291,42672,2,0,P|501:272|494:217,1,85,8|2,0:0|0:0,0:0:0:0:
354,193,43021,1,2,1:2:0:0:
354,193,43195,1,0,1:2:0:0:
256,297,43369,2,0,P|216:278|223:223,1,85,8|0,0:0|1:2,0:0:0:0:
13,193,43718,5,2,1:2:0:0:
120,305,43893,1,0,1:0:0:0:
172,160,44067,1,10,0:0:0:0:
104,219,44242,1,0,0:0:0:0:
256,297,44416,1,2,1:2:0:0:
408,219,44590,1,0,1:0:0:0:
408,219,44678,1,0,1:0:0:0:
408,219,44765,2,0,L|472:219,1,42.5,8|0,0:3|0:0,0:0:0:0:
332,145,44939,2,0,L|390:145,1,42.5,8|0,0:3|0:0,0:0:0:0:
511,168,45114,6,0,P|531:73|455:18,2,170,6|8|0,1:2|0:0|0:0,0:0:0:0:
447,102,45986,1,2,1:2:0:0:
374,152,46160,2,0,L|283:160,1,85,8|2,0:0|0:0,0:0:0:0:
173,58,46509,2,0,B|155:109|100:103|100:103|104:38|38:22,1,170,2|8,1:2|0:0,0:0:0:0:
12,98,47032,1,2,0:0:0:0:
139,208,47207,1,2,1:2:0:0:
139,208,47381,1,0,1:0:0:0:
29,282,47556,2,0,L|20:377,1,85,8|0,0:0|0:0,0:0:0:0:
172,362,47904,6,0,B|185:309|185:309|244:280|244:280|274:353,1,170,6|8,1:2|0:0,0:0:0:0:
370,329,48428,1,2,0:0:0:0:
250,336,48602,2,0,L|217:250,1,85,0|2,1:0|1:2,0:0:0:0:
348,255,48951,2,0,L|381:169,1,85,10|2,0:0|0:0,0:0:0:0:
428,58,49300,2,0,B|445:26|445:26|496:117|496:117|499:164,1,170,2|8,1:2|0:0,0:0:0:0:
461,225,49823,1,2,0:0:0:0:
378,175,49997,2,0,L|274:178,1,85,2|0,1:2|1:0,0:0:0:0:
194,124,50346,6,0,B|171:49|171:49|235:73,1,127.5,10|0,0:0|0:0,0:0:0:0:
235,73,50695,2,0,B|220:160|220:160|182:197|163:257,1,170,6|10,1:2|0:0,0:0:0:0:
278,266,51218,1,2,1:2:0:0:
278,266,51306,1,0,1:2:0:0:
278,266,51393,1,0,1:2:0:0:
73,287,51567,1,2,1:2:0:0:
79,191,51742,2,0,L|75:102,1,85,10|2,0:0|0:0,0:0:0:0:
0,277,52090,6,0,B|60:264|60:264|81:281|81:281|104:276|104:276|177:314,2,170,2|10|2,1:2|0:0|1:2,0:0:0:0:
93,375,52963,1,0,1:0:0:0:
231,350,53137,2,0,B|268:324|268:324|235:262,1,85,10|0,0:0|0:0,0:0:0:0:
356,302,53486,6,0,B|408:276|408:276|431:281|431:281|452:264|452:264|512:277,1,170,6|8,1:2|0:0,0:0:0:0:
419,375,54009,1,2,0:0:0:0:
315,231,54183,2,0,L|309:135,1,85,6|0,1:2|1:0,0:0:0:0:
400,122,54532,2,0,P|425:174|383:209,1,85,8|0,0:0|0:0,0:0:0:0:
254,82,54881,5,14,1:2:0:0:
254,82,55056,1,0,1:0:0:0:
149,16,55230,1,0,1:0:0:0:
363,16,55404,1,0,1:0:0:0:
363,16,55492,1,0,1:2:0:0:
363,16,55579,1,8,0:3:0:0:
189,140,55753,1,8,0:3:0:0:
305,242,55928,2,0,P|262:277|262:334,1,85,8|8,0:3|0:3,0:0:0:0:
339,317,56276,6,0,L|160:251,1,170,6|2,1:2|0:0,0:0:0:0:
83,291,56800,1,0,1:0:0:0:
178,327,56974,2,0,L|337:268,1,170,10|2,0:0|0:0,0:0:0:0:
429,291,57497,1,0,1:0:0:0:
429,291,57585,1,0,1:0:0:0:
429,291,57672,5,2,1:2:0:0:
487,192,57846,2,0,L|499:94,1,85,8|0,0:0|0:0,0:0:0:0:
374,171,58195,1,0,1:0:0:0:
374,171,58369,2,0,L|386:73,1,85,8|0,0:0|0:0,0:0:0:0:
444,13,58718,2,0,B|487:7|487:7|460:45,1,85,2|2,0:0|0:0,0:0:0:0:
298,106,59067,6,0,B|230:111|230:111|200:65|200:65|262:9,1,170,2|0,1:2|0:0,0:0:0:0:
292,187,59590,1,2,1:2:0:0:
253,45,59765,2,0,L|156:81,1,85,10|0,0:0|0:0,0:0:0:0:
8,62,60114,1,2,0:0:0:0:
81,120,60288,1,0,1:0:0:0:
81,120,60375,1,0,1:0:0:0:
81,120,60463,5,6,1:2:0:0:
146,171,60637,2,0,L|158:266,1,85,10|0,0:0|0:0,0:0:0:0:
35,249,60986,1,0,1:0:0:0:
35,249,61160,2,0,L|47:344,1,85,8|0,0:0|0:0,0:0:0:0:
186,377,61509,1,2,1:2:0:0:
186,377,61683,1,2,1:2:0:0:
276,293,61858,6,0,P|308:266|407:282,1,127.5,6|0,1:2|0:0,0:0:0:0:
430,300,62207,2,0,P|465:330|513:325,1,85,2|0,0:0|1:0,0:0:0:0:
332,235,62556,2,0,P|294:258|274:300,1,85,10|0,0:0|0:0,0:0:0:0:
423,188,62904,2,0,P|444:152|446:110,1,85,2|0,1:2|1:0,0:0:0:0:
411,68,63166,1,0,1:0:0:0:
411,68,63253,5,2,1:2:0:0:
243,112,63428,2,0,L|341:130,2,85,8|0|0,0:0|0:0|1:0,0:0:0:0:
185,15,63951,1,8,0:0:0:0:
79,56,64125,1,8,0:2:0:0:
79,56,64213,1,8,0:2:0:0:
79,56,64300,1,8,0:2:0:0:
65,159,64474,1,0,1:0:0:0:
174,198,64649,6,0,B|217:208|217:208|230:252|230:252|157:309,1,170,6|0,1:2|1:0,0:0:0:0:
309,335,65172,1,0,1:0:0:0:
228,377,65346,1,8,0:3:0:0:
387,294,65521,1,8,0:3:0:0:
174,198,65695,1,8,0:0:0:0:
333,115,65869,1,8,0:0:0:0:
306,256,66044,5,14,0:0:0:0:
306,256,66742,2,0,P|352:220|395:228,2,85,2|2|2,0:0|0:0|0:0,0:0:0:0:
255,153,67265,1,2,0:0:0:0:
255,153,67352,1,2,0:0:0:0:
255,153,67439,6,0,P|179:142|144:54,1,152.999995330811,6|0,1:2|0:0,0:0:0:0:
162,25,67788,2,0,L|37:42,1,101.999996887207,10|0,0:0|0:0,0:0:0:0:
14,46,68050,1,0,1:3:0:0:
14,46,68137,1,2,1:3:0:0:
83,134,68311,1,2,1:2:0:0:
8,225,68486,2,0,L|117:234,1,101.999996887207,10|0,0:0|0:0,0:0:0:0:
121,370,68835,6,0,B|123:294|203:276|203:276|225:322|274:349,1,203.999993774414,2|8,1:2|0:0,0:0:0:0:
372,354,69358,1,0,0:0:0:0:
323,222,69532,1,2,1:2:0:0:
323,222,69707,1,2,1:2:0:0:
372,354,69881,2,0,L|477:351,1,101.999996887207,10|0,0:0|0:0,0:0:0:0:
497,204,70230,6,0,B|505:141|505:141|482:102|482:102|414:126,1,152.999995330811,6|0,1:2|0:0,0:0:0:0:
403,126,70579,2,0,B|363:140|363:140|374:68,1,101.999996887207,10|0,0:0|0:0,0:0:0:0:
379,33,70840,1,0,1:3:0:0:
379,33,70928,1,2,1:3:0:0:
425,197,71102,1,2,1:2:0:0:
282,95,71276,2,0,P|252:128|191:112,1,101.999996887207,10|0,0:0|0:0,0:0:0:0:
33,48,71625,6,0,B|-11:36|-11:36|90:-2|163:73,2,203.999993774414,2|8|2,1:2|0:0|1:2,0:0:0:0:
221,48,72497,1,2,1:2:0:0:
146,194,72672,2,0,L|126:303,1,101.999996887207,10|0,0:0|0:0,0:0:0:0:
52,365,73021,6,0,B|1:367|1:367|38:308,1,101.999996887207,6|0,1:2|0:0,0:0:0:0:
195,337,73369,2,0,L|296:326,1,101.999996887207,10|0,0:0|0:0,0:0:0:0:
342,340,73631,1,0,1:3:0:0:
370,345,73718,2,0,B|421:347|421:347|384:288,1,101.999996887207,2|0,1:2|1:0,0:0:0:0:
364,170,74067,2,0,P|323:228|361:275,1,101.999996887207,10|0,0:0|0:0,0:0:0:0:
443,182,74416,6,0,P|432:125|395:96,1,101.999996887207,2|0,1:2|0:0,0:0:0:0:
268,33,74765,2,0,B|229:66|194:78|194:78|165:46|137:26,1,152.999995330811,8|0,0:0|1:2,0:0:0:0:
103,37,75114,2,0,L|0:54,1,101.999996887207,0|2,1:2|1:2,0:0:0:0:
120,155,75463,1,10,0:0:0:0:
120,155,75637,1,2,1:2:0:0:
203,120,75811,6,0,L|46:149,1,152.999995330811,6|0,1:2|0:0,0:0:0:0:
1,155,76160,2,0,P|8:231|43:250,1,101.999996887207,10|0,0:0|0:0,0:0:0:0:
63,249,76422,1,0,1:2:0:0:
63,249,76509,1,2,1:2:0:0:
226,217,76683,1,0,1:0:0:0:
155,320,76858,2,0,L|266:329,1,101.999996887207,10|0,0:0|0:0,0:0:0:0:
411,256,77207,5,6,1:2:0:0:
411,256,77381,1,0,1:0:0:0:
367,364,77556,1,14,0:2:0:0:
315,186,77730,1,0,1:0:0:0:
475,150,77904,1,10,0:3:0:0:
490,123,77992,1,8,0:3:0:0:
492,92,78079,1,10,0:3:0:0:
479,64,78166,1,8,0:3:0:0:
454,46,78253,1,10,0:3:0:0:
423,42,78340,1,8,0:3:0:0:
393,52,78428,1,8,0:3:0:0:
372,74,78515,1,8,0:3:0:0:
364,103,78602,6,0,P|328:146|285:78,1,152.999995330811,6|0,1:2|0:0,0:0:0:0:
241,42,78951,2,0,L|130:63,1,101.999996887207,10|0,0:0|0:0,0:0:0:0:
99,68,79213,1,0,1:2:0:0:
99,68,79300,1,2,1:2:0:0:
3,16,79474,1,2,1:2:0:0:
95,148,79649,2,0,L|91:253,1,101.999996887207,10|0,0:0|0:0,0:0:0:0:
175,344,79997,6,0,B|218:375|218:375|267:350|267:350|260:225,1,203.999993774414,2|10,1:2|0:0,0:0:0:0:
179,202,80521,1,0,0:0:0:0:
182,324,80695,2,0,L|267:383,1,101.999996887207,2|2,1:2|1:2,0:0:0:0:
397,343,81044,2,0,P|423:298|520:224,1,152.999995330811,10|0,0:0|0:0,0:0:0:0:
443,253,81393,6,0,P|395:224|354:162,1,101.999996887207,6|0,1:2|0:0,0:0:0:0:
506,63,81742,2,0,P|480:127|437:167,1,101.999996887207,10|0,0:0|0:0,0:0:0:0:
442,158,82003,1,0,1:3:0:0:
442,158,82090,1,2,1:3:0:0:
277,185,82265,1,2,1:2:0:0:
334,101,82439,2,0,L|336:-3,1,101.999996887207,10|0,0:0|0:0,0:0:0:0:
223,64,82788,6,0,B|86:113|170:7|10:69,1,203.999993774414,2|10,1:2|0:0,0:0:0:0:
77,137,83311,1,0,0:0:0:0:
77,137,83486,2,0,L|61:243,1,101.999996887207,2|2,1:2|1:2,0:0:0:0:
22,337,83835,2,0,P|87:311|170:324,1,152.999995330811,10|0,0:0|0:0,0:0:0:0:
219,333,84183,6,0,P|281:366|333:367,1,101.999996887207,6|0,1:2|0:0,0:0:0:0:
215,249,84532,2,0,P|246:184|245:133,1,101.999996887207,10|0,0:0|0:0,0:0:0:0:
221,116,84794,1,0,1:3:0:0:
221,116,84881,1,2,1:3:0:0:
307,265,85056,1,2,1:2:0:0:
395,126,85230,2,0,L|501:112,1,101.999996887207,10|0,0:0|0:0,0:0:0:0:
397,203,85579,6,0,B|379:259|379:259|317:124,1,203.999993774414,6|10,1:2|0:0,0:0:0:0:
184,60,86102,1,0,0:0:0:0:
305,25,86276,1,2,1:2:0:0:
305,25,86451,1,2,1:2:0:0:
215,145,86625,2,0,L|189:268,1,101.999996887207,10|0,0:0|0:0,0:0:0:0:
77,305,86974,6,0,P|31:262|106:285,1,203.999993774414,14|10,0:0|0:3,0:0:0:0:
197,353,87497,1,8,0:3:0:0:
223,369,87585,1,8,0:3:0:0:
253,374,87672,1,10,0:0:0:0:
282,367,87759,1,8,0:0:0:0:
305,348,87846,1,8,0:0:0:0:
317,320,87933,1,8,0:0:0:0:
342,301,88021,1,10,0:0:0:0:
372,297,88108,1,8,0:0:0:0:
401,304,88195,1,8,0:0:0:0:
423,325,88282,1,8,0:0:0:0:
432,354,88369,5,6,1:2:0:0:
256,192,88457,12,2,89765,1:2:0:0:
348,256,97963,5,8,0:0:0:0:
348,256,98050,1,8,0:0:0:0:
348,256,98137,1,8,0:3:0:0:
455,106,98311,1,8,0:3:0:0:
275,89,98486,2,0,L|142:105,1,101.999996887207,8|0,0:3|0:0,0:0:0:0:
116,107,98747,1,8,0:3:0:0:
116,107,98835,2,0,L|43:102,3,50.9999984436036,10|2|2|10,0:2|0:0|0:0|0:2,0:0:0:0:
145,172,99183,2,0,L|150:287,1,101.999996887207,10|2,0:2|1:2,0:0:0:0:
68,370,99532,6,0,P|25:323|76:231,2,170,6|8|0,1:2|0:0|0:0,0:0:0:0:
233,313,100404,1,2,1:2:0:0:
149,273,100579,1,10,0:0:0:0:
161,358,100753,1,2,0:0:0:0:
312,304,100928,6,0,B|432:266|359:363|506:309,1,170,2|10,1:2|0:0,0:0:0:0:
441,222,101451,1,2,1:2:0:0:
441,222,101625,2,0,L|455:124,1,85,2|0,1:2|1:0,0:0:0:0:
362,50,101974,2,0,L|349:134,1,85,10|0,0:0|0:0,0:0:0:0:
440,25,102323,6,0,B|320:-13|393:84|246:30,1,170,6|8,1:2|0:0,0:0:0:0:
188,4,102846,2,0,L|175:88,1,85,0|0,1:0|0:0,0:0:0:0:
59,120,103195,1,2,1:2:0:0:
0,55,103369,1,10,0:0:0:0:
88,39,103544,1,2,0:0:0:0:
114,186,103718,6,0,B|94:257|94:257|129:311|137:349,1,170,2|8,1:2|0:0,0:0:0:0:
17,328,104242,1,2,0:0:0:0:
29,191,104416,2,0,L|143:184,1,85,2|0,1:2|1:0,0:0:0:0:
234,274,104765,1,10,0:0:0:0:
234,274,104939,1,2,0:0:0:0:
292,171,105114,6,0,P|327:106|250:26,2,170,6|8|0,1:2|0:0|0:0,0:0:0:0:
244,107,105986,1,2,1:2:0:0:
417,69,106160,2,0,L|517:81,1,85,10|2,0:0|0:0,0:0:0:0:
369,219,106509,6,0,P|341:260|352:309,1,85,2|0,1:2|0:0,0:0:0:0:
466,363,106858,2,0,P|463:307|419:278,1,85,10|0,0:0|0:0,0:0:0:0:
255,330,107207,1,2,1:2:0:0:
255,330,107381,1,0,1:0:0:0:
179,243,107556,2,0,L|80:249,1,85,10|0,0:0|0:0,0:0:0:0:
12,164,107904,6,0,B|26:109|26:109|44:100|44:100|46:85|46:85|123:57,1,170,6|8,1:2|0:0,0:0:0:0:
32,11,108428,1,2,0:0:0:0:
194,82,108602,2,0,L|215:184,1,85,2|0,1:2|1:0,0:0:0:0:
134,185,108951,2,0,B|92:188|92:188|123:111,1,85,8|2,0:0|0:0,0:0:0:0:
286,96,109300,5,2,1:2:0:0:
286,96,109474,1,0,1:0:0:0:
262,279,109649,1,12,0:3:0:0:
405,213,109823,1,2,1:2:0:0:
405,213,109910,1,0,1:0:0:0:
405,213,109997,1,2,1:2:0:0:
304,273,110172,1,0,1:0:0:0:
304,273,110259,1,0,1:0:0:0:
304,273,110346,2,0,L|244:281,1,42.5,8|0,0:3|0:0,0:0:0:0:
200,334,110521,2,0,L|140:342,1,42.5,8|0,0:3|0:0,0:0:0:0:
58,373,110695,6,0,P|25:331|66:217,2,170,6|8|0,1:2|0:0|0:0,0:0:0:0:
139,255,111567,1,2,1:2:0:0:
97,158,111742,2,0,P|123:103|108:66,1,85,10|2,0:0|0:0,0:0:0:0:
45,101,112090,6,0,L|222:117,1,170,2|8,1:2|0:0,0:0:0:0:
357,59,112614,1,2,0:0:0:0:
255,30,112788,1,2,1:2:0:0:
354,143,112963,1,0,0:0:0:0:
453,27,113137,2,0,B|497:24|497:24|461:68,1,85,10|0,0:0|0:0,0:0:0:0:
354,143,113486,6,0,B|336:195|336:195|354:288,1,127.5,6|0,1:2|0:0,0:0:0:0:
395,307,113835,2,0,P|429:295|418:244,1,85,8|2,0:0|0:0,0:0:0:0:
257,231,114183,1,0,0:0:0:0:
257,231,114358,2,0,L|255:335,2,85,2|10|2,1:2|0:0|0:0,0:0:0:0:
185,360,114881,6,0,P|141:331|156:246,1,127.5,2|0,1:2|0:0,0:0:0:0:
169,217,115230,2,0,P|188:193|149:121,1,85,10|2,0:0|0:0,0:0:0:0:
26,213,115579,1,2,1:2:0:0:
26,213,115753,1,0,0:0:0:0:
169,217,115928,2,0,P|194:151|148:100,1,127.5,10|0,0:0|0:0,0:0:0:0:
116,87,116276,6,0,P|53:102|44:200,1,170,6|8,1:2|0:0,0:0:0:0:
101,267,116800,1,2,1:2:0:0:
101,267,116887,1,0,1:2:0:0:
101,267,116974,1,0,1:2:0:0:
269,194,117149,1,2,1:2:0:0:
260,101,117323,2,0,L|360:112,1,85,10|2,0:0|0:0,0:0:0:0:
502,53,117672,5,2,1:2:0:0:
502,53,117846,1,0,0:0:0:0:
459,162,118021,2,0,B|503:177|503:177|488:136,1,85,10|0,0:0|0:0,0:0:0:0:
370,206,118369,1,2,1:2:0:0:
448,268,118544,1,0,1:0:0:0:
445,280,118631,1,0,1:0:0:0:
442,292,118718,1,8,1:2:0:0:
439,304,118806,1,0,1:0:0:0:
436,316,118893,1,0,1:0:0:0:
332,355,119067,6,0,B|313:326|274:320|274:320|239:362|192:368,1,127.5,6|0,1:2|0:0,0:0:0:0:
172,351,119416,2,0,L|49:338,1,85,8|2,0:0|1:2,0:0:0:0:
198,217,119765,1,2,1:2:0:0:
198,217,119939,1,0,1:0:0:0:
84,253,120114,2,0,L|-39:240,1,85,10|0,0:0|0:0,0:0:0:0:
166,138,120463,5,14,0:0:0:0:
23,45,120637,1,0,1:0:0:0:
62,169,120811,1,2,1:2:0:0:
148,45,120986,1,0,1:0:0:0:
148,45,121073,1,0,1:0:0:0:
148,45,121160,1,8,0:3:0:0:
256,144,121335,1,8,0:3:0:0:
256,144,121422,1,4,0:3:0:0:
256,144,121509,2,0,L|350:139,1,85,2|2,1:2|1:2,0:0:0:0:
469,142,121858,6,0,P|495:96|417:115,1,170,6|2,1:2|1:2,0:0:0:0:
444,270,122381,1,8,0:3:0:0:
372,243,122556,2,0,L|259:246,1,85,2|0,1:2|0:0,0:0:0:0:
220,334,122904,2,0,L|304:331,1,85,2|0,1:2|0:0,0:0:0:0:
159,230,123253,1,2,1:2:0:0:
159,230,123428,2,0,B|134:279|134:331|134:331|109:297|68:282,1,170,8|0,0:3|0:0,0:0:0:0:
8,309,123951,1,2,1:2:0:0:
220,57,124300,1,10,0:0:0:0:
137,91,124474,1,2,0:0:0:0:
206,139,124649,6,0,L|356:129,1,127.5,6|0,1:2|0:0,0:0:0:0:
388,127,124997,2,0,B|428:144|428:144|394:175,1,85,0|10,1:0|0:3,0:0:0:0:
297,213,125346,2,0,L|317:26,1,170,2|2,1:2|1:2,0:0:0:0:
397,171,125869,2,0,L|385:276,1,85,2|0,1:2|1:2,0:0:0:0:
471,313,126218,2,0,P|500:245|427:164,1,170,10|0,0:3|1:0,0:0:0:0:
387,255,126742,1,2,1:2:0:0:
21,156,127090,1,2,1:2:0:0:
109,126,127265,1,2,1:2:0:0:
88,208,127439,6,0,L|23:74,1,127.5,6|0,1:2|0:0,0:0:0:0:
12,46,127788,2,0,L|117:60,1,85,2|8,1:2|0:3,0:0:0:0:
88,208,128137,2,0,L|193:222,1,85,2|0,1:2|0:0,0:0:0:0:
87,344,128486,2,0,L|-10:358,1,85,2|0,1:2|0:0,0:0:0:0:
164,301,128835,5,2,1:2:0:0:
164,301,129009,2,0,P|239:279|290:349,1,170,8|0,0:3|1:0,0:0:0:0:
217,355,129532,1,8,0:0:0:0:
375,317,129707,1,8,0:0:0:0:
375,317,129794,1,8,1:2:0:0:
375,317,129881,1,10,0:2:0:0:
261,184,130056,1,2,1:2:0:0:
430,133,130230,5,6,1:2:0:0:
101,25,130579,1,0,1:2:0:0:
257,73,130753,1,0,1:0:0:0:
176,104,130928,1,8,0:3:0:0:
357,38,131102,1,8,0:3:0:0:
261,184,131276,1,8,0:0:0:0:
429,14,131451,1,8,0:0:0:0:
257,73,131625,6,0,P|187:103|201:204,1,170,14|0,0:0|0:0,0:0:0:0:
37,369,132323,2,0,L|20:302,1,42.5,2|0,1:2|1:0,0:0:0:0:
121,345,132497,2,0,L|104:278,1,42.5,2|0,1:2|1:0,0:0:0:0:
201,304,132672,2,0,L|184:237,1,42.5,10|0,0:0|0:0,0:0:0:0:
358,302,133021,6,0,P|414:304|496:368,1,152.999995330811,6|0,1:2|0:0,0:0:0:0:
455,308,133369,2,0,P|448:249|471:184,1,101.999996887207,10|0,0:0|0:0,0:0:0:0:
494,168,133631,1,0,1:3:0:0:
494,168,133718,1,2,1:3:0:0:
321,220,133893,1,2,1:2:0:0:
372,75,134067,2,0,P|403:112|383:189,1,101.999996887207,10|0,0:0|0:0,0:0:0:0:
221,182,134416,6,0,P|196:117|315:58,1,203.999993774414,2|10,1:2|0:2,0:0:0:0:
273,124,134939,1,0,0:0:0:0:
108,71,135114,1,2,1:2:0:0:
108,71,135288,1,2,1:2:0:0:
142,231,135463,2,0,L|121:337,1,101.999996887207,10|0,0:0|0:0,0:0:0:0:
41,271,135811,6,0,L|235:306,1,152.999995330811,6|0,1:2|0:0,0:0:0:0:
235,306,136160,2,0,B|268:343|268:343|297:288,1,101.999996887207,10|0,0:0|0:0,0:0:0:0:
309,266,136422,1,0,1:3:0:0:
309,266,136509,1,2,1:3:0:0:
191,375,136683,1,2,1:2:0:0:
382,291,136858,2,0,P|432:284|447:219,1,101.999996887207,10|0,0:0|0:0,0:0:0:0:
343,102,137207,6,0,P|364:173|378:101,2,203.999993774414,2|8|2,1:2|0:0|1:2,0:0:0:0:
202,105,138079,1,2,1:2:0:0:
121,26,138253,2,0,L|17:17,1,101.999996887207,10|0,0:0|0:0,0:0:0:0:
105,118,138602,6,0,P|127:176|125:242,1,101.999996887207,6|0,1:2|0:0,0:0:0:0:
0,335,138951,2,0,P|39:286|97:255,1,101.999996887207,10|0,1:2|0:0,0:0:0:0:
107,284,139213,1,0,1:3:0:0:
141,289,139300,2,0,P|187:310|238:317,1,101.999996887207,2|0,1:3|1:0,0:0:0:0:
319,169,139649,2,0,P|277:198|246:238,1,101.999996887207,10|0,0:0|0:0,0:0:0:0:
337,384,139997,6,0,P|332:333|312:286,1,101.999996887207,2|0,1:2|0:0,0:0:0:0:
237,162,140346,2,0,P|263:183|413:178,1,152.999995330811,10|0,0:2|0:0,0:0:0:0:
430,166,140695,2,0,B|441:146|457:126|457:126|454:146|455:193,1,101.999996887207,0|0,1:0|1:0,0:0:0:0:
448,284,141044,1,10,0:0:0:0:
448,284,141218,1,2,1:2:0:0:
414,158,141393,6,0,P|428:89|497:30,1,152.999995330811,6|0,1:2|0:0,0:0:0:0:
434,52,141742,2,0,P|374:60|327:35,1,101.999996887207,10|0,0:0|0:0,0:0:0:0:
301,12,142003,1,0,1:3:0:0:
301,12,142090,1,2,1:3:0:0:
143,122,142265,1,0,1:0:0:0:
234,90,142439,2,0,L|235:206,1,101.999996887207,10|0,0:0|0:0,0:0:0:0:
143,122,142788,5,6,1:2:0:0:
143,122,142963,1,0,1:0:0:0:
139,319,143137,1,14,0:0:0:0:
316,228,143311,1,0,1:0:0:0:
139,319,143486,1,10,0:3:0:0:
112,303,143573,1,8,0:3:0:0:
97,275,143660,1,10,0:3:0:0:
95,244,143747,1,8,0:3:0:0:
106,215,143835,1,10,0:3:0:0:
129,195,143922,1,8,0:3:0:0:
158,187,144009,1,8,0:3:0:0:
187,192,144096,1,8,0:3:0:0:
209,209,144183,6,0,L|38:240,1,152.999995330811,6|0,1:2|0:0,0:0:0:0:
38,240,144532,2,0,L|153:267,1,101.999996887207,10|0,0:0|0:0,0:0:0:0:
175,291,144794,1,8,0:0:0:0:
175,291,144881,1,2,1:2:0:0:
4,158,145056,1,2,1:2:0:0:
189,76,145230,2,0,B|207:23|207:23|163:44,1,101.999996887207,10|0,0:0|0:0,0:0:0:0:
238,178,145579,6,0,B|374:131|286:246|447:168,1,203.999993774414,2|10,1:2|0:0,0:0:0:0:
383,98,146102,1,0,0:0:0:0:
289,251,146276,1,2,1:2:0:0:
289,251,146451,1,2,1:2:0:0:
469,260,146625,2,0,P|497:332|497:377,1,101.999996887207,10|0,0:0|0:0,0:0:0:0:
475,156,146974,6,0,P|501:90|492:8,1,152.999995330811,6|0,1:2|0:0,0:0:0:0:
428,27,147323,2,0,P|408:68|443:135,1,101.999996887207,10|0,0:0|0:0,0:0:0:0:
449,144,147585,1,0,1:3:0:0:
449,144,147672,1,2,1:3:0:0:
243,195,147846,1,2,1:2:0:0:
348,271,148021,2,0,L|334:377,1,101.999996887207,10|0,0:0|0:0,0:0:0:0:
166,357,148369,6,0,B|112:366|112:366|92:349|92:349|61:354|61:354|8:253,1,203.999993774414,2|10,1:2|0:0,0:0:0:0:
146,203,148893,1,0,0:0:0:0:
146,203,149067,2,0,B|183:235|183:235|155:280,1,101.999996887207,2|2,1:2|1:2,0:0:0:0:
34,166,149416,2,0,P|11:108|86:70,1,152.999995330811,10|0,0:0|0:0,0:0:0:0:
126,86,149765,6,0,P|185:104|226:71,1,101.999996887207,6|0,1:2|0:0,0:0:0:0:
171,16,150114,1,10,0:0:0:0:
328,77,150288,1,0,1:0:0:0:
328,77,150375,1,0,1:3:0:0:
328,77,150463,1,2,1:3:0:0:
202,180,150637,1,2,1:2:0:0:
327,154,150811,2,0,L|457:146,1,101.999996887207,10|0,0:0|0:0,0:0:0:0:
271,316,151160,6,0,P|209:301|209:173,1,203.999993774414,2|10,1:2|0:0,0:0:0:0:
327,154,151683,1,0,0:0:0:0:
448,309,151858,2,0,P|390:277|300:302,1,152.999995330811,2|0,1:2|0:0,0:0:0:0:
271,316,152207,2,0,P|235:354|164:336,1,101.999996887207,10|0,0:0|1:0,0:0:0:0:
100,176,152556,6,0,L|-2:158,1,101.999996887207,14|0,0:0|0:0,0:0:0:0:
207,256,152904,2,0,P|175:200|190:144,1,101.999996887207,8|8,1:2|1:2,0:0:0:0:
219,126,153166,1,8,1:2:0:0:
246,112,153253,1,8,0:3:0:0:
276,110,153340,1,8,0:3:0:0:
305,119,153428,1,8,0:3:0:0:
327,139,153515,1,8,0:3:0:0:
341,165,153602,1,8,0:3:0:0:
341,195,153689,1,8,0:3:0:0:
329,223,153776,1,8,0:3:0:0:
309,246,153864,1,8,0:3:0:0:
280,257,153951,5,6,1:2:0:0:
267,186,155346,5,6,1:2:0:0:
267,186,156393,6,0,L|271:134,1,42.5,8|0,3:0|0:0,0:0:0:0:
267,186,156742,6,0,B|194:166|194:166|154:186|90:196,2,170,6|10|2,1:2|3:0|0:0,0:0:0:0:
388,128,157614,1,8,3:0:0:0:
473,222,157788,1,2,0:0:0:0:
409,334,157963,1,0,1:0:0:0:
283,300,158137,1,6,1:2:0:0:
130,41,158486,6,0,L|192:77,2,56.6666666666667,10|8|8,0:3|0:3|0:3,0:0:0:0:
137,131,158835,2,0,L|199:167,2,56.6666666666667,10|8|8,0:3|0:3|0:3,0:0:0:0:
87,200,159183,2,0,L|149:236,2,56.6666666666667,10|8|8,0:3|0:3|0:3,0:0:0:0:
219,257,159532,6,0,L|19:284,1,170,6|0,1:2|0:0,0:0:0:0:
26,366,160056,2,0,P|74:377|103:343,1,85,0|10,1:0|0:0,0:0:0:0:
11,72,160579,1,2,0:0:0:0:
101,89,160753,1,0,1:0:0:0:
101,89,160840,1,0,1:0:0:0:
101,89,160928,5,2,1:2:0:0:
184,102,161102,1,8,0:0:0:0:
274,73,161276,2,0,B|288:29|288:29|241:40,1,85,0|0,0:0|1:0,0:0:0:0:
259,162,161625,2,0,L|265:260,1,85,14|0,1:3|0:0,0:0:0:0:
336,308,161974,2,0,L|447:333,1,85,6|0,1:3|0:0,0:0:0:0:
235,335,162323,6,0,B|193:328|193:328|174:337|174:337|152:331|152:331|66:369,2,170,6|2|10,1:2|1:2|0:0,0:0:0:0:
424,131,163369,2,0,L|513:122,1,85,14|0,0:0|0:0,0:0:0:0:
346,183,163718,5,2,1:2:0:0:
328,73,163893,1,8,0:0:0:0:
328,73,163980,1,8,0:0:0:0:
328,73,164067,1,8,0:0:0:0:
179,70,164242,1,8,0:0:0:0:
179,70,164329,1,8,0:0:0:0:
179,70,164416,2,0,L|172:128,1,42.5,8|8,0:0|0:0,0:0:0:0:
255,169,164590,2,0,L|255:233,1,42.5,8|8,0:0|0:0,0:0:0:0:
334,288,164765,2,0,L|340:344,1,42.5,8|8,0:0|0:0,0:0:0:0:
338,330,165114,6,0,L|342:235,1,76.4999976654053,2|0,0:0|0:0,0:0:0:0:
341,253,165463,6,0,L|166:335,1,152.999995330811,6|0,1:2|0:0,0:0:0:0:
160,304,165811,2,0,B|116:294|116:294|153:227,1,101.999996887207,2|0,1:2|1:0,0:0:0:0:
333,156,166160,2,0,B|377:146|377:146|340:79,1,101.999996887207,8|0,0:0|0:0,0:0:0:0:
185,55,166509,6,0,B|141:37|141:37|113:47|113:47|88:23|88:23|-3:48,1,203.999993774414,2|8,1:2|0:0,0:0:0:0:
61,123,167032,1,0,1:0:0:0:
6,285,167207,1,2,1:2:0:0:
123,175,167381,1,2,1:2:0:0:
66,329,167556,2,0,L|168:352,1,101.999996887207,10|0,0:0|1:0,0:0:0:0:
195,349,167817,1,0,1:0:0:0:
223,338,167904,6,0,P|270:296|270:228,1,101.999996887207,6|0,1:2|0:0,0:0:0:0:
160,174,168253,2,0,P|172:235|231:269,1,101.999996887207,10|2,1:2|1:2,0:0:0:0:
335,197,168602,2,0,P|275:177|216:211,1,101.999996887207,2|0,1:2|1:0,0:0:0:0:
377,273,168951,1,10,0:0:0:0:
424,200,169125,1,0,1:0:0:0:
424,200,169213,1,0,1:0:0:0:
424,200,169300,6,0,B|525:154|478:42|405:83,1,203.999993774414,2|8,1:2|0:0,0:0:0:0:
309,29,169823,1,0,1:0:0:0:
401,95,169997,2,0,P|461:53|481:11,1,101.999996887207,2|2,1:2|1:2,0:0:0:0:
309,29,170346,2,0,P|249:71|229:113,1,101.999996887207,10|2,0:0|1:2,0:0:0:0:
223,124,170608,1,0,1:0:0:0:
217,146,170695,6,0,P|210:80|73:19,1,203.999993774414,6|10,1:2|0:0,0:0:0:0:
18,94,171218,2,0,L|131:107,1,101.999996887207,2|0,1:2|0:0,0:0:0:0:
20,186,171567,2,0,L|133:199,1,101.999996887207,2|10,1:2|2:0,0:0:0:0:
33,280,171916,1,2,1:2:0:0:
33,280,172003,1,0,1:0:0:0:
33,280,172090,6,0,L|146:293,1,101.999996887207,2|0,1:2|0:0,0:0:0:0:
310,275,172439,2,0,B|358:262|358:262|336:325,1,101.999996887207,10|2,0:0|1:2,0:0:0:0:
227,340,172788,1,2,1:2:0:0:
227,340,172963,1,0,1:0:0:0:
261,138,173137,1,10,0:0:0:0:
441,265,173311,1,2,0:0:0:0:
254,215,173486,6,0,B|194:208|187:158|187:158|177:157|177:157|202:96|145:51,1,203.999993774414,14|10,0:0|0:2,0:0:0:0:
103,126,174009,1,2,0:2:0:0:
321,42,174183,1,10,0:0:0:0:
321,42,174358,1,0,1:0:0:0:
474,151,174532,1,10,0:0:0:0:
322,246,174707,1,2,0:0:0:0:
371,151,174881,5,14,1:2:0:0:
394,170,174968,1,0,1:2:0:0:
411,195,175056,1,0,1:2:0:0:
419,224,175143,1,0,1:2:0:0:
417,254,175230,1,0,1:0:0:0:
406,282,175317,1,0,1:0:0:0:
385,304,175404,1,0,1:0:0:0:
357,318,175492,1,0,1:0:0:0:
326,319,175579,1,8,0:3:0:0:
296,310,175666,1,8,0:3:0:0:
272,290,175753,1,8,0:3:0:0:
242,280,175840,1,8,0:3:0:0:
211,283,175928,1,10,0:3:0:0:
128,365,176102,1,10,0:3:0:0:
236,362,176276,6,0,L|279:198,1,170,6|0,1:2|0:0,0:0:0:0:
116,209,176800,1,0,1:0:0:0:
195,162,176974,2,0,B|174:98|174:98|47:79,1,170,10|2,0:0|0:0,0:0:0:0:
9,158,177497,1,0,1:0:0:0:
9,158,177585,1,0,1:0:0:0:
9,158,177672,5,2,1:2:0:0:
68,4,177846,1,8,0:0:0:0:
52,104,178021,2,0,L|154:89,1,85,0|0,0:0|0:0,0:0:0:0:
5,46,178369,1,8,0:0:0:0:
454,101,178718,1,2,0:0:0:0:
381,160,178893,1,2,0:0:0:0:
464,189,179067,6,0,L|502:351,1,127.5,2|0,1:2|0:0,0:0:0:0:
451,361,179416,2,0,P|412:335|426:278,1,85,0|2,0:0|1:2,0:0:0:0:
297,241,179765,2,0,P|241:322|185:346,1,127.5,10|0,0:0|0:0,0:0:0:0:
172,345,180114,1,2,0:0:0:0:
105,283,180288,2,0,P|50:247|27:243,1,85,2|0,0:0|1:0,0:0:0:0:
185,240,180637,6,0,P|208:196|190:65,1,170,6|2,0:3|1:2,0:0:0:0:
126,28,181160,1,14,0:0:0:0:
8,12,181335,1,0,1:0:0:0:
8,12,181422,1,0,1:0:0:0:
8,12,181509,1,2,1:2:0:0:
129,127,181683,1,2,1:2:0:0:
1,141,181858,5,6,1:2:0:0:
353,186,182207,2,0,L|371:280,1,85,2|0,0:0|1:0,0:0:0:0:
454,198,182556,2,0,B|491:138|491:138|454:94|454:94|401:121,1,170,10|2,0:0|1:2,0:0:0:0:
335,71,183079,1,0,1:0:0:0:
335,71,183166,1,0,1:0:0:0:
335,71,183253,5,2,1:2:0:0:
426,126,183428,2,0,L|475:44,1,85,8|0,0:0|0:0,0:0:0:0:
289,135,183776,1,0,1:0:0:0:
212,115,183951,2,0,L|197:22,1,85,8|0,0:0|0:0,0:0:0:0:
289,135,184300,1,2,1:2:0:0:
150,222,184474,1,2,1:2:0:0:
267,242,184649,6,0,P|312:275|282:382,1,170,6|0,1:2|1:0,0:0:0:0:
243,317,185172,1,0,1:0:0:0:
264,143,185346,1,8,0:3:0:0:
393,247,185521,1,8,0:3:0:0:
152,278,185695,1,8,0:0:0:0:
241,60,185869,1,8,0:0:0:0:
267,242,186044,1,6,1:2:0:0:
256,192,186131,12,6,187439,1:2:0:0:
381,190,188137,6,0,P|426:173|485:178,2,85,2|2|2,0:0|0:0|0:0,0:0:0:0:
462,172,188835,6,0,P|378:190|320:166,1,136,2|2,0:0|0:0,0:0:0:0:
87,250,189532,1,2,0:0:0:0:
146,308,189707,1,2,0:0:0:0:
167,228,189881,1,2,0:0:0:0:
87,250,190230,6,0,P|159:279|230:257,1,136,2|0,0:0|0:0,0:0:0:0:
254,49,190928,1,2,0:0:0:0:
338,15,191102,1,2,0:0:0:0:
326,100,191276,1,2,0:0:0:0:
66,48,191625,5,2,0:0:0:0:
448,129,191974,1,2,0:0:0:0:
134,104,192323,2,0,B|123:167|123:167|119:175|119:175|107:246,1,136,2|2,0:0|0:0,0:0:0:0:
274,363,193021,6,0,P|308:326|261:234,1,136,2|0,0:0|0:0,0:0:0:0:
475,364,193718,1,2,0:0:0:0:
413,296,193893,1,2,0:0:0:0:
502,277,194067,1,2,0:0:0:0:
237,288,194416,6,0,P|179:273|127:293,1,102,2|0,0:0|0:0,0:0:0:0:
109,304,194765,2,0,P|111:260|70:204,1,102,2|0,0:0|0:0,0:0:0:0:
55,181,195114,2,0,P|101:157|134:99,1,102,2|0,0:0|0:0,0:0:0:0:
167,91,195463,2,0,P|185:119|247:151,1,102,2|0,0:0|0:0,0:0:0:0:
285,169,195811,2,0,P|256:196|238:293,2,136,2|2|0,0:0|0:0|0:0,0:0:0:0:
402,89,196858,2,0,L|332:84,1,68,2|2,0:0|0:0,0:0:0:0:
334,84,197207,6,0,L|489:77,1,136,2|2,0:0|0:0,0:0:0:0:
178,300,197904,2,0,L|22:306,1,136,2|2,0:0|0:0,0:0:0:0:
356,239,198602,2,0,P|403:269|426:360,1,136,2|0,0:0|0:0,0:0:0:0:
118,122,199300,1,2,0:0:0:0:
207,97,199474,1,2,0:0:0:0:
137,33,199649,1,2,0:0:0:0:
83,342,199997,6,0,P|101:278|156:239,1,136,6|2,1:2|0:0,0:0:0:0:
255,322,200695,2,0,L|183:326,2,68,2|2|2,0:0|0:0|0:0,0:0:0:0:
258,73,201393,2,0,L|414:66,1,136,2|0,1:2|0:0,0:0:0:0:
79,186,202090,2,0,P|62:154|103:144,2,68,10|2|0,0:3|0:0|0:0,0:0:0:0:
10,97,202788,5,6,1:2:0:0:
260,193,203137,1,10,0:3:0:0:
433,186,203486,2,0,P|450:154|409:144,2,68,2|10|10,0:0|0:3|0:3,0:0:0:0:
325,240,204183,6,0,L|299:386,1,136,6|8,1:2|0:3,0:0:0:0:
394,338,204707,1,8,0:3:0:0:
394,338,204794,1,8,0:3:0:0:
394,338,204881,1,10,0:3:0:0:
223,349,205056,1,2,0:0:0:0:
155,300,205230,2,0,L|150:185,1,102,2|2,0:0|0:0,0:0:0:0:
104,160,205579,6,0,P|60:146|12:166,1,85,6|0,1:2|0:0,0:0:0:0:
192,139,205928,2,0,P|224:102|225:34,1,85,2|0,1:2|0:0,0:0:0:0:
161,215,206276,2,0,P|188:270|231:286,1,85,2|0,1:2|0:0,0:0:0:0:
108,135,206625,2,0,P|85:100|34:82,1,85,2|0,1:2|0:0,0:0:0:0:
132,224,206974,6,0,P|103:268|103:319,1,85,2|6,1:2|0:3,0:0:0:0:
197,161,207323,2,0,P|254:158|292:128,1,85,0|0,1:0|0:0,0:0:0:0:
448,218,207672,1,2,1:2:0:0:
448,218,207846,1,2,0:0:0:0:
379,162,208021,2,0,P|356:104|381:30,1,127.5,2|0,1:2|0:0,0:0:0:0:
430,27,208369,6,0,B|478:20|478:20|455:64,1,85,14|0,0:0|0:0,0:0:0:0:
257,30,208718,1,0,1:2:0:0:
260,172,208893,1,0,1:0:0:0:
260,172,208980,1,0,1:0:0:0:
260,172,209067,1,8,0:3:0:0:
152,126,209242,1,8,0:3:0:0:
360,126,209416,1,8,0:0:0:0:
257,311,209590,1,8,0:0:0:0:
260,172,209765,6,0,P|316:218|269:307,1,170,14|0,0:0|0:0,0:0:0:0:
108,257,210463,1,2,1:2:0:0:
60,229,210550,1,0,1:2:0:0:
58,173,210637,1,2,1:2:0:0:
100,138,210724,1,0,1:2:0:0:
153,149,210811,2,0,L|196:149,3,42.5,10|8|8|8,0:0|0:0|0:0|0:0,0:0:0:0:
202,142,211160,6,0,P|261:112|259:-1,1,152.999995330811,6|0,1:2|0:0,0:0:0:0:
220,44,211509,2,0,P|251:98|317:117,1,101.999996887207,10|0,0:0|0:0,0:0:0:0:
345,119,211771,1,0,1:3:0:0:
345,119,211858,1,2,1:3:0:0:
499,33,212032,1,2,1:2:0:0:
421,154,212207,2,0,L|423:262,1,101.999996887207,10|0,0:0|0:0,0:0:0:0:
257,320,212556,6,0,B|205:338|205:338|188:331|188:331|150:351|150:351|66:295,1,203.999993774414,2|8,1:2|0:0,0:0:0:0:
0,249,213079,1,0,0:0:0:0:
180,202,213253,1,2,1:2:0:0:
180,202,213428,1,2,1:2:0:0:
58,120,213602,2,0,P|48:81|81:28,1,101.999996887207,10|0,0:0|0:0,0:0:0:0:
192,115,213951,6,0,B|248:120|265:167|265:167|322:160|346:121,1,152.999995330811,6|0,1:2|0:0,0:0:0:0:
371,121,214300,2,0,B|370:93|396:62|396:62|366:71|336:104,1,101.999996887207,10|0,0:0|0:0,0:0:0:0:
314,77,214561,1,0,1:3:0:0:
314,77,214649,1,2,1:3:0:0:
466,123,214823,1,2,1:2:0:0:
352,231,214997,2,0,L|338:351,1,101.999996887207,10|0,0:0|0:0,0:0:0:0:
429,208,215346,6,0,L|325:352,1,152.999995330811,2|0,1:2|0:0,0:0:0:0:
286,357,215695,2,0,P|247:320|272:260,1,101.999996887207,8|0,0:0|0:0,0:0:0:0:
257,140,216044,1,2,1:2:0:0:
257,140,216218,1,2,1:2:0:0:
151,144,216393,2,0,L|20:144,1,101.999996887207,10|0,0:0|0:0,0:0:0:0:
19,298,216742,6,0,P|88:318|109:269,1,101.999996887207,6|0,1:2|0:0,0:0:0:0:
151,144,217090,2,0,P|99:193|131:236,1,101.999996887207,10|0,0:0|0:0,0:0:0:0:
130,231,217352,1,0,1:3:0:0:
130,231,217439,1,2,1:3:0:0:
139,380,217614,1,0,1:0:0:0:
219,339,217788,2,0,P|201:269|148:275,1,101.999996887207,10|0,0:0|0:0,0:0:0:0:
320,169,218137,6,0,L|445:151,1,101.999996887207,2|0,1:2|0:0,0:0:0:0:
254,55,218486,2,0,L|130:51,1,101.999996887207,10|0,0:0|0:0,0:0:0:0:
104,48,218747,1,0,1:3:0:0:
104,48,218835,1,0,1:3:0:0:
321,16,219009,1,0,1:0:0:0:
230,154,219183,1,10,1:2:0:0:
230,154,219358,1,2,1:2:0:0:
280,253,219532,6,0,P|325:291|381:381,1,152.999995330811,6|0,1:2|0:0,0:0:0:0:
385,319,219881,2,0,P|434:278|485:260,1,101.999996887207,10|0,0:0|0:0,0:0:0:0:
509,277,220143,1,0,1:3:0:0:
509,277,220230,1,2,1:3:0:0:
292,368,220404,1,0,1:0:0:0:
382,198,220579,1,10,0:0:0:0:
288,99,220753,1,8,0:3:0:0:
288,99,220840,1,8,0:3:0:0:
288,99,220928,6,0,L|230:93,3,50.9999984436036,8|8|8|8,0:3|0:3|0:3|0:3,0:0:0:0:
196,87,221276,1,8,0:3:0:0:
155,81,221364,1,8,0:3:0:0:
114,75,221451,1,8,0:3:0:0:
73,69,221538,1,8,0:3:0:0:
32,63,221625,2,0,L|45:129,1,50.9999984436036,10|8,0:3|0:3,0:0:0:0:
110,174,221800,2,0,L|123:240,1,50.9999984436036,10|8,0:3|0:3,0:0:0:0:
190,287,221974,2,0,L|203:353,3,50.9999984436036,10|8|8|8,0:2|0:2|0:2|0:2,0:0:0:0:
142,371,222323,6,0,L|306:275,1,152.999995330811,6|0,1:2|0:0,0:0:0:0:
319,271,222672,2,0,L|246:184,1,101.999996887207,10|0,0:0|0:0,0:0:0:0:
223,156,222933,1,0,1:3:0:0:
223,156,223021,1,2,1:3:0:0:
397,217,223195,1,2,1:2:0:0:
288,100,223369,2,0,L|405:86,1,101.999996887207,10|0,0:0|0:0,0:0:0:0:
475,202,223718,6,0,P|467:265|361:282,1,152.999995330811,2|0,1:2|0:0,0:0:0:0:
397,217,224067,2,0,P|454:260|462:324,1,101.999996887207,8|0,0:0|0:0,0:0:0:0:
452,343,224329,1,0,1:3:0:0:
452,343,224416,1,2,1:3:0:0:
265,367,224590,1,2,1:2:0:0:
192,311,224765,2,0,L|203:199,1,101.999996887207,10|0,0:0|0:0,0:0:0:0:
159,356,225114,6,0,L|202:206,1,152.999995330811,6|0,1:2|0:0,0:0:0:0:
147,191,225463,2,0,P|87:204|87:273,1,101.999996887207,10|0,0:0|0:0,0:0:0:0:
90,269,225724,1,0,1:3:0:0:
90,269,225811,1,2,1:3:0:0:
0,146,225986,1,2,1:2:0:0:
127,105,226160,2,0,L|29:49,1,101.999996887207,10|0,0:0|0:0,0:0:0:0:
227,51,226509,6,0,B|360:0|283:125|452:41,1,203.999993774414,2|8,1:2|0:0,0:0:0:0:
498,11,227032,1,0,1:0:0:0:
498,11,227119,1,0,1:3:0:0:
498,11,227207,1,2,1:3:0:0:
445,210,227381,1,2,1:2:0:0:
370,164,227556,2,0,L|341:290,1,101.999996887207,10|0,0:0|0:0,0:0:0:0:
257,215,227904,6,0,P|328:180|423:207,1,152.999995330811,6|0,1:2|0:0,0:0:0:0:
445,210,228253,2,0,B|465:242|480:257|480:257|473:226|473:200,1,101.999996887207,10|0,0:0|0:0,0:0:0:0:
491,173,228515,1,0,1:3:0:0:
491,173,228602,1,2,1:3:0:0:
416,323,228776,1,2,1:2:0:0:
355,234,228951,2,0,P|300:214|243:219,1,101.999996887207,10|0,0:0|0:0,0:0:0:0:
142,267,229300,6,0,P|73:283|34:260,1,101.999996887207,6|0,1:2|0:0,0:0:0:0:
219,289,229649,2,0,P|249:335|257:386,1,101.999996887207,8|0,0:0|0:0,0:0:0:0:
99,360,229997,1,10,1:3:0:0:
182,185,230172,1,8,0:3:0:0:
182,185,230259,1,8,0:3:0:0:
182,185,230346,2,0,L|196:69,1,101.999996887207,10|0,0:0|0:0,0:0:0:0:
89,22,230695,6,0,P|26:53|86:157,1,203.999993774414,6|8,1:2|0:3,0:0:0:0:
125,123,231131,1,8,0:3:0:0:
163,109,231218,1,8,0:3:0:0:
204,107,231306,1,8,0:3:0:0:
243,117,231393,1,8,0:0:0:0:
277,138,231480,1,8,0:0:0:0:
300,171,231567,1,8,0:0:0:0:
335,190,231654,1,8,0:0:0:0:
375,196,231742,1,8,0:0:0:0:
415,189,231829,1,8,0:0:0:0:
448,165,231916,1,8,0:0:0:0:
468,129,232003,1,8,0:0:0:0:
472,95,232090,5,14,0:0:0:0:
472,95,232788,2,0,P|457:149|468:185,2,85,2|2|2,0:0|0:0|0:0,0:0:0:0:
255,282,233486,2,0,P|234:236|195:218,1,85,2|0,0:0|0:0,0:0:0:0:
304,219,233835,2,0,P|269:241|254:281,1,85,2|0,0:0|0:0,0:0:0:0:
345,362,234183,2,0,P|352:309|304:292,1,85,2|0,0:0|0:0,0:0:0:0:
180,292,234532,2,0,P|154:323|167:362,1,85,2|0,0:0|0:0,0:0:0:0:
256,192,234881,12,2,235928,0:0:0:0:
318,204,236276,6,0,P|412:148|479:128,1,152.999995330811,6|0,1:2|0:0,0:0:0:0:
405,120,236625,2,0,P|328:105|288:87,1,101.999996887207,8|2,0:0|0:2,0:0:0:0:
261,66,236887,1,0,1:0:0:0:
261,66,236974,1,0,1:3:0:0:
83,148,237149,1,0,1:0:0:0:
101,61,237323,2,0,L|-32:50,1,101.999996887207,10|0,0:0|0:0,0:0:0:0:
25,246,237672,6,0,B|92:236|92:236|145:254|221:273,1,152.999995330811,2|0,1:2|0:0,0:0:0:0:
221,273,238021,2,0,P|204:337|202:377,1,101.999996887207,10|0,0:0|0:0,0:0:0:0:
220,192,238369,2,0,P|173:145|139:123,1,101.999996887207,0|0,1:0|1:0,0:0:0:0:
292,232,238718,2,0,P|355:214|391:196,1,101.999996887207,10|0,0:0|1:0,0:0:0:0:
432,170,238980,1,0,1:0:0:0:
432,170,239067,6,0,P|403:226|418:329,1,152.999995330811,6|0,1:2|0:0,0:0:0:0:
470,286,239416,2,0,P|489:333|481:393,1,101.999996887207,8|0,0:0|0:0,0:0:0:0:
459,373,239678,1,0,1:0:0:0:
459,373,239765,1,0,1:2:0:0:
512,202,239939,1,0,1:0:0:0:
468,96,240114,2,0,L|335:113,1,101.999996887207,10|2,0:0|1:2,0:0:0:0:
212,118,240463,6,0,P|181:69|259:82,1,152.999995330811,2|0,1:2|0:0,0:0:0:0:
290,110,240811,2,0,P|282:158|210:195,1,101.999996887207,10|0,0:0|1:0,0:0:0:0:
43,111,241160,1,2,1:2:0:0:
113,193,241335,1,0,1:0:0:0:
113,193,241509,2,0,L|113:310,1,101.999996887207,10|0,0:0|0:0,0:0:0:0:
87,333,241771,1,4,0:3:0:0:
75,345,241858,6,0,P|37:359|75:276,1,203.999993774414,6|10,1:2|0:0,0:0:0:0:
197,315,242381,1,0,1:0:0:0:
227,317,242468,1,0,1:3:0:0:
257,319,242556,1,2,1:2:0:0:
323,230,242730,1,0,1:0:0:0:
382,302,242904,2,0,L|495:294,1,101.999996887207,8|0,0:0|0:0,0:0:0:0:
323,230,243253,6,0,L|155:217,1,152.999995330811,2|0,1:2|0:0,0:0:0:0:
128,218,243602,2,0,P|117:161|147:114,1,101.999996887207,8|0,0:0|1:0,0:0:0:0:
91,39,243951,1,2,1:2:0:0:
91,39,244125,1,0,1:0:0:0:
258,106,244300,1,10,0:0:0:0:
421,39,244474,1,0,0:0:0:0:
332,44,244649,6,0,L|326:160,1,101.999996887207,6|0,1:2|0:0,0:0:0:0:
170,116,244997,2,0,L|176:232,1,101.999996887207,8|0,0:0|1:0,0:0:0:0:
316,185,245346,2,0,L|310:301,1,101.999996887207,2|2,1:2|1:2,0:0:0:0:
209,247,245695,2,0,L|215:363,1,101.999996887207,10|0,0:0|0:0,0:0:0:0:
428,335,246044,5,6,1:2:0:0:
486,258,246218,1,8,0:3:0:0:
494,217,246306,1,8,0:3:0:0:
479,178,246393,1,8,0:3:0:0:
445,154,246480,1,8,0:3:0:0:
404,149,246567,1,8,0:3:0:0:
368,168,246654,1,8,0:3:0:0:
348,204,246742,1,2,1:2:0:0:
505,95,246916,1,2,1:2:0:0:
255,151,247090,1,2,1:2:0:0:
428,335,247265,1,14,0:0:0:0:
