osu file format v14

[General]
AudioFilename: audio.mp3
AudioLeadIn: 0
PreviewTime: 55035
Countdown: 0
SampleSet: Normal
StackLeniency: 0.7
Mode: 1
LetterboxInBreaks: 0
WidescreenStoryboard: 1

[Editor]
Bookmarks: 25490,32763,38581,44399,56035,67672,76399,83672
DistanceSpacing: 1
BeatDivisor: 4
GridSize: 32
TimelineZoom: 1.3

[Metadata]
Title:Nostalgic Rainfall (TV Size)
TitleUnicode:ノスタルジックレインフォール (TV Size)
Artist:CHiCO with HoneyWorks
ArtistUnicode:CHiCO with HoneyWorks
Creator:Stompy_
Version:Ryxliee's Feelings
Source:恋は雨上がりのように
Tags:ryxliee mniam koi wa ameagari no you ni love is like after the rain opening op japanese pop jpop j-pop 私を染める i の歌 watashi o someru i uta short ver version anime wo
BeatmapID:3639407
BeatmapSetID:1775830

[Difficulty]
HPDrainRate:5
CircleSize:2
OverallDifficulty:5.5
ApproachRate:9
SliderMultiplier:1.4
SliderTickRate:1

[Events]
//Background and Video events
0,0,"honeyworked.jpg",0,50
//Break Periods
//Storyboard Layer 0 (Background)
//Storyboard Layer 1 (Fail)
//Storyboard Layer 2 (Pass)
//Storyboard Layer 3 (Foreground)
//Storyboard Layer 4 (Overlay)
//Storyboard Sound Samples

[TimingPoints]
763,363.636363636364,4,1,0,40,1,0
763,-142.857142857143,4,1,0,40,0,0
12399,-111.111111111111,4,1,0,60,0,0
25490,-90.9090909090909,4,1,0,75,0,0
31581,-94.1199301377838,4,1,0,75,0,0
31853,-97.5527991954408,4,1,0,75,0,0
32035,-99.9931276200948,4,1,0,75,0,0
32308,-103.891467333095,4,1,0,75,0,0
32581,-108.10610000743,4,1,0,75,0,0
32763,-111.111111111111,4,1,0,65,0,0
38581,-100,4,1,0,75,0,0
55126,-125,4,1,0,60,0,0
56035,-90.9090909090909,4,1,0,90,0,1
67066,-93.7660999484802,4,1,0,90,0,1
67187,-96.7827705397501,4,1,0,90,0,1
67308,-100,4,1,0,90,0,1
67429,-103.438476840011,4,1,0,90,0,1
67550,-107.121836374338,4,1,0,90,0,1
67672,-111.111111111111,4,1,0,80,0,0
68035,-100,4,1,0,80,0,0
73035,-98.3606557377049,4,1,0,80,0,0
73126,-96.7741935483871,4,1,0,80,0,0
73217,-95.2380952380952,4,1,0,80,0,0
73308,-93.75,4,1,0,80,0,0
73399,-92.3076923076923,4,1,0,80,0,0
73490,-90.9090909090909,4,1,0,90,0,1
81763,-93.7553758816446,4,1,0,90,0,1
81853,-96.7512870584058,4,1,0,90,0,1
81944,-99.9816547422491,4,1,0,90,0,1
82035,-103.435186942494,4,1,0,90,0,1
82126,-107.135836445842,4,1,0,90,0,1
82217,-111.111111111111,4,1,0,90,0,0
82763,-125,4,1,0,60,0,0
83672,-100,4,1,0,70,0,0
89490,-90.9090909090909,4,1,0,90,0,1
93308,-96.7741935483871,4,1,0,90,0,1
93399,-100,4,1,0,90,0,1
93490,-103.448275862069,4,1,0,90,0,1
93672,-111.111111111111,4,1,0,90,0,0

[HitObjects]
256,192,763,5,0,0:0:0:0:
256,192,1126,1,8,0:0:0:0:
256,192,1490,1,0,0:0:0:0:
256,192,1853,1,0,0:0:0:0:
256,192,2035,1,8,0:0:0:0:
256,192,2217,1,0,0:0:0:0:
256,192,2581,1,8,0:0:0:0:
256,192,2944,1,0,0:0:0:0:
256,192,3308,1,0,0:0:0:0:
256,192,3490,1,0,0:0:0:0:
256,192,3672,1,8,0:0:0:0:
256,192,4399,1,8,0:0:0:0:
256,192,4763,1,0,0:0:0:0:
256,192,6581,1,8,0:0:0:0:
256,192,6944,1,0,0:0:0:0:
256,192,7308,1,8,0:0:0:0:
256,192,7672,1,8,0:0:0:0:
256,192,7853,1,0,0:0:0:0:
256,192,8035,1,8,0:0:0:0:
256,192,8399,1,0,0:0:0:0:
256,192,8763,1,8,0:0:0:0:
256,192,9126,1,0,0:0:0:0:
256,192,9308,1,0,0:0:0:0:
256,192,9490,1,8,0:0:0:0:
256,192,10217,1,0,0:0:0:0:
256,192,10399,1,8,0:0:0:0:
256,192,10581,1,0,0:0:0:0:
256,192,10944,8,0,12035,0:0:0:0:
256,192,12399,5,12,0:0:0:0:
256,192,12763,1,0,0:0:0:0:
256,192,12944,1,8,0:0:0:0:
256,192,13126,1,0,0:0:0:0:
256,192,13490,1,8,0:0:0:0:
256,192,13672,1,0,0:0:0:0:
256,192,13853,1,0,0:0:0:0:
256,192,14035,1,8,0:0:0:0:
256,192,14217,1,0,0:0:0:0:
256,192,14581,1,0,0:0:0:0:
256,192,14763,1,0,0:0:0:0:
256,192,14944,1,8,0:0:0:0:
256,192,15126,1,0,0:0:0:0:
256,192,15217,1,0,0:0:0:0:
256,192,15308,1,8,0:0:0:0:
256,192,15672,1,0,0:0:0:0:
256,192,16035,1,8,0:0:0:0:
256,192,16217,1,0,0:0:0:0:
256,192,16399,1,8,0:0:0:0:
256,192,16763,1,0,0:0:0:0:
256,192,17126,1,0,0:0:0:0:
256,192,17490,1,0,0:0:0:0:
256,192,17672,1,0,0:0:0:0:
256,192,17853,1,8,0:0:0:0:
256,192,18035,1,8,0:0:0:0:
256,192,18217,1,0,0:0:0:0:
256,192,18581,1,0,0:0:0:0:
256,192,18763,1,0,0:0:0:0:
256,192,18944,1,8,0:0:0:0:
256,192,19126,1,0,0:0:0:0:
256,192,19490,1,0,0:0:0:0:
256,192,19672,1,8,0:0:0:0:
256,192,19853,1,0,0:0:0:0:
256,192,20217,1,0,0:0:0:0:
256,192,20399,1,8,0:0:0:0:
256,192,20763,1,0,0:0:0:0:
256,192,20944,1,8,0:0:0:0:
256,192,21126,1,0,0:0:0:0:
256,192,21308,1,0,0:0:0:0:
256,192,21672,1,0,0:0:0:0:
256,192,21853,1,8,0:0:0:0:
256,192,22035,1,0,0:0:0:0:
256,192,22217,1,8,0:0:0:0:
256,192,22581,1,8,0:0:0:0:
256,192,22944,1,8,0:0:0:0:
256,192,23308,1,8,0:0:0:0:
256,192,23490,1,0,0:0:0:0:
256,192,23672,1,8,0:0:0:0:
256,192,24035,1,0,0:0:0:0:
256,192,25490,1,12,0:0:0:0:
256,192,25672,1,0,0:0:0:0:
256,192,25763,1,0,0:0:0:0:
256,192,25853,1,8,0:0:0:0:
256,192,25944,1,8,0:0:0:0:
256,192,26035,1,4,0:0:0:0:
256,192,26217,1,0,0:0:0:0:
256,192,26308,1,8,0:0:0:0:
256,192,26399,1,0,0:0:0:0:
256,192,26581,1,12,0:0:0:0:
256,192,26944,1,0,0:0:0:0:
256,192,27126,1,8,0:0:0:0:
256,192,27308,1,8,0:0:0:0:
256,192,27490,1,0,0:0:0:0:
256,192,27672,1,8,0:0:0:0:
256,192,27763,1,0,0:0:0:0:
256,192,27853,1,0,0:0:0:0:
256,192,27944,1,0,0:0:0:0:
256,192,28035,1,8,0:0:0:0:
256,192,28399,1,4,0:0:0:0:
256,192,28581,1,8,0:0:0:0:
256,192,28763,1,8,0:0:0:0:
256,192,28944,1,4,0:0:0:0:
256,192,29126,1,8,0:0:0:0:
256,192,29217,1,8,0:0:0:0:
256,192,29308,1,0,0:0:0:0:
256,192,29490,1,12,0:0:0:0:
256,192,29853,1,8,0:0:0:0:
256,192,29975,1,8,0:0:0:0:
256,192,30096,1,0,0:0:0:0:
256,192,30217,1,8,0:0:0:0:
256,192,30338,1,8,0:0:0:0:
256,192,30459,1,0,0:0:0:0:
256,192,30581,1,8,0:0:0:0:
256,192,30944,1,12,0:0:0:0:
256,192,31308,1,0,0:0:0:0:
256,192,31581,1,0,0:0:0:0:
256,192,31853,1,0,0:0:0:0:
256,192,32035,1,8,0:0:0:0:
256,192,32308,1,8,0:0:0:0:
256,192,32581,1,8,0:0:0:0:
256,192,32763,1,4,0:0:0:0:
256,192,33126,1,0,0:0:0:0:
256,192,33490,1,8,0:0:0:0:
256,192,33672,1,8,0:0:0:0:
256,192,33853,1,0,0:0:0:0:
256,192,34035,1,8,0:0:0:0:
256,192,34126,1,8,0:0:0:0:
256,192,34217,1,8,0:0:0:0:
256,192,34399,1,0,0:0:0:0:
256,192,34581,1,8,0:0:0:0:
256,192,34944,1,8,0:0:0:0:
256,192,35126,1,0,0:0:0:0:
256,192,35217,1,0,0:0:0:0:
256,192,35308,1,0,0:0:0:0:
256,192,35672,1,8,0:0:0:0:
256,192,35853,1,0,0:0:0:0:
256,192,36035,1,8,0:0:0:0:
256,192,36217,1,0,0:0:0:0:
256,192,36399,1,8,0:0:0:0:
256,192,36763,1,0,0:0:0:0:
256,192,36944,1,8,0:0:0:0:
256,192,37035,1,8,0:0:0:0:
256,192,37126,1,8,0:0:0:0:
256,192,37308,1,0,0:0:0:0:
256,192,37490,1,8,0:0:0:0:
256,192,37672,1,0,0:0:0:0:
256,192,37763,1,0,0:0:0:0:
256,192,37853,1,0,0:0:0:0:
256,192,38035,1,8,0:0:0:0:
256,192,38217,1,8,0:0:0:0:
256,192,38581,1,4,0:0:0:0:
256,192,38944,1,8,0:0:0:0:
256,192,39217,1,8,0:0:0:0:
256,192,39308,1,0,0:0:0:0:
256,192,39490,1,0,0:0:0:0:
256,192,39672,1,8,0:0:0:0:
256,192,39853,1,8,0:0:0:0:
256,192,39944,1,8,0:0:0:0:
256,192,40035,1,0,0:0:0:0:
256,192,40217,1,0,0:0:0:0:
256,192,40399,1,8,0:0:0:0:
256,192,40581,1,0,0:0:0:0:
256,192,40763,1,0,0:0:0:0:
256,192,40944,1,0,0:0:0:0:
256,192,41126,1,8,0:0:0:0:
256,192,41490,1,8,0:0:0:0:
256,192,41672,1,0,0:0:0:0:
256,192,41853,1,8,0:0:0:0:
256,192,42035,1,0,0:0:0:0:
256,192,42126,1,8,0:0:0:0:
256,192,42217,1,0,0:0:0:0:
256,192,42399,1,8,0:0:0:0:
256,192,42581,1,8,0:0:0:0:
256,192,42763,1,4,0:0:0:0:
256,192,43126,1,0,0:0:0:0:
256,192,43308,1,8,0:0:0:0:
256,192,43490,1,0,0:0:0:0:
256,192,43672,1,0,0:0:0:0:
256,192,43853,1,8,0:0:0:0:
256,192,44035,1,8,0:0:0:0:
256,192,44126,1,8,0:0:0:0:
256,192,44217,1,0,0:0:0:0:
256,192,44399,1,12,0:0:0:0:
256,192,44763,1,8,0:0:0:0:
256,192,45035,1,0,0:0:0:0:
256,192,45126,1,8,0:0:0:0:
256,192,45308,1,8,0:0:0:0:
256,192,45490,1,0,0:0:0:0:
256,192,45672,1,8,0:0:0:0:
256,192,45853,1,0,0:0:0:0:
256,192,46217,1,0,0:0:0:0:
256,192,46490,1,8,0:0:0:0:
256,192,46581,1,0,0:0:0:0:
256,192,46763,1,0,0:0:0:0:
256,192,46944,1,8,0:0:0:0:
256,192,47126,1,8,0:0:0:0:
256,192,47308,1,4,0:0:0:0:
256,192,47672,1,8,0:0:0:0:
256,192,47944,1,0,0:0:0:0:
256,192,48035,1,8,0:0:0:0:
256,192,48217,1,8,0:0:0:0:
256,192,48399,1,0,0:0:0:0:
256,192,48581,1,8,0:0:0:0:
256,192,48762,1,0,0:0:0:0:
256,192,48944,1,0,0:0:0:0:
256,192,49126,1,8,0:0:0:0:
256,192,49399,1,8,0:0:0:0:
256,192,49490,1,0,0:0:0:0:
256,192,49672,1,0,0:0:0:0:
256,192,49853,1,8,0:0:0:0:
256,192,50035,1,0,0:0:0:0:
256,192,50126,1,0,0:0:0:0:
256,192,50217,1,0,0:0:0:0:
256,192,50581,1,12,0:0:0:0:
256,192,50853,1,0,0:0:0:0:
256,192,50944,1,8,0:0:0:0:
256,192,51126,1,8,0:0:0:0:
256,192,51308,1,0,0:0:0:0:
256,192,51490,1,8,0:0:0:0:
256,192,51672,1,0,0:0:0:0:
256,192,52035,1,0,0:0:0:0:
256,192,52217,1,0,0:0:0:0:
256,192,52308,1,8,0:0:0:0:
256,192,52399,1,0,0:0:0:0:
256,192,52581,1,0,0:0:0:0:
256,192,52763,1,12,0:0:0:0:
256,192,53126,1,0,0:0:0:0:
256,192,53308,1,8,0:0:0:0:
256,192,53399,1,8,0:0:0:0:
256,192,53490,1,0,0:0:0:0:
256,192,53672,1,0,0:0:0:0:
256,192,53763,1,0,0:0:0:0:
256,192,53853,1,8,0:0:0:0:
256,192,53944,1,0,0:0:0:0:
256,192,54035,1,8,0:0:0:0:
256,192,54126,1,8,0:0:0:0:
256,192,54217,1,0,0:0:0:0:
256,192,54399,1,12,0:0:0:0:
256,192,56035,1,12,0:0:0:0:
256,192,56399,1,8,0:0:0:0:
256,192,56581,1,0,0:0:0:0:
256,192,56763,1,8,0:0:0:0:
256,192,56944,1,0,0:0:0:0:
256,192,57035,1,8,0:0:0:0:
256,192,57126,1,0,0:0:0:0:
256,192,57308,1,4,0:0:0:0:
256,192,57672,1,0,0:0:0:0:
256,192,57853,1,8,0:0:0:0:
256,192,58035,1,8,0:0:0:0:
256,192,58126,1,8,0:0:0:0:
256,192,58217,1,0,0:0:0:0:
256,192,58399,1,0,0:0:0:0:
256,192,58490,1,0,0:0:0:0:
256,192,58581,1,8,0:0:0:0:
256,192,58672,1,8,0:0:0:0:
256,192,58763,1,8,0:0:0:0:
256,192,58854,1,8,0:0:0:0:
256,192,58944,1,4,0:0:0:0:
256,192,59308,1,8,0:0:0:0:
256,192,59490,1,0,0:0:0:0:
256,192,59672,1,8,0:0:0:0:
256,192,59853,1,8,0:0:0:0:
256,192,59944,1,0,0:0:0:0:
256,192,60035,1,8,0:0:0:0:
256,192,60217,1,4,0:0:0:0:
256,192,60581,1,0,0:0:0:0:
256,192,60763,1,8,0:0:0:0:
256,192,60944,1,0,0:0:0:0:
256,192,61126,1,0,0:0:0:0:
256,192,61217,1,0,0:0:0:0:
256,192,61308,1,8,0:0:0:0:
256,192,61399,1,0,0:0:0:0:
256,192,61490,1,8,0:0:0:0:
256,192,61672,1,0,0:0:0:0:
256,192,61763,1,0,0:0:0:0:
256,192,61853,1,12,0:0:0:0:
256,192,62217,1,8,0:0:0:0:
256,192,62399,1,0,0:0:0:0:
256,192,62581,1,8,0:0:0:0:
256,192,62763,1,0,0:0:0:0:
256,192,62944,1,0,0:0:0:0:
256,192,63126,1,12,0:0:0:0:
256,192,63490,1,0,0:0:0:0:
256,192,63672,1,8,0:0:0:0:
256,192,63853,1,0,0:0:0:0:
256,192,63944,1,8,0:0:0:0:
256,192,64035,1,0,0:0:0:0:
256,192,64217,1,8,0:0:0:0:
256,192,64308,1,0,0:0:0:0:
256,192,64399,1,8,0:0:0:0:
256,192,64581,1,8,0:0:0:0:
256,192,64672,1,8,0:0:0:0:
256,192,64763,1,4,0:0:0:0:
256,192,65126,1,8,0:0:0:0:
256,192,65308,1,0,0:0:0:0:
256,192,65490,1,8,0:0:0:0:
256,192,65672,1,0,0:0:0:0:
256,192,65853,1,0,0:0:0:0:
256,192,66035,1,12,0:0:0:0:
256,192,66399,1,0,0:0:0:0:
256,192,66581,1,8,0:0:0:0:
256,192,66763,1,0,0:0:0:0:
256,192,66944,1,0,0:0:0:0:
256,192,67066,1,8,0:0:0:0:
256,192,67187,1,8,0:0:0:0:
256,192,67308,1,0,0:0:0:0:
256,192,67429,1,0,0:0:0:0:
256,192,67550,1,8,0:0:0:0:
256,192,67672,1,0,0:0:0:0:
256,192,68035,1,12,0:0:0:0:
256,192,68217,1,0,0:0:0:0:
256,192,68399,1,0,0:0:0:0:
256,192,68581,1,0,0:0:0:0:
256,192,68763,1,8,0:0:0:0:
256,192,69035,1,8,0:0:0:0:
256,192,69126,1,0,0:0:0:0:
256,192,69308,1,0,0:0:0:0:
256,192,69490,1,8,0:0:0:0:
256,192,69672,1,8,0:0:0:0:
256,192,69763,1,8,0:0:0:0:
256,192,69853,1,0,0:0:0:0:
256,192,70035,1,0,0:0:0:0:
256,192,70217,1,8,0:0:0:0:
256,192,70399,1,0,0:0:0:0:
256,192,70490,1,8,0:0:0:0:
256,192,70581,1,4,0:0:0:0:
256,192,70944,1,8,0:0:0:0:
256,192,71126,1,0,0:0:0:0:
256,192,71308,1,8,0:0:0:0:
256,192,71490,1,0,0:0:0:0:
256,192,71581,1,0,0:0:0:0:
256,192,71672,1,8,0:0:0:0:
256,192,72035,1,0,0:0:0:0:
256,192,72217,1,0,0:0:0:0:
256,192,72399,1,8,0:0:0:0:
256,192,72581,1,0,0:0:0:0:
256,192,72763,1,8,0:0:0:0:
256,192,72944,1,8,0:0:0:0:
256,192,73035,1,8,0:0:0:0:
256,192,73126,1,8,0:0:0:0:
256,192,73217,1,8,0:0:0:0:
256,192,73308,1,0,0:0:0:0:
256,192,73399,1,0,0:0:0:0:
256,192,73490,5,12,0:0:0:0:
256,192,73853,1,8,0:0:0:0:
256,192,74035,1,0,0:0:0:0:
256,192,74126,1,0,0:0:0:0:
256,192,74217,1,8,0:0:0:0:
256,192,74399,1,0,0:0:0:0:
256,192,74581,1,8,0:0:0:0:
256,192,74944,1,0,0:0:0:0:
256,192,75126,1,0,0:0:0:0:
256,192,75308,1,8,0:0:0:0:
256,192,75490,1,0,0:0:0:0:
256,192,75672,1,8,0:0:0:0:
256,192,75853,1,0,0:0:0:0:
256,192,75944,1,0,0:0:0:0:
256,192,76035,1,8,0:0:0:0:
256,192,76217,1,8,0:0:0:0:
256,192,76399,5,4,0:0:0:0:
256,192,76763,1,0,0:0:0:0:
256,192,76944,1,8,0:0:0:0:
256,192,77035,1,8,0:0:0:0:
256,192,77126,1,0,0:0:0:0:
256,192,77308,1,8,0:0:0:0:
256,192,77490,1,0,0:0:0:0:
256,192,77853,1,8,0:0:0:0:
256,192,78035,1,0,0:0:0:0:
256,192,78217,1,8,0:0:0:0:
256,192,78399,1,8,0:0:0:0:
256,192,78581,1,0,0:0:0:0:
256,192,78672,1,8,0:0:0:0:
256,192,78763,1,0,0:0:0:0:
256,192,78853,1,0,0:0:0:0:
256,192,78944,1,8,0:0:0:0:
256,192,79126,1,0,0:0:0:0:
256,192,79308,1,12,0:0:0:0:
256,192,79672,1,8,0:0:0:0:
256,192,79853,1,0,0:0:0:0:
256,192,79944,1,0,0:0:0:0:
256,192,80035,1,8,0:0:0:0:
256,192,80217,1,0,0:0:0:0:
256,192,80399,1,8,0:0:0:0:
256,192,80763,1,8,0:0:0:0:
256,192,80944,1,0,0:0:0:0:
256,192,81126,1,8,0:0:0:0:
256,192,81308,1,0,0:0:0:0:
256,192,81490,1,0,0:0:0:0:
256,192,81672,1,8,0:0:0:0:
256,192,81763,1,0,0:0:0:0:
256,192,81853,1,8,0:0:0:0:
256,192,81944,1,0,0:0:0:0:
256,192,82035,1,8,0:0:0:0:
256,192,82126,1,8,0:0:0:0:
256,192,82217,1,4,0:0:0:0:
256,192,83672,1,12,0:0:0:0:
256,192,84035,1,8,0:0:0:0:
256,192,84308,1,0,0:0:0:0:
256,192,84399,1,8,0:0:0:0:
256,192,84581,1,0,0:0:0:0:
256,192,84763,1,8,0:0:0:0:
256,192,85126,1,0,0:0:0:0:
256,192,85308,1,0,0:0:0:0:
256,192,85490,1,8,0:0:0:0:
256,192,85672,1,8,0:0:0:0:
256,192,85763,1,8,0:0:0:0:
256,192,85853,1,0,0:0:0:0:
256,192,86035,1,0,0:0:0:0:
256,192,86217,1,8,0:0:0:0:
256,192,86581,1,0,0:0:0:0:
256,192,86763,1,0,0:0:0:0:
256,192,86944,1,8,0:0:0:0:
256,192,87126,1,0,0:0:0:0:
256,192,87217,1,8,0:0:0:0:
256,192,87308,1,0,0:0:0:0:
256,192,87490,1,0,0:0:0:0:
256,192,87672,1,8,0:0:0:0:
256,192,87853,1,0,0:0:0:0:
256,192,88035,1,0,0:0:0:0:
256,192,88217,1,0,0:0:0:0:
256,192,88399,1,8,0:0:0:0:
256,192,88581,1,8,0:0:0:0:
256,192,88672,1,8,0:0:0:0:
256,192,88763,1,0,0:0:0:0:
256,192,88944,1,8,0:0:0:0:
256,192,89126,1,8,0:0:0:0:
256,192,89490,5,4,0:0:0:0:
256,192,89853,1,8,0:0:0:0:
256,192,90035,1,0,0:0:0:0:
256,192,90126,1,0,0:0:0:0:
256,192,90217,1,8,0:0:0:0:
256,192,90399,1,0,0:0:0:0:
256,192,90581,1,8,0:0:0:0:
256,192,90763,1,8,0:0:0:0:
256,192,90853,1,0,0:0:0:0:
256,192,90944,1,8,0:0:0:0:
256,192,91126,1,0,0:0:0:0:
256,192,91308,1,8,0:0:0:0:
256,192,91490,1,0,0:0:0:0:
256,192,91581,1,0,0:0:0:0:
256,192,91672,1,8,0:0:0:0:
256,192,91853,1,0,0:0:0:0:
256,192,92035,1,8,0:0:0:0:
256,192,92399,1,8,0:0:0:0:
256,192,92581,1,0,0:0:0:0:
256,192,92763,1,8,0:0:0:0:
256,192,92944,1,0,0:0:0:0:
256,192,93126,1,0,0:0:0:0:
256,192,93308,1,8,0:0:0:0:
256,192,93399,1,8,0:0:0:0:
256,192,93490,1,8,0:0:0:0:
256,192,93672,1,4,0:0:0:0:
