osu file format v14

[General]
AudioFilename: audio.mp3
AudioLeadIn: 0
PreviewTime: 55035
Countdown: 0
SampleSet: Normal
StackLeniency: 0.7
Mode: 1
LetterboxInBreaks: 0
WidescreenStoryboard: 0

[Editor]
DistanceSpacing: 1
BeatDivisor: 4
GridSize: 32
TimelineZoom: 1

[Metadata]
Title:Nostalgic Rainfall (TV Size)
TitleUnicode:ノスタルジックレインフォール (TV Size)
Artist:CHiCO with HoneyWorks
ArtistUnicode:CHiCO with HoneyWorks
Creator:Stompy_
Version:Kantan
Source:恋は雨上がりのように
Tags:ryxliee mniam koi wa ameagari no you ni love is like after the rain opening op japanese pop jpop j-pop 私を染める i の歌 watashi o someru i uta short ver version anime wo
BeatmapID:3636360
BeatmapSetID:1775830

[Difficulty]
HPDrainRate:8
CircleSize:3
OverallDifficulty:3
ApproachRate:5
SliderMultiplier:1.4
SliderTickRate:1

[Events]
//Background and Video events
0,0,"honeyworked.jpg",0,50
//Break Periods
//Storyboard Layer 0 (Background)
//Storyboard Layer 1 (Fail)
//Storyboard Layer 2 (Pass)
//Storyboard Layer 3 (Foreground)
//Storyboard Layer 4 (Overlay)
//Storyboard Sound Samples

[TimingPoints]
763,363.636363636364,4,1,0,40,1,0
12399,-100,4,1,0,60,0,0
25490,-100,4,1,0,75,0,0
32763,-100,4,1,0,65,0,0
38581,-100,4,1,0,75,0,0
55126,-100,4,1,0,60,0,0
56035,-100,4,1,0,90,0,1
67672,-100,4,1,0,80,0,0
73490,-100,4,1,0,90,0,1
82217,-100,4,1,0,90,0,0
82763,-100,4,1,0,60,0,0
83672,-100,4,1,0,70,0,0
89490,-100,4,1,0,90,0,1
93672,-100,4,1,0,90,0,0

[HitObjects]
256,194,763,5,8,0:0:0:0:
256,194,1490,1,0,0:0:0:0:
256,194,2217,1,8,0:0:0:0:
256,194,2944,1,0,0:0:0:0:
256,194,3672,1,8,0:0:0:0:
256,194,4399,1,0,0:0:0:0:
256,194,4763,1,0,0:0:0:0:
345,283,6581,1,8,0:0:0:0:
345,283,7308,1,0,0:0:0:0:
345,283,8035,1,8,0:0:0:0:
345,283,8763,1,0,0:0:0:0:
345,283,9490,1,8,0:0:0:0:
345,283,10217,1,0,0:0:0:0:
345,283,10581,1,0,0:0:0:0:
339,60,12399,1,4,0:0:0:0:
339,60,12763,1,8,0:0:0:0:
339,60,13126,1,0,0:0:0:0:
339,60,13853,1,0,0:0:0:0:
339,60,14217,1,0,0:0:0:0:
339,60,14581,1,8,0:0:0:0:
339,60,15308,1,8,0:0:0:0:
158,76,16035,1,0,0:0:0:0:
158,76,16399,1,0,0:0:0:0:
158,76,16763,1,8,0:0:0:0:
246,170,18217,1,0,0:0:0:0:
246,170,18581,1,0,0:0:0:0:
246,170,18944,1,0,0:0:0:0:
246,170,19672,1,8,0:0:0:0:
93,200,20763,1,0,0:0:0:0:
93,200,21126,1,8,0:0:0:0:
93,200,21853,1,0,0:0:0:0:
93,200,22217,1,0,0:0:0:0:
256,192,22581,12,0,23672,0:0:0:0:
255,197,24035,5,0,0:0:0:0:
255,197,25490,1,12,0:0:0:0:
255,197,26035,1,0,0:0:0:0:
255,197,26581,1,8,0:0:0:0:
256,190,27308,1,0,0:0:0:0:
403,60,28035,1,0,0:0:0:0:
403,60,28399,1,12,0:0:0:0:
255,194,28944,1,0,0:0:0:0:
255,194,29490,1,12,0:0:0:0:
255,194,29853,1,0,0:0:0:0:
235,287,30581,1,0,0:0:0:0:
235,287,30944,1,12,0:0:0:0:
235,287,31308,1,0,0:0:0:0:
235,287,32763,1,12,0:0:0:0:
235,287,33490,1,0,0:0:0:0:
235,287,34035,1,8,0:0:0:0:
235,287,34399,1,0,0:0:0:0:
235,287,34763,1,0,0:0:0:0:
374,185,35672,1,8,0:0:0:0:
374,185,36399,1,8,0:0:0:0:
374,185,37126,1,0,0:0:0:0:
374,185,37672,1,0,0:0:0:0:
179,188,38581,1,12,0:0:0:0:
179,188,39308,1,0,0:0:0:0:
179,188,39853,1,0,0:0:0:0:
179,188,40217,1,8,0:0:0:0:
179,188,40581,1,0,0:0:0:0:
318,184,41490,1,8,0:0:0:0:
318,184,41853,1,8,0:0:0:0:
318,184,42217,1,0,0:0:0:0:
318,184,42763,1,12,0:0:0:0:
318,184,43308,1,8,0:0:0:0:
318,184,43672,1,0,0:0:0:0:
120,189,44399,1,4,0:0:0:0:
120,189,44763,1,8,0:0:0:0:
386,186,45126,1,0,0:0:0:0:
386,186,45853,1,0,0:0:0:0:
386,186,46217,1,8,0:0:0:0:
109,70,47308,1,4,0:0:0:0:
109,70,47672,1,8,0:0:0:0:
102,66,48035,1,0,0:0:0:0:
276,75,48581,1,0,0:0:0:0:
276,75,49126,1,8,0:0:0:0:
276,75,50217,1,4,0:0:0:0:
276,75,50581,1,8,0:0:0:0:
276,75,50944,1,0,0:0:0:0:
77,71,51490,1,0,0:0:0:0:
254,73,52581,1,0,0:0:0:0:
254,73,53126,1,8,0:0:0:0:
254,73,53490,1,8,0:0:0:0:
254,73,53853,1,0,0:0:0:0:
254,73,54399,1,12,0:0:0:0:
66,168,56035,1,12,0:0:0:0:
66,168,56399,1,8,0:0:0:0:
66,168,56763,1,0,0:0:0:0:
66,168,57126,1,8,0:0:0:0:
66,168,57490,1,0,0:0:0:0:
66,168,58217,1,8,0:0:0:0:
66,168,58944,1,0,0:0:0:0:
66,168,59308,1,8,0:0:0:0:
66,168,59672,1,0,0:0:0:0:
66,168,60035,1,0,0:0:0:0:
66,168,60399,1,8,0:0:0:0:
267,172,61126,1,0,0:0:0:0:
267,172,61853,1,12,0:0:0:0:
267,172,62217,1,8,0:0:0:0:
267,172,62581,1,0,0:0:0:0:
267,172,62944,1,8,0:0:0:0:
267,172,63308,1,0,0:0:0:0:
267,172,64763,1,12,0:0:0:0:
267,172,65672,1,0,0:0:0:0:
267,172,66035,1,8,0:0:0:0:
267,172,66399,1,8,0:0:0:0:
267,172,66944,1,0,0:0:0:0:
267,172,68035,1,12,0:0:0:0:
267,172,68399,1,0,0:0:0:0:
267,172,68763,1,8,0:0:0:0:
267,172,69126,1,0,0:0:0:0:
267,172,69853,1,0,0:0:0:0:
267,172,70581,1,8,0:0:0:0:
267,172,71308,1,0,0:0:0:0:
267,172,71672,1,0,0:0:0:0:
267,172,72035,1,8,0:0:0:0:
267,172,73490,1,12,0:0:0:0:
267,172,73853,1,8,0:0:0:0:
267,172,74217,1,0,0:0:0:0:
267,172,74944,1,0,0:0:0:0:
267,172,75308,1,0,0:0:0:0:
267,172,75672,1,8,0:0:0:0:
267,172,76399,1,12,0:0:0:0:
267,172,76763,1,8,0:0:0:0:
267,172,77126,1,0,0:0:0:0:
267,172,77853,1,0,0:0:0:0:
267,172,78217,1,8,0:0:0:0:
267,172,78581,1,0,0:0:0:0:
267,172,79308,1,12,0:0:0:0:
267,172,79672,1,8,0:0:0:0:
267,172,80035,1,0,0:0:0:0:
267,172,80399,1,8,0:0:0:0:
267,172,80763,1,0,0:0:0:0:
267,172,81490,1,0,0:0:0:0:
267,172,81853,1,0,0:0:0:0:
267,172,82217,1,12,0:0:0:0:
233,57,83672,1,8,0:0:0:0:
233,57,84399,1,0,0:0:0:0:
233,57,84944,1,8,0:0:0:0:
233,57,85490,1,8,0:0:0:0:
233,57,85853,1,0,0:0:0:0:
233,57,86399,1,0,0:0:0:0:
233,57,87308,1,8,0:0:0:0:
233,57,87853,1,8,0:0:0:0:
233,57,88399,1,0,0:0:0:0:
419,85,89490,1,4,0:0:0:0:
419,85,89854,1,0,0:0:0:0:
419,85,90217,1,8,0:0:0:0:
419,85,90944,1,8,0:0:0:0:
419,85,91308,1,0,0:0:0:0:
419,85,91672,1,8,0:0:0:0:
111,72,92399,1,8,0:0:0:0:
111,72,92763,1,8,0:0:0:0:
111,72,93126,1,0,0:0:0:0:
111,72,93672,1,8,0:0:0:0:
