osu file format v14

[General]
AudioFilename: audio.mp3
AudioLeadIn: 0
PreviewTime: 55170
Countdown: 0
SampleSet: Soft
StackLeniency: 0.7
Mode: 0
LetterboxInBreaks: 0
WidescreenStoryboard: 0

[Editor]
DistanceSpacing: 1.1
BeatDivisor: 4
GridSize: 8
TimelineZoom: 3.299999

[Metadata]
Title:Nostalgic Rainfall (TV Size)
TitleUnicode:ノスタルジックレインフォール (TV Size)
Artist:CHiCO with HoneyWorks
ArtistUnicode:CHiCO with HoneyWorks
Creator:Loxxuss
Version:Hard
Source:恋は雨上がりのように
Tags:CHiCO with HoneyWorks Nostalgic Rainfall opening koi wa ameagari no you ni
BeatmapID:1525252
BeatmapSetID:719358

[Difficulty]
HPDrainRate:6
CircleSize:4
OverallDifficulty:6
ApproachRate:8
SliderMultiplier:1.6
SliderTickRate:1

[Events]
//Background and Video events
Video,158,"video.avi"
0,0,"BG.jpg",0,0
//Break Periods
//Storyboard Layer 0 (Background)
//Storyboard Layer 1 (Fail)
//Storyboard Layer 2 (Pass)
//Storyboard Layer 3 (Foreground)
//Storyboard Sound Samples

[TimingPoints]
898,363.636363636364,4,2,1,100,1,0
5352,-100,4,2,10,15,0,0
5534,-100,4,2,1,100,0,0
56170,-100,4,2,1,100,0,1
68079,-100,4,2,1,100,0,0
68170,-100,4,2,1,100,0,1
76534,-100,4,2,1,100,0,0
77898,-100,4,2,1,100,0,0
77988,-100,4,2,1,100,0,1
78079,-100,4,2,1,100,0,0

[Colours]
Combo1 : 255,149,98
Combo2 : 0,128,255
Combo3 : 255,111,183
Combo4 : 0,255,128

[HitObjects]
168,112,898,5,2,0:0:0:0:
168,112,1261,2,0,P|232:120|320:80,1,160
408,224,1988,1,0,0:0:0:0:
248,304,2352,1,2,0:0:0:0:
72,280,2716,6,0,P|72:232|160:248,1,160
200,88,3443,1,0,0:0:0:0:
208,96,3625,1,0,0:0:0:0:
216,104,3807,1,2,0:0:0:0:
320,72,4352,5,0,0:0:0:0:
384,136,4534,2,0,P|368:192|288:264,1,160
295,260,5443,1,4,0:0:0:0:
128,224,6352,5,0,0:0:0:0:
72,152,6716,2,0,P|128:96|216:72,1,160,2|0,0:0|0:0,0:0:0:0:
376,104,7443,2,0,L|304:272,1,160,2|0,0:0|0:0,0:0:0:0:
152,328,8170,1,2,0:0:0:0:
144,152,8534,6,0,P|224:136|304:152,1,160,0|2,0:0|0:0,0:0:0:0:
360,216,9261,2,0,P|408:200|384:88,1,160,0|2,0:0|0:0,0:0:0:0:
96,256,10352,1,0,0:0:0:0:
107,254,10534,1,0,0:0:0:0:
118,252,10716,1,2,0:0:0:0:
360,120,12170,5,0,0:0:0:0:
384,208,12534,2,0,P|312:200|272:128,1,160,2|0,0:0|0:0,0:0:0:0:
184,104,13079,1,0,0:0:0:0:
112,152,13261,2,0,B|96:200|96:200|144:232|160:288,1,160,0|0,1:1|0:0,0:0:0:0:
248,312,13807,5,0,0:0:0:0:
320,264,13988,2,0,P|368:272|400:288,2,80,0|0|2,0:0|0:0|0:0,0:0:0:0:
240,224,14534,1,0,0:0:0:0:
304,160,14716,1,0,1:1:0:0:
224,120,14898,2,0,L|144:104,2,80,0|2|0,0:0|0:0|0:0,0:0:0:0:
304,160,15443,1,2,0:0:0:0:
392,88,15988,5,0,0:0:0:0:
392,176,16170,2,0,L|416:256,1,80,2|0,0:0|0:0,0:0:0:0:
352,320,16534,2,0,L|306:166,1,160,0|2,0:0|0:0,0:0:0:0:
152,80,17261,2,0,P|160:152|200:240,1,160,0|0,0:0|1:1,0:0:0:0:
288,80,17988,5,0,0:0:0:0:
288,80,18352,2,0,L|344:136,1,80,2|0,0:0|0:0,0:0:0:0:
264,184,18716,2,0,L|288:264,1,80
200,288,19079,2,0,L|112:120,1,160,0|2,1:1|0:0,0:0:0:0:
208,120,19625,6,0,P|248:120|296:144,1,80,0|2,0:0|0:0,0:0:0:0:
320,216,19988,2,0,P|352:192|352:80,1,160
272,56,20534,1,0,1:1:0:0:
208,120,20716,2,0,L|168:192,1,80,0|2,0:0|0:0,0:0:0:0:
256,216,21079,2,0,L|304:304,1,80,0|2,0:0|0:0,0:0:0:0:
256,192,21625,12,0,24170,0:0:0:0:
288,240,25625,5,4,0:0:0:0:
208,208,25807,2,0,L|168:224,2,40,0|0|0,1:1|1:1|1:1,0:0:0:0:
224,120,26170,1,4,0:0:0:0:
304,88,26353,2,0,L|312:48,2,40,0|0|0,1:1|1:1|1:1,0:0:0:0:
352,160,26716,1,4,0:0:0:0:
200,248,27079,6,0,L|152:312,2,80,2|0|0,0:3|1:1|1:1,0:0:0:0:
200,160,27625,1,2,0:3:0:0:
280,120,27807,2,0,L|320:128,2,40,0|8|2,1:1|0:3|0:3,0:0:0:0:
208,64,28170,2,0,P|144:80|112:176,1,160,0|4,1:1|0:0,0:0:0:0:
184,200,28716,1,2,0:3:0:0:
152,280,28898,1,2,0:3:0:0:
240,280,29079,6,0,P|288:272|328:240,1,80,0|2,1:1|0:3,0:0:0:0:
336,168,29443,1,2,0:3:0:0:
416,128,29625,2,0,P|384:96|272:104,1,160,4|0,0:0|1:1,0:0:0:0:
240,184,30170,2,0,L|200:224,6,40,2|0|2|0|2|0|2,0:3|0:0|0:3|0:0|0:3|0:0|0:3,0:0:0:0:
280,264,30898,1,2,0:3:0:0:
368,280,31079,1,0,1:1:0:0:
368,280,31443,6,0,P|344:224|280:192,2,120,2|0|0,0:0|0:0|0:0,0:0:0:0:
280,280,32170,1,2,0:0:0:0:
152,240,32443,2,0,P|136:184|152:120,1,120,2|0,0:0|0:0,0:0:0:0:
168,40,32898,6,0,L|328:80,1,160,2|2,0:3|0:3,0:0:0:0:
408,72,33443,1,0,0:0:0:0:
408,160,33625,2,0,P|456:144|480:120,2,80,2|0|2,0:3|0:0|0:3,0:0:0:0:
344,224,34170,1,0,0:0:0:0:
296,296,34352,2,0,P|216:288|136:224,1,160,2|2,0:3|0:3,0:0:0:0:
72,208,34898,1,0,0:0:0:0:
72,120,35079,6,0,B|144:80|144:80|184:152,1,160,2|2,0:3|0:3,0:0:0:0:
216,232,35625,1,0,0:0:0:0:
296,256,35807,2,0,P|344:200|304:104,1,160,2|2,0:3|0:3,0:0:0:0:
160,64,36534,2,0,P|112:120|152:216,1,160,2|2,0:3|0:3,0:0:0:0:
256,320,37261,1,2,0:3:0:0:
256,320,37443,6,0,P|296:304|328:272,1,80,0|2,0:0|0:3,0:0:0:0:
288,200,37807,2,0,P|323:182|363:177,1,80,0|2,0:0|0:3,0:0:0:0:
424,248,38170,1,0,1:1:0:0:
344,96,38352,1,0,1:1:0:0:
344,96,38716,5,4,0:0:0:0:
256,72,38898,1,2,0:3:0:0:
168,80,39079,2,0,P|120:144|136:224,1,160,0|0,1:1|0:0,0:0:0:0:
128,304,39625,1,2,0:3:0:0:
208,272,39807,2,0,P|287:270|360:238,1,160,0|2,1:1|0:3,0:0:0:0:
448,216,40352,1,2,0:3:0:0:
384,152,40534,6,0,P|384:112|400:72,1,80,0|0,1:1|0:0,0:0:0:0:
398,75,40898,1,0,0:0:0:0:
320,32,41079,1,2,0:3:0:0:
280,112,41261,2,0,P|208:136|120:128,1,160,0|2,1:1|0:3,0:0:0:0:
56,176,41807,1,2,0:3:0:0:
120,240,41988,2,0,L|208:280,1,80,0|0,1:1|0:0,0:0:0:0:
264,216,42352,6,0,L|191:182,1,80,0|2,0:0|0:3,0:0:0:0:
120,240,42716,1,0,1:1:0:0:
256,128,42898,1,4,0:0:0:0:
256,128,43261,1,2,0:3:0:0:
336,96,43443,2,0,P|384:112|424:152,1,80,0|0,1:1|0:0,0:0:0:0:
416,216,43807,5,2,0:3:0:0:
360,280,43988,2,0,L|376:328,4,40,8|8|8|8|8,0:3|0:3|0:3|0:3|0:3,0:3:0:0:
270,297,44534,5,4,0:0:0:0:
206,241,44716,1,2,0:3:0:0:
134,185,44898,2,0,P|182:153|246:161,1,120,0|0,1:1|1:1,0:0:0:0:
278,137,45261,1,0,0:0:0:0:
350,193,45443,1,2,0:3:0:0:
406,129,45625,2,0,P|390:97|350:65,1,80,0|0,1:1|0:0,0:0:0:0:
270,81,45988,5,2,0:3:0:0:
241,158,46170,1,2,0:3:0:0:
174,209,46352,2,0,P|222:241|286:233,1,120,0|0,1:1|1:1,0:0:0:0:
318,257,46716,1,0,0:0:0:0:
398,233,46898,1,2,0:3:0:0:
438,153,47079,2,0,L|406:73,1,80,0|0,1:1|0:0,0:0:0:0:
320,64,47443,5,0,0:0:0:0:
248,120,47625,1,2,0:3:0:0:
160,104,47807,2,0,P|128:152|136:216,1,120,0|0,1:1|1:1,0:0:0:0:
112,248,48170,1,0,0:0:0:0:
184,296,48352,1,2,0:3:0:0:
264,256,48534,1,0,1:1:0:0:
352,248,48716,6,0,L|408:328,2,80,0|2|2,0:0|0:3|0:3,0:0:0:0:
424,200,49261,2,0,P|456:152|448:88,1,120,0|0,1:1|1:1,0:0:0:0:
456,48,49625,1,0,0:0:0:0:
376,80,49807,1,2,0:3:0:0:
296,120,49988,2,0,B|248:128|200:112|200:112|136:136,1,160,0|2,1:1|0:3,0:0:0:0:
104,216,50534,1,2,0:3:0:0:
152,288,50716,6,0,P|200:320|264:312,1,120,0|0,1:1|1:1,0:0:0:0:
304,328,51079,1,0,0:0:0:0:
384,296,51261,1,2,0:3:0:0:
464,264,51443,2,0,P|400:208|320:240,1,160,0|2,1:1|0:3,0:0:0:0:
248,232,51988,1,2,0:3:0:0:
192,168,52170,6,0,P|144:200|80:192,1,120,0|0,1:1|1:1,0:0:0:0:
48,216,52534,1,8,0:3:0:0:
48,128,52716,1,2,0:3:0:0:
120,80,52898,2,0,L|280:104,1,160,0|2,0:0|0:3,0:0:0:0:
360,128,53443,2,0,L|416:104,2,40,0|0|2,0:0|0:0|0:3,0:0:0:0:
288,176,53807,1,0,0:0:0:0:
312,256,53988,5,2,0:3:0:0:
224,272,54170,2,0,L|200:304,2,40,0|0|0,1:1|1:1|1:1,0:0:0:0:
184,200,54534,1,4,0:0:0:0:
176,168,55261,5,2,0:0:0:0:
248,112,55443,2,0,B|288:128|328:96|328:96|376:176,1,160,2|0,0:0|0:0,0:0:0:0:
368,248,55988,1,2,0:0:0:0:
280,256,56170,6,0,L|200:240,1,80,4|2,0:0|0:3,0:0:0:0:
120,280,56534,2,0,P|112:240|128:184,1,80,0|2,1:1|0:3,0:0:0:0:
160,128,56898,1,0,1:1:0:0:
96,64,57079,1,2,0:3:0:0:
184,48,57261,1,0,0:0:0:0:
184,48,57443,6,0,B|240:64|280:48|280:48|352:80,1,160,0|2,1:1|0:3,0:0:0:0:
424,80,57988,2,0,P|416:136|384:200,1,120,0|0,1:1|1:1,0:0:0:0:
392,240,58352,1,4,0:0:0:0:
320,288,58534,2,0,L|306:328,2,40,0|0|0,1:1|1:1|1:1,0:0:0:0:
284,268,58807,2,0,L|246:288,2,40,0|0|0,1:1|1:1|1:1,0:0:0:0:
296,224,59079,6,0,P|288:184|264:144,1,80,4|2,0:0|0:3,0:0:0:0:
192,112,59443,2,0,P|172:146|165:185,1,80,0|2,1:1|0:3,0:0:0:0:
136,272,59807,1,0,1:1:0:0:
56,240,59988,1,2,0:3:0:0:
64,152,60170,2,0,L|40:72,1,80,2|0,0:3|1:1,0:0:0:0:
112,24,60534,5,2,0:0:0:0:
184,80,60716,1,2,0:3:0:0:
272,56,60898,2,0,B|312:72|352:56|352:56|376:88|432:88,1,160,0|0,1:1|0:0,0:0:0:0:
424,136,61352,2,0,L|400:168,3,40,0|0|0|2,1:1|1:1|1:1|0:3,0:0:0:0:
320,200,61807,1,0,0:0:0:0:
256,264,61988,6,0,P|216:264|176:248,1,80,4|2,0:0|0:3,0:0:0:0:
96,272,62352,1,0,1:1:0:0:
80,184,62534,2,0,P|104:152|144:128,1,80,2|0,0:3|1:1,0:0:0:0:
152,40,62898,1,2,0:3:0:0:
224,96,63079,1,2,0:3:0:0:
304,56,63261,6,0,P|336:128|296:224,1,160,0|2,1:1|0:3,0:0:0:0:
240,248,63807,1,0,1:1:0:0:
152,264,63988,2,0,P|168:304|200:328,1,80,8|2,0:3|0:3,0:0:0:0:
288,320,64352,1,0,1:1:0:0:
288,320,64443,1,0,1:1:0:0:
288,320,64534,1,2,0:3:0:0:
368,280,64716,6,0,L|400:304,2,40,0|0|4,1:1|1:1|0:0,0:0:0:0:
328,200,65079,1,2,0:3:0:0:
360,120,65261,2,0,P|400:96|432:88,2,80,4|2|0,0:0|0:3|1:1,0:0:0:0:
272,104,65807,1,2,0:3:0:0:
208,168,65988,1,2,0:3:0:0:
120,160,66170,2,0,P|128:208|224:256,1,160,0|2,1:1|0:3,0:0:0:0:
304,240,66716,5,0,1:1:0:0:
344,160,66898,1,0,0:0:0:0:
272,112,67079,2,0,L|248:72,3,40,8|0|0|0,0:3|1:1|1:1|1:1,0:0:0:0:
208,88,67443,2,0,L|174:55,3,40,8|0|0|8,0:3|0:0|0:0|0:3,0:0:0:0:
136,72,67807,2,0,P|96:136|104:224,1,160,0|4,0:0|0:0,0:0:0:0:
160,288,68352,5,0,0:0:0:0:
248,272,68534,2,0,P|288:256|320:224,1,80,2|2,0:3|0:3,0:0:0:0:
400,232,68898,2,0,P|384:176|320:144,1,120,0|0,1:1|1:1,0:0:0:0:
304,112,69261,2,0,L|328:32,1,80,2|2,0:3|0:3,0:0:0:0:
240,48,69625,2,0,P|186:69|121:39,1,120,0|0,1:1|1:1,0:0:0:0:
88,48,69988,1,2,0:3:0:0:
72,136,70170,5,2,0:3:0:0:
120,208,70352,2,0,P|99:262|129:327,1,120,0|0,1:1|1:1,0:0:0:0:
160,328,70716,2,0,L|240:288,1,80,2|2,0:3|0:3,0:0:0:0:
320,288,71079,1,4,0:0:0:0:
392,240,71261,2,0,P|416:272|424:320,2,80,0|2|2,0:0|0:3|0:3,0:0:0:0:
400,152,71807,2,0,L|224:104,1,160,4|2,0:0|0:3,0:0:0:0:
160,144,72352,5,2,0:3:0:0:
160,144,72534,2,0,L|128:232,1,80,0|2,1:1|0:3,0:0:0:0:
80,288,72898,2,0,P|134:309|199:279,1,120,4|0,0:0|1:1,0:0:0:0:
232,272,73261,2,0,L|272:288,3,40,0|0|0|0,1:1|1:1|1:1|1:1,0:0:0:0:
304,312,73625,6,0,B|376:280|376:280|432:216,1,160,4|0,0:0|1:1,0:0:0:0:
400,136,74170,1,2,0:3:0:0:
400,136,74352,2,0,P|352:120|320:88,1,80,0|2,1:1|0:3,0:0:0:0:
248,72,74716,1,0,1:1:0:0:
248,72,74898,2,0,P|200:88|168:120,1,80,2|0,0:3|1:1,0:0:0:0:
88,120,75261,1,2,0:3:0:0:
96,208,75443,6,0,P|152:264|240:296,1,160,0|2,1:1|0:3,0:0:0:0:
264,272,75898,2,0,P|320:264|352:240,1,80,0|0,1:1|1:1,0:0:0:0:
368,224,76170,2,0,L|424:240,4,40,0|8|8|8|4,1:1|0:3|0:3|0:3|0:1,0:0:0:0:
208,120,77988,6,0,P|192:160|152:200,1,80,4|2,0:0|0:3,0:0:0:0:
96,240,78352,2,0,L|192:320,1,120,0|0,1:1|1:1,0:0:0:0:
232,304,78716,2,0,P|304:272|384:272,1,160,2|0,0:3|1:1,0:0:0:0:
432,200,79261,1,0,0:0:0:0:
384,128,79443,2,0,L|304:104,1,80,2|2,0:3|0:3,0:0:0:0:
224,136,79807,2,0,L|88:104,1,120,0|0,1:1|1:1,0:0:0:0:
80,144,80170,6,0,P|56:184|136:200,1,160,2|0,0:3|1:1,0:0:0:0:
296,280,80898,1,2,0:3:0:0:
264,200,81079,1,2,0:3:0:0:
352,208,81261,2,0,P|376:168|368:80,1,120,0|0,1:1|1:1,0:0:0:0:
384,56,81625,2,0,L|232:112,1,160,2|0,0:3|1:1,0:0:0:0:
144,104,82170,2,0,P|136:144|136:184,1,80,0|2,0:0|0:3,0:0:0:0:
88,256,82534,5,2,0:3:0:0:
152,312,82716,2,0,P|208:296|248:232,1,120,0|0,1:1|1:1,0:0:0:0:
232,208,83079,1,2,0:3:0:0:
320,200,83261,1,0,1:1:0:0:
368,128,83443,2,0,P|392:96|432:56,2,80,8|0|4,0:3|0:0|0:0,0:0:0:0:
280,136,83988,1,2,0:3:0:0:
208,184,84170,6,0,P|144:200|80:176,1,120,0|0,1:1|1:1,0:0:0:0:
72,144,84534,2,0,P|112:80|208:64,1,160,4|0,0:0|1:1,0:0:0:0:
264,104,85079,1,0,0:0:0:0:
344,64,85261,2,0,P|376:104|384:144,1,80,4|2,0:0|0:3,0:0:0:0:
440,200,85625,2,0,L|344:280,1,120,0|0,1:1|1:1,0:0:0:0:
320,312,85988,2,0,P|248:288|168:320,1,160,4|8,0:0|0:3,0:0:0:0:
104,256,86534,6,0,L|128:176,1,80,0|0,0:0|1:1,0:0:0:0:
104,96,86898,1,2,0:3:0:0:
176,48,87079,2,0,P|240:64|352:16,1,160,0|2,1:1|0:3,0:0:0:0:
408,80,87625,2,0,L|456:72,2,40,0|0|0,1:1|1:1|1:1,0:0:0:0:
344,136,87988,1,4,0:0:0:0:
