osu file format v14

[General]
AudioFilename: audio.mp3
AudioLeadIn: 0
PreviewTime: 55170
Countdown: 0
SampleSet: Soft
StackLeniency: 0.7
Mode: 0
LetterboxInBreaks: 0
WidescreenStoryboard: 0

[Editor]
DistanceSpacing: 1.1
BeatDivisor: 4
GridSize: 8
TimelineZoom: 3.599998

[Metadata]
Title:Nostalgic Rainfall (TV Size)
TitleUnicode:ノスタルジックレインフォール (TV Size)
Artist:CHiCO with HoneyWorks
ArtistUnicode:CHiCO with HoneyWorks
Creator:Loxxuss
Version:Easy
Source:恋は雨上がりのように
Tags:CHiCO with HoneyWorks Nostalgic Rainfall opening koi wa ameagari no you ni
BeatmapID:1519141
BeatmapSetID:719358

[Difficulty]
HPDrainRate:2
CircleSize:2
OverallDifficulty:2
ApproachRate:3
SliderMultiplier:0.9
SliderTickRate:2

[Events]
//Background and Video events
Video,158,"video.avi"
0,0,"BG.jpg",0,0
//Break Periods
2,24370,31458
//Storyboard Layer 0 (Background)
//Storyboard Layer 1 (Fail)
//Storyboard Layer 2 (Pass)
//Storyboard Layer 3 (Foreground)
//Storyboard Sound Samples

[TimingPoints]
898,363.636363636364,4,2,1,100,1,0
38079,-100,4,2,2,100,0,0
38261,-100,4,2,1,100,0,0
39534,-100,4,2,3,100,0,0
39716,-100,4,2,1,100,0,0
40261,-100,4,2,3,100,0,0
40443,-100,4,2,1,100,0,0
40988,-100,4,2,3,100,0,0
41170,-100,4,2,1,100,0,0
41716,-100,4,2,3,100,0,0
41898,-100,4,2,2,100,0,0
42079,-100,4,2,1,100,0,0
42443,-100,4,2,3,100,0,0
42625,-100,4,2,2,100,0,0
42807,-100,4,2,1,100,0,0
45352,-100,4,2,3,100,0,0
45534,-100,4,2,1,100,0,0
46079,-100,4,2,3,100,0,0
46261,-100,4,2,1,100,0,0
46807,-100,4,2,3,100,0,0
46988,-100,4,2,1,100,0,0
48261,-100,4,2,3,100,0,0
48443,-100,4,2,1,100,0,0
48988,-100,4,2,3,100,0,0
49170,-100,4,2,1,100,0,0
49716,-100,4,2,3,100,0,0
49898,-100,4,2,1,100,0,0
50443,-100,4,2,3,100,0,0
50625,-100,4,2,2,100,0,0
50807,-100,4,2,1,100,0,0
51170,-100,4,2,3,100,0,0
51352,-100,4,2,1,100,0,0
51898,-100,4,2,3,100,0,0
52079,-100,4,2,1,100,0,0
52625,-100,4,2,3,100,0,0
52807,-100,4,2,2,100,0,0
52988,-100,4,2,1,100,0,0
53898,-100,4,2,3,100,0,0
54079,-100,4,2,2,100,0,0
54443,-100,4,2,1,100,0,0
56170,-100,4,2,1,100,0,1
68079,-100,4,2,1,100,0,0
68170,-100,4,2,1,100,0,1
76534,-100,4,2,1,100,0,0
77898,-100,4,2,1,100,0,0
77988,-100,4,2,1,100,0,1
78079,-100,4,2,1,100,0,0

[Colours]
Combo1 : 255,149,98
Combo2 : 0,128,255
Combo3 : 255,111,183
Combo4 : 0,255,128

[HitObjects]
400,224,898,6,0,P|448:264|368:304,1,180,2|0,0:0|0:0,0:0:0:0:
280,288,1988,1,0,0:0:0:0:
184,304,2352,2,0,B|168:280|136:256|136:256|184:216|192:152,1,180,2|0,0:0|0:0,0:0:0:0:
96,128,3443,2,0,P|136:80|176:64,1,90,0|2,0:0|0:0,0:0:0:0:
360,80,4534,5,0,0:0:0:0:
360,80,4898,1,0,0:0:0:0:
408,264,6716,6,0,B|344:224|296:272|224:272,1,180,2|2,0:0|0:0,0:0:0:0:
136,296,7807,1,0,0:0:0:0:
152,200,8170,1,2,0:0:0:0:
152,200,8534,2,0,B|144:152|104:128|104:128|120:80|168:64,1,180
256,104,9625,1,2,0:0:0:0:
256,104,10352,2,0,P|288:144|304:192,1,90,0|2,0:0|0:0,0:0:0:0:
424,152,12534,6,0,L|360:240,1,90
288,280,13261,2,0,P|232:288|184:280,1,90
120,224,13988,1,0,0:0:0:0:
88,128,14352,1,0,0:0:0:0:
176,88,14716,6,0,P|224:128|336:104,1,180
424,64,15807,1,0,0:0:0:0:
416,160,16170,2,0,P|424:200|416:264,1,90
344,312,16898,1,0,0:0:0:0:
152,256,17625,1,0,0:0:0:0:
144,160,17988,5,0,0:0:0:0:
216,96,18352,2,0,B|264:120|264:120|328:112|400:152,1,180
416,240,19443,2,0,L|312:256,1,90
240,296,20170,1,0,0:0:0:0:
168,232,20534,1,0,0:0:0:0:
168,232,20898,2,0,L|184:144,1,90
256,192,21625,12,0,24170,0:0:0:0:
424,256,32898,6,0,P|368:264|328:256,1,90,2|2,0:3|0:3,0:0:0:0:
240,232,33625,1,2,0:3:0:0:
152,280,33988,2,0,P|120:232|112:192,1,90,2|2,0:3|0:3,0:0:0:0:
160,112,34716,2,0,L|80:64,2,90,2|2|2,0:3|0:3|0:3,0:0:0:0:
256,80,35807,5,2,0:3:0:0:
352,104,36170,1,2,0:3:0:0:
416,184,36534,1,2,0:3:0:0:
432,280,36898,1,2,0:3:0:0:
336,304,37261,6,0,L|232:280,1,90,2|2,0:3|0:3,0:0:0:0:
152,280,37988,2,0,L|160:176,1,90,2|0,0:3|1:1,0:0:0:0:
120,104,38716,5,4,0:0:0:0:
216,72,39079,2,0,B|264:96|320:88|320:88|384:128,1,180,0|0,1:1|1:1,0:0:0:0:
432,208,40170,2,0,L|368:296,1,90,2|0,0:3|1:1,0:0:0:0:
280,304,40898,2,0,L|176:272,1,90,0|0,0:0|1:1,0:0:0:0:
160,184,41625,6,0,B|136:208|104:216|72:208|56:184|56:184|112:48|112:48|136:104,1,315,0|4,0:0|0:0,0:0:0:0:
256,99,43443,1,0,1:1:0:0:
328,168,43807,2,0,P|280:232|208:184,1,180,2|4,0:3|0:0,0:0:0:0:
112,184,44898,6,0,P|120:256|200:320,1,180,0|0,1:1|1:1,0:0:0:0:
296,296,45988,2,0,B|336:280|336:280|376:240,1,90,2|0,0:3|1:1,0:0:0:0:
424,168,46716,2,0,B|390:134|390:134|350:118,1,90,0|0,0:0|1:1,0:0:0:0:
256,136,47443,5,2,0:3:0:0:
160,120,47807,2,0,B|141:167|141:167|110:194|72:207|54:273,1,180,0|0,1:1|1:1,0:0:0:0:
152,296,48898,2,0,L|240:328,1,90,2|0,0:3|1:1,0:0:0:0:
320,272,49625,2,0,L|408:240,1,90,0|0,0:0|1:1,0:0:0:0:
416,144,50352,6,0,B|400:88|400:88|328:104|328:104|264:80|192:120,1,270,2|0,0:3|1:1,0:0:0:0:
96,120,51807,2,0,P|88:160|96:208,1,90,2|0,0:3|1:1,0:0:0:0:
64,304,52534,2,0,B|104:336|104:336|160:304|232:312,1,180,8|2,0:3|0:3,0:0:0:0:
320,280,53625,2,0,P|360:232|256:224,1,225,0|4,0:0|0:0,0:0:0:0:
168,168,56170,6,0,L|72:136,2,90,4|0|0,0:0|1:1|1:1,0:0:0:0:
264,144,57261,2,0,P|352:200|312:248,1,180
232,264,58352,2,0,L|48:288,1,180
24,192,59443,6,0,P|48:168|72:104,1,90
152,64,60170,1,0,0:0:0:0:
248,72,60534,2,0,B|320:88|320:88|336:136|408:168,2,180
184,152,62352,6,0,L|168:256,1,90
256,296,63079,1,0,0:0:0:0:
160,320,63443,2,0,P|112:296|120:184,1,180
184,112,64534,1,0,0:0:0:0:
280,144,64898,6,0,L|376:152,1,90
424,232,65625,2,0,L|288:288,1,135
200,288,66534,2,0,B|144:256|88:288|32:272,2,157.5
200,288,68170,6,0,B|232:232|208:168|208:168|216:104,1,180,4|0,0:0|0:0,0:0:0:0:
304,72,69261,2,0,B|360:72|360:72|408:112|344:192|392:288,1,270
288,288,70716,2,0,L|192:272,1,90
104,288,71443,1,0,0:0:0:0:
56,200,71807,1,0,0:0:0:0:
104,112,72170,6,0,B|56:72|128:24|176:64|176:64|224:24|296:64|256:144|232:176|176:184,1,360
256,264,73988,2,0,L|240:352,2,90
336,208,75079,1,0,0:0:0:0:
248,168,75443,1,0,0:0:0:0:
328,104,75807,2,0,P|344:76|264:92,1,180,0|4,0:0|0:1,0:0:0:0:
