osu file format v14

[General]
AudioFilename: audio.MP3
AudioLeadIn: 0
PreviewTime: 56356
Countdown: 0
SampleSet: Soft
StackLeniency: 0.7
Mode: 3
LetterboxInBreaks: 0
SpecialStyle: 0
WidescreenStoryboard: 0

[Editor]
DistanceSpacing: 0.7
BeatDivisor: 12
GridSize: 32
TimelineZoom: 1.9

[Metadata]
Title:Nostalgic Rainfall (TV Size)
TitleUnicode:ノスタルジックレインフォール (TV Size)
Artist:CHiCO with HoneyWorks
ArtistUnicode:CHiCO with HoneyWorks
Creator:[ Lovega ]
Version:Normal
Source:恋は雨上がりのように
Tags:Syadow- FAMoss Koi wa Ameagari no You ni Love is like After the Rain opening 私を染めるiの歌 Watashiwo Someru Aino I Uta Anime Japanese Jpop J-Pop
BeatmapID:1613680
BeatmapSetID:767264

[Difficulty]
HPDrainRate:7.5
CircleSize:4
OverallDifficulty:7.5
ApproachRate:5
SliderMultiplier:1.4
SliderTickRate:1

[Events]
//Background and Video events
0,0,"jpg.jpg",0,0
Video,1083,"Viedo.flv"
//Break Periods
//Storyboard Layer 0 (Background)
//Storyboard Layer 1 (Fail)
//Storyboard Layer 2 (Pass)
//Storyboard Layer 3 (Foreground)
//Storyboard Layer 4 (Overlay)
//Storyboard Sound Samples
Sample,3811,0,"C7S_s.wav",70
Sample,6538,0,"B6S_s.wav",70
Sample,9811,0,"B5S_s.wav",70
Sample,11447,0,"G6S_s.wav",70
Sample,11629,0,"F#6S_Gb6S_s.wav",70
Sample,11811,0,"G6S.wav",70

[TimingPoints]
1993,363.636363636364,4,2,1,50,1,0
57265,-100,4,2,1,50,0,1
77629,-100,4,2,1,50,0,0

[HitObjects]
64,192,1993,128,0,3447:0:0:0:70:D7S_s.wav
448,192,2720,128,0,3447:0:0:0:70:B6S_s.wav
192,192,3447,128,0,4902:0:0:0:70:D6S_s.wav
64,192,4174,128,0,4902:0:0:0:70:B6S_s.wav
448,192,4902,128,0,6356:0:0:0:70:D7S_s.wav
320,192,5629,128,0,6356:0:0:0:70:E7S_s.wav
448,192,7811,128,0,8538:0:0:0:70:B5S_s.wav
64,192,8538,1,0,0:0:0:70:G6S_s.wav
192,192,8902,1,0,0:0:0:70:D6S_s.wav
320,192,9265,128,0,10720:0:0:0:70:B5S_s.wav
448,192,9993,128,0,10720:0:0:0:70:G6S_s.wav
64,192,10720,128,0,12174:0:0:0:70:G6S.wav
320,192,12174,128,0,13629:0:0:0:0:
448,192,13629,1,2,0:0:0:0:
192,192,13993,128,0,14356:0:0:0:0:
320,192,14356,1,8,0:0:0:0:
192,192,14720,1,0,0:0:0:0:
64,192,14902,1,0,0:0:0:0:
448,192,15083,128,0,15447:0:0:0:0:
192,192,15447,128,2,15811:0:0:0:0:
320,192,15811,1,8,0:0:0:0:
64,192,16174,128,0,16538:0:0:0:0:
448,192,16538,128,2,16902:0:0:0:0:
320,192,16902,1,0,0:0:0:0:
192,192,17265,1,8,0:0:0:0:
64,192,17447,1,0,0:0:0:0:
448,192,17629,128,0,17993:0:0:0:0:
64,192,17993,128,2,18356:0:0:0:0:
320,192,18356,1,2,0:0:0:0:
192,192,18720,128,8,19083:0:0:0:0:
448,192,19083,1,2,0:0:0:0:
320,192,19447,128,2,20174:0:0:0:0:
64,192,20174,128,8,20902:0:0:0:0:
448,192,20902,128,0,21629:0:0:0:0:
192,192,21629,128,8,22356:0:0:0:0:
320,192,21993,128,2,22356:0:0:0:0:
64,192,22356,128,2,23083:0:0:0:0:
320,192,23083,128,8,23811:0:0:0:0:
448,192,23447,128,2,23811:0:0:0:0:
64,192,23811,128,0,24205:0:0:0:0:
192,192,24205,128,2,24568:0:0:0:0:
320,192,24568,128,8,24902:0:0:0:0:
448,192,24902,128,2,25265:0:0:0:0:
64,192,26720,1,2,0:0:0:0:
448,192,26720,1,4,0:0:0:0:
320,192,26902,1,8,0:0:0:0:
192,192,27083,1,8,0:0:0:0:
448,192,27265,1,4,0:0:0:0:
64,192,27265,1,2,0:0:0:0:
320,192,27447,1,8,0:0:0:0:
192,192,27629,1,8,0:0:0:0:
64,192,27811,1,2,0:0:0:0:
448,192,27811,1,4,0:0:0:0:
192,192,28174,1,2,0:0:0:0:
320,192,28356,1,8,0:0:0:0:
64,192,28538,1,8,0:0:0:0:
448,192,28720,1,2,0:0:0:0:
192,192,28902,1,8,0:0:0:0:
320,192,29083,1,2,0:0:0:0:
64,192,29265,1,4,0:0:0:0:
448,192,29265,1,8,0:0:0:0:
448,192,29629,1,4,0:0:0:0:
64,192,29629,1,8,0:0:0:0:
192,192,29811,1,2,0:0:0:0:
320,192,29993,1,2,0:0:0:0:
64,192,30174,1,8,0:0:0:0:
448,192,30174,1,4,0:0:0:0:
192,192,30356,1,2,0:0:0:0:
320,192,30538,1,2,0:0:0:0:
64,192,30720,1,8,0:0:0:0:
448,192,30720,1,4,0:0:0:0:
320,192,31083,128,8,31265:0:0:0:0:
64,192,31265,128,0,31447:0:0:0:70:tom1.wav
448,192,31447,128,0,31629:0:0:0:70:tom2.wav
320,192,31629,128,0,31811:0:0:0:70:tom3.wav
192,192,31811,128,0,31993:0:0:0:0:
64,192,31993,128,2,32174:0:0:0:0:
448,192,32174,1,4,0:0:0:0:
320,192,32174,1,8,0:0:0:0:
448,192,32538,1,0,0:0:0:70:G6S_s.wav
320,192,32811,1,0,0:0:0:70:F#6S_Gb6S_s.wav
192,192,33083,1,0,0:0:0:70:D6S_s.wav
320,192,33265,1,0,0:0:0:70:A5S_s.wav
192,192,33538,1,0,0:0:0:70:G5S_s.wav
64,192,33811,1,0,0:0:0:70:F#5S_Gb5S_s.wav
448,192,33993,128,2,34356:0:0:0:0:
64,192,34356,1,2,0:0:0:0:
320,192,34538,1,0,0:0:0:0:
192,192,34720,1,2,0:0:0:0:
448,192,34902,1,0,0:0:0:0:
192,192,35083,1,2,0:0:0:0:
64,192,35265,1,0,0:0:0:0:
320,192,35447,1,2,0:0:0:0:
192,192,35629,1,0,0:0:0:0:
448,192,35811,1,2,0:0:0:0:
64,192,35993,1,0,0:0:0:0:
320,192,36174,1,2,0:0:0:0:
448,192,36356,1,0,0:0:0:0:
64,192,36538,1,2,0:0:0:0:
320,192,36720,1,0,0:0:0:0:
192,192,36902,128,2,37265:0:0:0:0:
448,192,37265,1,2,0:0:0:0:
64,192,37447,1,0,0:0:0:0:
320,192,37629,128,2,37993:0:0:0:0:
192,192,37993,1,2,0:0:0:0:
448,192,38174,1,0,0:0:0:0:
64,192,38356,1,2,0:0:0:0:
320,192,38538,1,0,0:0:0:0:
192,192,38720,1,2,0:0:0:0:
320,192,38902,1,0,0:0:0:0:
448,192,39083,1,2,0:0:0:0:
64,192,39265,1,0,0:0:0:0:
192,192,39265,1,8,0:0:0:0:
64,192,39447,1,0,0:0:0:0:
192,192,39447,1,8,0:0:0:0:
320,192,39811,128,2,40174:0:0:0:0:
448,192,39811,128,4,40174:0:0:0:0:
64,192,40174,1,8,0:0:0:0:
192,192,40174,1,0,0:0:0:0:
320,192,40538,1,0,0:0:0:0:
192,192,40720,1,2,0:0:0:0:
64,192,40720,1,0,0:0:0:0:
320,192,40902,1,0,0:0:0:0:
448,192,40902,1,8,0:0:0:0:
192,192,41265,1,2,0:0:0:0:
448,192,41265,1,0,0:0:0:0:
64,192,41447,1,2,0:0:0:0:
448,192,41629,1,8,0:0:0:0:
320,192,41629,1,0,0:0:0:0:
64,192,41993,1,0,0:0:0:0:
192,192,42174,1,2,0:0:0:0:
320,192,42174,1,0,0:0:0:0:
448,192,42356,1,0,0:0:0:0:
64,192,42356,1,8,0:0:0:0:
192,192,42720,1,2,0:0:0:0:
448,192,42720,1,0,0:0:0:0:
64,192,42902,1,2,0:0:0:0:
320,192,43083,1,8,0:0:0:0:
448,192,43083,1,0,0:0:0:0:
192,192,43447,1,0,0:0:0:0:
320,192,43629,1,2,0:0:0:0:
448,192,43811,1,8,0:0:0:0:
64,192,43811,1,2,0:0:0:0:
320,192,43993,1,2,0:0:0:0:
192,192,43993,1,4,0:0:0:0:
64,192,44356,1,2,0:0:0:0:
192,192,44538,1,8,0:0:0:0:
448,192,44538,1,0,0:0:0:0:
320,192,44720,1,0,0:0:0:0:
192,192,44902,1,2,0:0:0:0:
320,192,45083,1,8,0:0:0:0:
448,192,45083,1,0,0:0:0:0:
192,192,45265,1,0,0:0:0:70:tom1.wav
64,192,45447,1,0,0:0:0:70:tom3.wav
320,192,45629,1,6,0:0:0:0:
320,192,45811,1,2,0:0:0:0:
64,192,45993,1,8,0:0:0:0:
192,192,45993,1,0,0:0:0:0:
320,192,46174,1,0,0:0:0:0:
192,192,46356,1,0,0:0:0:0:
320,192,46538,1,2,0:0:0:0:
448,192,46538,1,0,0:0:0:0:
64,192,46720,1,0,0:0:0:0:
192,192,46720,1,8,0:0:0:0:
192,192,47083,1,2,0:0:0:0:
192,192,47265,1,2,0:0:0:0:
448,192,47447,1,8,0:0:0:0:
320,192,47447,1,0,0:0:0:0:
64,192,47629,1,0,0:0:0:0:
320,192,47811,1,0,0:0:0:0:
192,192,47993,1,2,0:0:0:0:
448,192,48174,1,0,0:0:0:0:
64,192,48174,1,8,0:0:0:0:
64,192,48538,1,2,0:0:0:0:
64,192,48720,1,2,0:0:0:0:
320,192,48902,1,8,0:0:0:0:
448,192,48902,1,0,0:0:0:0:
192,192,49083,1,0,0:0:0:0:
64,192,49265,1,0,0:0:0:0:
320,192,49447,1,2,0:0:0:0:
448,192,49629,1,0,0:0:0:0:
192,192,49629,1,8,0:0:0:0:
448,192,49993,1,2,0:0:0:0:
448,192,50174,1,2,0:0:0:0:
64,192,50356,1,8,0:0:0:0:
192,192,50356,1,0,0:0:0:0:
320,192,50538,1,0,0:0:0:0:
192,192,50720,1,0,0:0:0:0:
64,192,50902,1,2,0:0:0:0:
448,192,51083,1,0,0:0:0:0:
320,192,51083,1,8,0:0:0:0:
320,192,51447,1,2,0:0:0:0:
320,192,51629,1,2,0:0:0:0:
64,192,51811,1,8,0:0:0:0:
448,192,51811,1,0,0:0:0:0:
192,192,51993,1,0,0:0:0:0:
448,192,52174,1,0,0:0:0:0:
320,192,52356,1,2,0:0:0:0:
64,192,52538,1,0,0:0:0:0:
192,192,52538,1,8,0:0:0:0:
64,192,52902,1,2,0:0:0:0:
64,192,53083,1,2,0:0:0:0:
448,192,53265,1,8,0:0:0:0:
192,192,53265,1,0,0:0:0:0:
320,192,53447,1,0,0:0:0:0:
64,192,53629,1,0,0:0:0:0:
192,192,53811,1,2,0:0:0:0:
448,192,53993,1,8,0:0:0:0:
320,192,53993,1,4,0:0:0:0:
64,192,54356,1,4,0:0:0:0:
192,192,54356,1,2,0:0:0:0:
448,192,54538,1,8,0:0:0:0:
64,192,54720,1,2,0:0:0:0:
320,192,54720,1,0,0:0:0:0:
192,192,54902,1,0,0:0:0:0:
448,192,55083,1,8,0:0:0:0:
320,192,55083,1,2,0:0:0:0:
64,192,55265,1,8,0:0:0:0:
192,192,55447,1,8,0:0:0:0:
448,192,55447,1,0,0:0:0:0:
320,192,55629,1,2,0:0:0:0:
64,192,55629,1,4,0:0:0:0:
64,192,57265,1,2,0:0:0:0:
448,192,57265,1,4,0:0:0:0:
192,192,57447,1,2,0:0:0:0:
448,192,57629,1,4,0:0:0:0:
320,192,57629,1,8,0:0:0:0:
64,192,57811,1,2,0:0:0:0:
448,192,57993,1,4,0:0:0:0:
192,192,57993,1,8,0:0:0:0:
320,192,58174,1,2,0:0:0:0:
192,192,58356,1,2,0:0:0:0:
64,192,58538,1,0,0:0:0:0:
448,192,58538,1,8,0:0:0:0:
320,192,58902,1,2,0:0:0:0:
192,192,59083,1,8,0:0:0:0:
64,192,59083,1,4,0:0:0:0:
448,192,59447,1,4,0:0:0:0:
320,192,59447,1,2,0:0:0:0:
64,192,59629,1,8,0:0:0:0:
320,192,59811,1,8,0:0:0:0:
192,192,59993,1,8,0:0:0:0:
64,192,60174,1,2,0:0:0:0:
448,192,60174,1,4,0:0:0:0:
320,192,60356,1,2,0:0:0:0:
64,192,60538,1,8,0:0:0:0:
192,192,60538,1,4,0:0:0:0:
448,192,60720,1,2,0:0:0:0:
320,192,60902,1,8,0:0:0:0:
64,192,60902,1,4,0:0:0:0:
192,192,61083,1,2,0:0:0:0:
320,192,61265,1,2,0:0:0:0:
448,192,61447,1,8,0:0:0:0:
64,192,61447,1,4,0:0:0:0:
320,192,61811,1,2,0:0:0:0:
64,192,61993,1,4,0:0:0:0:
192,192,61993,1,8,0:0:0:0:
64,192,62356,1,2,0:0:0:0:
448,192,62538,1,8,0:0:0:0:
192,192,62720,1,0,0:0:0:70:tom1.wav
320,192,62902,1,0,0:0:0:70:tom3.wav
448,192,63083,1,2,0:0:0:0:
64,192,63083,1,4,0:0:0:0:
192,192,63265,1,2,0:0:0:0:
320,192,63447,1,8,0:0:0:0:
64,192,63447,1,4,0:0:0:0:
448,192,63629,1,2,0:0:0:0:
64,192,63811,1,4,0:0:0:0:
192,192,63811,1,8,0:0:0:0:
320,192,63993,1,2,0:0:0:0:
192,192,64174,1,2,0:0:0:0:
64,192,64356,1,4,0:0:0:0:
448,192,64356,1,8,0:0:0:0:
64,192,64720,1,2,0:0:0:0:
320,192,64902,1,8,0:0:0:0:
448,192,64902,1,4,0:0:0:0:
64,192,65265,1,2,0:0:0:0:
320,192,65447,1,8,0:0:0:0:
192,192,65629,1,2,0:0:0:0:
448,192,65811,1,8,0:0:0:0:
192,192,65993,1,2,0:0:0:0:
64,192,65993,1,4,0:0:0:0:
320,192,66356,1,4,0:0:0:0:
448,192,66356,1,8,0:0:0:0:
64,192,66720,1,4,0:0:0:0:
320,192,66720,1,8,0:0:0:0:
192,192,66902,1,2,0:0:0:0:
320,192,67083,1,2,0:0:0:0:
448,192,67083,1,0,0:0:0:0:
192,192,67265,1,8,0:0:0:0:
64,192,67265,1,4,0:0:0:0:
320,192,67629,1,2,0:0:0:0:
64,192,67811,1,4,0:0:0:0:
192,192,67811,1,8,0:0:0:0:
448,192,67993,1,0,0:0:0:0:
320,192,68174,128,0,68902:0:0:0:70:tom1.wav
192,192,68902,128,0,69265:0:0:0:0:
448,192,69265,1,8,0:0:0:0:
64,192,69265,1,4,0:0:0:0:
192,192,69629,1,2,0:0:0:0:
64,192,69629,1,0,0:0:0:0:
320,192,69811,1,2,0:0:0:0:
64,192,69993,1,0,0:0:0:0:
448,192,69993,1,8,0:0:0:0:
320,192,70356,1,2,0:0:0:0:
448,192,70356,1,0,0:0:0:0:
64,192,70538,1,2,0:0:0:0:
448,192,70720,1,0,0:0:0:0:
192,192,70720,1,8,0:0:0:0:
320,192,70902,1,0,0:0:0:0:
64,192,71083,1,2,0:0:0:0:
192,192,71083,1,0,0:0:0:0:
448,192,71265,1,2,0:0:0:0:
320,192,71447,1,0,0:0:0:0:
64,192,71447,1,8,0:0:0:0:
192,192,71811,1,2,0:0:0:0:
448,192,71811,1,4,0:0:0:0:
320,192,71993,1,2,0:0:0:0:
192,192,72174,1,4,0:0:0:0:
64,192,72174,1,8,0:0:0:0:
320,192,72538,1,2,0:0:0:0:
64,192,72538,1,0,0:0:0:0:
192,192,72720,1,2,0:0:0:0:
448,192,72902,1,8,0:0:0:0:
64,192,72902,1,4,0:0:0:0:
320,192,73083,1,0,0:0:0:0:
192,192,73265,1,2,0:0:0:0:
448,192,73265,1,0,0:0:0:0:
64,192,73447,1,2,0:0:0:0:
320,192,73629,1,8,0:0:0:0:
448,192,73629,1,4,0:0:0:0:
192,192,73811,1,2,0:0:0:0:
320,192,73993,1,8,0:0:0:0:
448,192,73993,128,4,74356:0:0:0:0:
64,192,74356,1,0,0:0:0:0:
192,192,74356,128,8,74720:0:0:0:0:
320,192,74720,1,2,0:0:0:0:
448,192,74720,1,4,0:0:0:0:
320,192,75083,1,8,0:0:0:0:
448,192,75083,1,0,0:0:0:0:
64,192,75265,1,2,0:0:0:0:
448,192,75447,1,0,0:0:0:0:
192,192,75447,1,8,0:0:0:0:
320,192,75629,1,2,0:0:0:0:
64,192,75811,1,8,0:0:0:0:
448,192,75811,1,0,0:0:0:0:
192,192,75993,1,2,0:0:0:0:
448,192,76174,1,0,0:0:0:0:
320,192,76174,1,8,0:0:0:0:
64,192,76356,1,2,0:0:0:0:
192,192,76538,1,8,0:0:0:0:
448,192,76538,1,4,0:0:0:0:
64,192,76902,1,0,0:0:0:0:
192,192,76902,1,8,0:0:0:0:
448,192,77083,1,0,0:0:0:0:
320,192,77083,1,8,0:0:0:0:
192,192,77265,1,8,0:0:0:0:
64,192,77265,1,0,0:0:0:0:
320,192,77447,1,0,0:0:0:70:tom2.wav
448,192,77629,1,2,0:0:0:0:
64,192,77629,1,0,0:0:0:0:
64,192,79083,1,4,0:0:0:0:
448,192,79083,1,2,0:0:0:0:
320,192,79265,1,2,0:0:0:0:
192,192,79447,1,8,0:0:0:0:
64,192,79447,1,4,0:0:0:0:
320,192,79629,1,0,0:0:0:0:
448,192,79811,1,2,0:0:0:0:
64,192,79993,1,0,0:0:0:0:
448,192,80174,1,0,0:0:0:0:
192,192,80174,1,8,0:0:0:0:
64,192,80538,1,2,0:0:0:0:
448,192,80538,1,0,0:0:0:0:
320,192,80720,1,2,0:0:0:0:
448,192,80902,1,0,0:0:0:0:
192,192,80902,1,8,0:0:0:0:
64,192,81083,1,0,0:0:0:0:
320,192,81265,1,2,0:0:0:0:
192,192,81447,1,0,0:0:0:0:
64,192,81629,1,0,0:0:0:0:
448,192,81629,1,8,0:0:0:0:
192,192,81993,1,2,0:0:0:0:
320,192,81993,1,0,0:0:0:0:
64,192,82174,1,2,0:0:0:0:
320,192,82356,1,8,0:0:0:0:
448,192,82356,1,0,0:0:0:0:
192,192,82538,1,0,0:0:0:0:
448,192,82720,1,2,0:0:0:0:
320,192,82902,1,0,0:0:0:0:
448,192,83083,1,8,0:0:0:0:
64,192,83083,1,0,0:0:0:0:
192,192,83447,1,2,0:0:0:0:
320,192,83447,1,0,0:0:0:0:
64,192,83629,1,2,0:0:0:0:
320,192,83811,1,8,0:0:0:0:
448,192,83811,1,0,0:0:0:0:
64,192,83993,1,0,0:0:0:0:
192,192,84083,1,8,0:0:0:0:
320,192,84174,1,2,0:0:0:0:
64,192,84356,1,0,0:0:0:0:
192,192,84356,1,8,0:0:0:0:
320,192,84538,1,8,0:0:0:0:
448,192,84538,1,4,0:0:0:0:
192,192,84902,1,4,0:0:0:0:
64,192,84902,1,2,0:0:0:0:
320,192,85083,1,2,0:0:0:0:
448,192,85265,1,8,0:0:0:0:
64,192,85265,1,4,0:0:0:0:
192,192,85447,1,0,0:0:0:0:
320,192,85629,1,2,0:0:0:0:
448,192,85629,1,4,0:0:0:0:
64,192,85811,1,0,0:0:0:0:
448,192,85993,1,4,0:0:0:0:
192,192,85993,1,8,0:0:0:0:
448,192,86356,1,4,0:0:0:0:
64,192,86356,1,2,0:0:0:0:
192,192,86538,1,2,0:0:0:0:
320,192,86720,1,8,0:0:0:0:
448,192,86720,1,4,0:0:0:0:
192,192,86902,1,0,0:0:0:0:
448,192,87083,1,4,0:0:0:0:
64,192,87083,1,2,0:0:0:0:
320,192,87265,1,0,0:0:0:0:
192,192,87447,1,8,0:0:0:0:
448,192,87447,1,4,0:0:0:0:
448,192,87811,1,4,0:0:0:0:
320,192,87811,1,8,0:0:0:0:
192,192,87993,1,2,0:0:0:0:
64,192,88174,1,8,0:0:0:0:
448,192,88174,1,0,0:0:0:0:
192,192,88538,1,2,0:0:0:0:
448,192,88538,1,0,0:0:0:0:
64,192,88720,1,8,0:0:0:0:
448,192,88902,1,0,0:0:0:0:
320,192,88902,1,8,0:0:0:0:
192,192,89083,1,2,0:0:0:0:
64,192,89083,1,0,0:0:0:0:
