osu file format v14

[General]
AudioFilename: audio.mp3
AudioLeadIn: 0
PreviewTime: 194908
Countdown: 0
SampleSet: Soft
StackLeniency: 0.7
Mode: 0
LetterboxInBreaks: 0
WidescreenStoryboard: 0

[Editor]
Bookmarks: 143636
DistanceSpacing: 1
BeatDivisor: 4
GridSize: 4
TimelineZoom: 2.1

[Metadata]
Title:Nostalgic Rainfall
TitleUnicode:ノスタルジックレインフォール
Artist:CHiCO with HoneyWorks
ArtistUnicode:CHiCO with HoneyWorks
Creator:Ipas
Version:Insane
Source:恋は雨上がりのように
Tags:koi wa ameagari no you ni opening haruto haruto_aizawa
BeatmapID:1685446
BeatmapSetID:802931

[Difficulty]
HPDrainRate:6
CircleSize:4
OverallDifficulty:8
ApproachRate:9
SliderMultiplier:1.8
SliderTickRate:1

[Events]
//Background and Video events
//Break Periods
//Storyboard Layer 0 (Background)
//Storyboard Layer 1 (Fail)
//Storyboard Layer 2 (Pass)
//Storyboard Layer 3 (Foreground)
//Storyboard Sound Samples

[TimingPoints]
1091,363.636363636364,4,2,1,50,1,0
1091,-133.333333333333,4,2,1,50,0,0
6818,-133.333333333333,4,2,1,5,0,0
6909,-133.333333333333,4,2,1,50,0,0
12636,-133.333333333333,4,2,1,15,0,0
12727,-111.111111111111,4,2,1,50,0,0
25818,-100,4,2,1,50,0,0
29818,-133.333333333333,4,2,1,50,0,0
30181,-66.6666666666667,4,2,1,50,0,0
31636,-83.3333333333333,4,2,1,50,0,0
33091,-111.111111111111,4,2,1,50,0,0
38909,-100,4,2,1,50,0,0
55454,-100,4,2,1,20,0,0
56363,-100,4,2,1,60,0,1
68000,-333.333333333333,4,2,1,40,0,0
68363,-100,4,2,1,60,0,1
76727,-100,4,2,1,60,0,0
77272,-100,4,2,1,20,0,0
78181,-100,4,2,1,50,0,0
90545,-83.3333333333333,4,2,1,50,0,0
91272,-79.9999999999999,4,2,1,50,0,0
91636,-111.111111111111,4,2,1,50,0,0
97091,-100,4,2,1,50,0,0
102727,-83.3333333333333,4,2,1,50,0,0
102909,-100,4,2,1,50,0,0
113636,-100,4,2,1,20,0,0
114545,-100,4,2,1,60,0,1
126181,-100,4,2,1,40,0,0
126545,-100,4,2,1,60,0,1
134909,-100,4,2,1,60,0,0
165818,363.636363636364,4,2,1,50,1,0

[Colours]
Combo1 : 255,192,0
Combo2 : 0,202,0
Combo3 : 18,124,255
Combo4 : 242,24,57

[HitObjects]
156,104,1091,6,0,P|167:170|175:237,1,135.000005149842
272,44,1818,2,0,P|260:110|252:177,1,135.000005149842
124,304,2545,6,0,P|178:267|244:276,1,135.000005149842
360,116,3272,2,0,P|364:181|323:234,1,135.000005149842
92,232,4000,5,0,0:0:0:0:
92,232,4545,1,0,0:0:0:0:
80,144,4727,1,0,0:0:0:0:
92,232,4909,1,0,0:0:0:0:
164,128,5091,5,0,0:0:0:0:
164,128,5636,2,0,B|284:168|248:92|360:128,1,202.500007724762
76,115,6545,2,0,P|82:165|116:202,1,101.250003862381
192,256,6909,6,0,B|148:248|148:248|108:264|108:264|61:256,1,135.000005149842
248,316,7636,1,0,0:0:0:0:
192,176,8000,1,0,0:0:0:0:
102,55,8363,6,0,B|78:83|78:83|90:183,1,135.000005149842
316,96,9091,2,0,L|182:115,1,135.000005149842
388,28,9818,5,0,0:0:0:0:
416,188,10545,1,0,0:0:0:0:
404,108,10727,1,0,0:0:0:0:
340,160,10909,1,0,0:0:0:0:
416,188,12363,6,0,P|420:240|428:288,1,101.250003862381
492,356,12727,6,0,P|430:309|353:325,1,161.999995056153
244,240,13272,1,0,0:0:0:0:
120,324,13454,2,0,L|200:316,1,80.9999975280763
329,248,13818,2,0,P|344:286|352:326,1,80.9999975280763
168,200,14181,6,0,L|183:37,1,161.999995056153
176,24,14909,1,0,0:0:0:0:
300,96,15091,1,0,0:0:0:0:
268,8,15272,1,0,0:0:0:0:
236,176,15454,1,0,0:0:0:0:
244,188,15545,1,0,0:0:0:0:
252,199,15636,6,0,P|310:147|388:157,1,161.999995056153
340,244,16181,1,0,0:0:0:0:
472,112,16363,2,0,L|480:192,1,80.9999975280763
312,108,16727,2,0,L|320:28,1,80.9999975280763
388,157,17091,5,0,0:0:0:0:
340,244,17272,1,0,0:0:0:0:
259,194,17454,2,0,P|220:186|180:191,1,80.9999975280763
36,252,17818,1,0,0:0:0:0:
136,288,18000,1,0,0:0:0:0:
28,360,18181,2,0,P|19:320|23:280,1,80.9999975280763
136,104,18545,5,0,0:0:0:0:
100,196,18727,1,0,0:0:0:0:
56,68,18909,2,0,L|64:28,2,40.4999987640381
192,176,19272,1,0,0:0:0:0:
276,236,19454,2,0,P|272:156|288:76,1,161.999995056153
356,280,20000,5,0,0:0:0:0:
264,328,20181,2,0,P|185:308|104:307,1,161.999995056153
356,279,20727,2,0,P|375:244|380:204,1,80.9999975280763
256,136,21091,2,0,P|236:171|231:211,1,80.9999975280763
348,112,21454,6,0,P|300:49|221:48,1,161.999995056153
112,196,22000,1,0,0:0:0:0:
136,100,22181,2,0,L|128:20,1,80.9999975280763
28,160,22545,2,0,P|19:199|29:238,1,80.9999975280763
190,303,22909,1,0,0:0:0:0:
190,171,23091,1,0,0:0:0:0:
112,277,23272,1,0,0:0:0:0:
237,237,23454,1,0,0:0:0:0:
136,100,23636,5,0,0:0:0:0:
112,277,23818,1,0,0:0:0:0:
237,237,24000,1,0,0:0:0:0:
237,237,24363,5,0,0:0:0:0:
292,176,24727,1,0,0:0:0:0:
312,252,25091,1,0,0:0:0:0:
212,160,25454,5,0,0:0:0:0:
336,96,25636,1,0,0:0:0:0:
336,96,25727,1,0,0:0:0:0:
336,96,25818,5,0,0:0:0:0:
200,192,26000,2,0,L|204:236,1,45
352,120,26182,2,0,L|348:164,1,45
216,84,26363,6,0,P|172:72|127:68,1,90
40,16,26636,1,0,0:0:0:0:
32,28,26727,2,0,P|24:52|24:72,1,45
44,180,26909,6,0,P|55:223|60:268,1,90
172,356,27272,1,0,0:0:0:0:
12,348,27454,1,0,0:0:0:0:
144,220,27636,1,0,0:0:0:0:
60,268,27818,1,0,0:0:0:0:
248,288,28000,5,0,0:0:0:0:
244,272,28091,1,0,0:0:0:0:
240,256,28181,1,0,0:0:0:0:
236,240,28272,1,0,0:0:0:0:
231,223,28363,2,0,P|295:243|362:234,1,135
420,168,28727,5,0,0:0:0:0:
216,134,28909,2,0,L|231:223,1,90
328,112,29272,1,0,0:0:0:0:
136,220,29454,2,0,L|150:308,1,90
28,348,29818,6,0,P|75:330|125:326,1,101.250003862381
236,344,30181,6,0,P|256:356|280:360,4,45.0000017166138
292,268,30545,6,0,P|292:244|283:221,4,45.0000017166138
244,144,30909,6,0,P|223:156|207:175,4,45.0000017166138
176,264,31272,5,0,0:0:0:0:
340,336,31636,6,0,B|392:348|392:348|444:340|444:340|498:351,2,161.999995056153
176,264,32363,6,0,B|124:276|124:276|72:268|72:268|16:280,2,161.999995056153
376,252,33091,6,0,P|297:255|249:317,1,161.999995056153
420,344,33636,1,0,0:0:0:0:
420,344,33727,1,0,0:0:0:0:
420,344,33818,2,0,P|380:336|339:335,1,80.9999975280763
248,236,34181,2,0,L|256:156,1,80.9999975280763
252,140,34454,1,0,0:0:0:0:
248,124,34545,6,0,P|210:108|171:97,1,80.9999975280763
64,168,34909,1,0,0:0:0:0:
167,244,35091,2,0,L|247:236,1,80.9999975280763
374,268,35454,1,0,0:0:0:0:
256,364,35636,2,0,P|216:352|176:348,1,80.9999975280763
368,360,36000,6,0,P|440:331|465:256,1,161.999995056153
295,155,36545,1,0,0:0:0:0:
380,272,36727,1,0,0:0:0:0:
380,127,36909,1,0,0:0:0:0:
295,244,37091,1,0,0:0:0:0:
200,136,37272,1,0,0:0:0:0:
192,124,37363,1,0,0:0:0:0:
184,112,37454,6,0,L|196:32,1,80.9999975280763
92,132,37818,1,0,0:0:0:0:
204,232,38000,1,0,0:0:0:0:
92,132,38181,1,0,0:0:0:0:
120,296,38363,5,0,0:0:0:0:
184,112,38545,2,0,B|228:108|228:108|260:116|260:116|304:112,1,121.499996292114
364,68,38909,5,0,0:0:0:0:
316,188,39091,1,0,0:0:0:0:
208,36,39272,1,0,0:0:0:0:
70,144,39454,1,0,0:0:0:0:
82,132,39545,1,0,0:0:0:0:
94,120,39636,2,0,P|138:112|194:112,1,90
316,188,40000,1,0,0:0:0:0:
220,204,40181,1,0,0:0:0:0:
344,100,40363,6,0,L|336:8,1,90
220,204,40727,1,0,0:0:0:0:
380,272,40909,1,0,0:0:0:0:
384,256,41000,1,0,0:0:0:0:
387,239,41091,2,0,P|355:207|315:187,1,90
176,284,41454,1,0,0:0:0:0:
152,152,41636,1,0,0:0:0:0:
144,140,41727,1,0,0:0:0:0:
136,128,41818,6,0,L|124:220,1,90
72,64,42181,1,0,0:0:0:0:
224,108,42363,1,0,0:0:0:0:
232,124,42454,1,0,0:0:0:0:
240,140,42545,1,0,0:0:0:0:
180,32,42727,1,0,0:0:0:0:
328,128,42909,1,0,0:0:0:0:
124,217,43091,6,0,B|224:232|176:280|283:288,1,180
104,232,43636,1,0,0:0:0:0:
304,276,43818,1,0,0:0:0:0:
120,364,44000,2,0,P|124:341|130:320,1,45
272,184,44181,1,0,0:0:0:0:
308,176,44272,1,0,0:0:0:0:
344,180,44363,1,0,0:0:0:0:
376,196,44454,1,0,0:0:0:0:
400,224,44545,1,0,0:0:0:0:
416,256,44636,1,0,0:0:0:0:
420,292,44727,6,0,P|444:252|472:220,1,90
287,318,45091,2,0,P|272:256|272:184,1,135
200,159,45454,2,0,P|226:124|269:111,1,90
196,248,45818,1,0,0:0:0:0:
88,160,46000,1,0,0:0:0:0:
269,111,46181,5,0,0:0:0:0:
316,248,46363,1,0,0:0:0:0:
400,116,46545,2,0,B|352:108|352:108|320:120|320:120|269:111,1,135
200,159,46909,2,0,P|212:116|200:67,1,90
96,204,47272,1,0,0:0:0:0:
224,344,47454,1,0,0:0:0:0:
212,340,47545,1,0,0:0:0:0:
200,336,47636,6,0,P|188:293|200:244,1,90
432,208,48000,2,0,B|356:196|376:240|300:218,1,135
336,148,48363,2,0,P|328:104|316:60,1,90
408,292,48727,1,0,0:0:0:0:
464,132,48909,1,0,0:0:0:0:
300,218,49091,5,0,0:0:0:0:
408,292,49272,1,0,0:0:0:0:
228,264,49454,2,0,B|212:220|212:220|230:133,1,135
160,108,49818,2,0,L|140:196,1,90
156,352,50181,1,0,0:0:0:0:
156,352,50363,1,0,0:0:0:0:
16,263,50545,6,0,P|32:222|62:189,1,90
272,218,50909,2,0,L|140:195,1,135
172,124,51272,2,0,B|216:132|216:132|260:124,1,90
404,28,51636,1,0,0:0:0:0:
356,128,51818,1,0,0:0:0:0:
452,192,52000,5,0,0:0:0:0:
404,28,52181,1,0,0:0:0:0:
260,123,52363,1,0,0:0:0:0:
360,288,52545,1,0,0:0:0:0:
376,284,52636,1,0,0:0:0:0:
392,279,52727,2,0,P|436:270|481:270,1,90
276,340,53091,2,0,P|275:295|267:250,1,90
88,128,53454,6,0,L|96:172,1,45
184,212,53635,2,0,L|176:168,1,45
24,284,53818,1,0,0:0:0:0:
56,272,53909,1,0,0:0:0:0:
92,272,54000,1,0,0:0:0:0:
124,288,54091,1,0,0:0:0:0:
152,312,54181,2,0,P|180:320|204:320,1,45
296,224,54364,2,0,P|275:244|263:265,1,45
364,344,54546,2,0,P|356:315|344:294,1,45
256,144,54727,5,0,0:0:0:0:
280,220,55454,1,0,0:0:0:0:
190,190,55636,1,0,0:0:0:0:
190,96,55818,1,0,0:0:0:0:
280,67,56000,1,0,0:0:0:0:
335,143,56181,1,0,0:0:0:0:
348,152,56272,1,0,0:0:0:0:
360,160,56363,6,0,L|368:252,1,90
160,296,56728,2,0,L|168:204,1,90
76,352,57091,1,0,0:0:0:0:
256,256,57272,1,0,0:0:0:0:
84,144,57454,1,0,0:0:0:0:
160,296,57636,6,0,B|220:288|220:288|268:304|268:304|336:292,1,180
428,140,58181,1,0,0:0:0:0:
408,232,58363,1,0,0:0:0:0:
412,252,58454,1,0,0:0:0:0:
416,272,58545,1,0,0:0:0:0:
380,60,58727,5,0,0:0:0:0:
340,48,58818,1,0,0:0:0:0:
300,56,58909,1,0,0:0:0:0:
268,80,59000,1,0,0:0:0:0:
248,116,59091,1,0,0:0:0:0:
244,156,59181,1,0,0:0:0:0:
256,196,59272,6,0,P|212:188|160:184,1,90
16,276,59637,2,0,P|60:272|105:264,1,90
112,96,60000,1,0,0:0:0:0:
166,184,60181,1,0,0:0:0:0:
105,264,60363,1,0,0:0:0:0:
20,92,60545,6,0,B|124:104|88:32|184:39,1,180
304,100,61091,1,0,0:0:0:0:
176,136,61272,1,0,0:0:0:0:
360,32,61454,6,0,P|376:56|384:72,1,45
228,232,61636,1,0,0:0:0:0:
264,212,61727,1,0,0:0:0:0:
304,220,61818,1,0,0:0:0:0:
328,252,61909,1,0,0:0:0:0:
360,276,62000,1,0,0:0:0:0:
400,272,62091,1,0,0:0:0:0:
436,256,62181,6,0,P|444:208|456:168,1,90
247,319,62546,2,0,P|240:275|227:232,1,90
328,368,62909,1,0,0:0:0:0:
160,292,63091,1,0,0:0:0:0:
296,168,63272,1,0,0:0:0:0:
449,287,63454,6,0,L|359:275,1,90
208,368,63818,1,0,0:0:0:0:
217,204,64000,2,0,P|252:176|296:168,1,90
312,172,64272,1,0,0:0:0:0:
324,184,64363,1,0,0:0:0:0:
80,244,64545,1,0,0:0:0:0:
84,212,64636,1,0,0:0:0:0:
92,180,64727,1,0,0:0:0:0:
108,152,64818,1,0,0:0:0:0:
128,128,64909,1,0,0:0:0:0:
156,112,65000,1,0,0:0:0:0:
184,100,65091,6,0,L|272:84,1,90
468,104,65455,2,0,L|380:120,1,90
200,200,65818,1,0,0:0:0:0:
251,343,66000,1,0,0:0:0:0:
140,304,66181,1,0,0:0:0:0:
308,244,66363,6,0,B|352:224|396:244|396:244|440:260|484:236,1,180
251,343,66909,2,0,P|254:299|280:260,1,90
432,156,67272,2,0,P|438:128|440:96,2,60
392,20,67636,2,0,P|364:13|332:12,2,60
344,112,68000,6,0,P|324:108|303:108,1,40.4999987640381
276,120,68363,6,0,P|244:144|224:196,1,90
232,208,68636,1,0,0:0:0:0:
240,224,68727,2,0,L|332:212,1,90
192,304,69091,1,0,0:0:0:0:
88,196,69272,1,0,0:0:0:0:
80,184,69363,1,0,0:0:0:0:
72,172,69454,6,0,L|84:80,1,90
341,108,69818,2,0,B|353:152|353:152|341:196,1,90
329,212,70091,1,0,0:0:0:0:
317,228,70182,2,0,B|305:272|305:272|317:316,1,90
256,152,70545,1,0,0:0:0:0:
400,272,70727,1,0,0:0:0:0:
416,260,70818,1,0,0:0:0:0:
432,248,70909,5,0,0:0:0:0:
316,314,71091,1,0,0:0:0:0:
476,168,71272,2,0,P|464:120|444:84,1,90
272,56,71636,1,0,0:0:0:0:
328,144,71818,1,0,0:0:0:0:
368,20,72000,1,0,0:0:0:0:
176,100,72181,1,0,0:0:0:0:
323,231,72363,6,0,P|334:187|327:143,1,90
224,296,72727,2,0,P|202:257|165:231,1,90
316,320,73091,1,0,0:0:0:0:
84,272,73272,1,0,0:0:0:0:
72,232,73363,1,0,0:0:0:0:
80,192,73454,1,0,0:0:0:0:
108,160,73545,1,0,0:0:0:0:
148,144,73636,1,0,0:0:0:0:
188,148,73727,1,0,0:0:0:0:
220,172,73818,6,0,L|212:80,1,90
432,156,74182,2,0,L|424:248,1,90
188,192,74545,2,0,L|180:100,1,90
464,136,74909,2,0,L|456:228,1,90
152,304,75272,2,0,P|192:284|236:284,1,90
436,356,75637,2,0,P|391:356|351:336,1,90
488,184,76000,5,0,0:0:0:0:
444,204,76091,1,0,0:0:0:0:
396,204,76181,1,0,0:0:0:0:
352,184,76272,1,0,0:0:0:0:
308,164,76363,1,0,0:0:0:0:
264,156,76454,1,0,0:0:0:0:
224,164,76545,1,0,0:0:0:0:
200,176,76636,1,0,0:0:0:0:
180,192,76727,5,0,0:0:0:0:
180,192,77272,1,0,0:0:0:0:
98,165,77454,1,0,0:0:0:0:
98,80,77636,1,0,0:0:0:0:
180,53,77818,1,0,0:0:0:0:
230,122,78000,1,0,0:0:0:0:
244,140,78091,1,0,0:0:0:0:
256,156,78181,5,0,0:0:0:0:
272,252,78363,2,0,P|294:259|316:263,1,45
428,352,78546,2,0,P|406:344|384:340,1,45
428,256,78727,6,0,B|440:216|440:216|432:168,1,90
368,104,79000,1,0,0:0:0:0:
356,120,79091,2,0,P|344:152|344:172,1,45
440,68,79272,6,0,L|304:48,1,135
243,84,79636,5,0,0:0:0:0:
208,228,79818,1,0,0:0:0:0:
48,108,80000,1,0,0:0:0:0:
120,240,80181,1,0,0:0:0:0:
140,48,80363,1,0,0:0:0:0:
244,160,80545,6,0,P|223:151|200:148,1,45
336,160,80727,2,0,P|332:137|324:116,1,45
248,64,80909,1,0,0:0:0:0:
188,336,81091,5,0,0:0:0:0:
280,288,81272,1,0,0:0:0:0:
104,236,81454,1,0,0:0:0:0:
280,288,81637,1,0,0:0:0:0:
375,248,81818,1,0,0:0:0:0:
205,181,82000,1,0,0:0:0:0:
364,344,82181,5,0,0:0:0:0:
364,344,82545,1,0,0:0:0:0:
472,200,82727,1,0,0:0:0:0:
480,216,82818,1,0,0:0:0:0:
487,231,82909,2,0,P|489:254|487:276,1,45
375,248,83091,5,0,0:0:0:0:
288,132,83272,1,0,0:0:0:0:
305,133,83363,1,0,0:0:0:0:
323,134,83454,2,0,P|343:144|361:157,1,45
284,276,83636,2,0,P|263:265|245:252,1,45
172,140,83819,2,0,P|182:119|195:101,1,45
144,240,84000,5,0,0:0:0:0:
36,112,84181,2,0,L|28:160,1,45
151,284,84364,2,0,L|144:240,1,45
20,364,84545,6,0,P|60:352|112:352,1,90
224,348,84818,1,0,0:0:0:0:
244,340,84909,2,0,P|254:320|259:298,1,45
352,176,85091,6,0,P|337:240|373:294,1,135
420,224,85454,5,0,0:0:0:0:
288,120,85636,1,0,0:0:0:0:
259,298,85818,1,0,0:0:0:0:
352,176,86000,1,0,0:0:0:0:
236,324,86181,1,0,0:0:0:0:
164,188,86363,6,0,P|172:164|184:140,1,45
136,64,86545,2,0,P|160:58|187:57,1,45
260,104,86727,1,0,0:0:0:0:
72,208,86909,5,0,0:0:0:0:
236,324,87091,1,0,0:0:0:0:
292,232,87272,1,0,0:0:0:0:
72,208,87454,1,0,0:0:0:0:
348,140,87636,1,0,0:0:0:0:
292,232,87817,1,0,0:0:0:0:
404,52,88000,5,0,0:0:0:0:
404,52,88363,1,0,0:0:0:0:
448,140,88545,1,0,0:0:0:0:
308,56,88727,1,0,0:0:0:0:
348,140,88909,1,0,0:0:0:0:
496,64,89091,5,0,0:0:0:0:
348,140,89272,1,0,0:0:0:0:
352,172,89363,1,0,0:0:0:0:
356,204,89454,1,0,0:0:0:0:
360,236,89545,1,0,0:0:0:0:
364,268,89636,1,0,0:0:0:0:
192,344,89818,5,0,0:0:0:0:
252,180,90000,1,0,0:0:0:0:
256,212,90091,1,0,0:0:0:0:
260,244,90181,2,0,L|268:292,1,45
160,136,90363,5,0,0:0:0:0:
272,56,90545,2,0,P|298:52|325:54,1,53.9999983520508
144,156,90728,2,0,P|117:159|90:157,1,53.9999983520508
256,76,90909,1,0,0:0:0:0:
447,268,91272,6,0,B|355:264|387:328|291:316,1,168.75
267,288,91636,6,0,P|267:247|274:207,1,80.9999975280763
352,72,92000,1,0,0:0:0:0:
368,176,92181,2,0,L|448:168,1,80.9999975280763
256,104,92545,2,0,B|200:96|200:96|156:104|156:104|96:92,1,161.999995056153
24,204,93091,2,0,P|60:184|100:179,1,80.9999975280763
32,332,93454,2,0,P|88:277|167:279,1,161.999995056153
216,200,94000,1,0,0:0:0:0:
120,364,94181,6,0,P|108:324|88:288,1,80.9999975280763
292,164,94545,2,0,B|303:201|303:201|291:241,1,80.9999975280763
144,156,94909,2,0,L|136:72,1,80.9999975280763
24,204,95273,2,0,L|16:288,1,80.9999975280763
68,360,95636,5,0,0:0:0:0:
268,332,95818,1,0,0:0:0:0:
208,140,96000,1,0,0:0:0:0:
188,256,96181,1,0,0:0:0:0:
336,168,96363,1,0,0:0:0:0:
108,176,96545,1,0,0:0:0:0:
100,136,96636,1,0,0:0:0:0:
108,96,96727,1,0,0:0:0:0:
132,64,96818,1,0,0:0:0:0:
164,40,96909,1,0,0:0:0:0:
202,35,97000,1,0,0:0:0:0:
236,44,97091,6,0,L|224:136,1,90
111,297,97454,2,0,L|100:208,1,90
104,192,97727,1,0,0:0:0:0:
108,176,97818,1,0,0:0:0:0:
292,232,98000,1,0,0:0:0:0:
484,168,98181,1,0,0:0:0:0:
328,44,98363,1,0,0:0:0:0:
356,128,98545,5,0,0:0:0:0:
416,60,98727,1,0,0:0:0:0:
268,108,98909,2,0,P|220:80|148:104,1,135
144,132,99272,2,0,B|156:176|156:176|144:220,1,90
40,364,99636,2,0,L|48:272,1,90
44,256,99909,1,0,0:0:0:0:
40,239,100000,6,0,P|48:196|30:155,1,90
148,316,100363,1,0,0:0:0:0:
284,240,100545,1,0,0:0:0:0:
248,336,100727,1,0,0:0:0:0:
208,168,100909,1,0,0:0:0:0:
248,336,101091,1,0,0:0:0:0:
304,140,101272,6,0,P|312:224|328:320,1,180
380,80,101818,1,0,0:0:0:0:
220,232,102000,1,0,0:0:0:0:
224,252,102091,1,0,0:0:0:0:
228,272,102181,2,0,L|236:312,1,40.4999987640381
100,260,102363,5,0,0:0:0:0:
104,220,102454,1,0,0:0:0:0:
108,180,102545,1,0,0:0:0:0:
112,140,102636,1,0,0:0:0:0:
116,100,102727,2,0,P|112:76|104:48,1,53.9999983520508
20,184,102909,5,0,0:0:0:0:
188,228,103091,1,0,0:0:0:0:
23,368,103272,2,0,P|81:335|146:347,1,135
168,368,103636,2,0,L|260:360,1,90
432,324,104000,1,0,0:0:0:0:
325,289,104181,1,0,0:0:0:0:
432,141,104363,5,0,0:0:0:0:
498,232,104545,1,0,0:0:0:0:
325,176,104727,2,0,L|300:44,1,135
284,28,105091,2,0,L|272:120,1,90
268,276,105454,1,0,0:0:0:0:
124,212,105636,1,0,0:0:0:0:
120,196,105727,1,0,0:0:0:0:
116,180,105818,6,0,P|136:140|172:112,1,90
397,274,106181,2,0,P|380:210|325:176,1,135
308,152,106545,2,0,B|320:108|320:108|308:64,1,90
268,276,106909,1,0,0:0:0:0:
171,112,107091,1,0,0:0:0:0:
136,236,107272,5,0,0:0:0:0:
32,141,107454,1,0,0:0:0:0:
40,157,107545,1,0,0:0:0:0:
44,177,107636,2,0,P|48:197|44:221,1,45
40,333,107818,2,0,P|55:319|78:311,1,45
175,259,108000,2,0,P|155:252|136:236,1,45
128,144,108181,1,0,0:0:0:0:
280,202,108363,2,0,L|288:292,1,90
208,356,108727,5,0,0:0:0:0:
384,240,108909,1,0,0:0:0:0:
196,144,109091,2,0,B|148:140|148:140|108:144|108:144|62:136,1,135
40,112,109454,2,0,P|52:68|36:24,1,90
120,224,109818,1,0,0:0:0:0:
152,48,110000,1,0,0:0:0:0:
196,144,110181,5,0,0:0:0:0:
252,64,110363,1,0,0:0:0:0:
96,132,110545,1,0,0:0:0:0:
284,180,110727,1,0,0:0:0:0:
276,196,110818,1,0,0:0:0:0:
268,212,110909,2,0,L|280:304,1,90
440,192,111273,2,0,L|452:100,1,90
435,301,111636,5,0,0:0:0:0:
400,272,111727,1,0,0:0:0:0:
355,261,111818,1,0,0:0:0:0:
311,269,111909,1,0,0:0:0:0:
279,301,112000,2,0,L|286:345,1,45
184,280,112181,2,0,L|191:235,1,45
92,168,112364,2,0,L|99:212,1,45
16,100,112545,1,0,0:0:0:0:
20,80,112636,1,0,0:0:0:0:
24,60,112727,2,0,P|44:44|72:32,1,45
184,141,112909,5,0,0:0:0:0:
184,141,113636,1,0,0:0:0:0:
208,240,113818,1,0,0:0:0:0:
300,76,114000,1,0,0:0:0:0:
274,167,114182,1,0,0:0:0:0:
210,50,114363,1,0,0:0:0:0:
200,40,114454,1,0,0:0:0:0:
188,28,114545,6,0,L|100:44,1,90
