osu file format v14

[General]
AudioFilename: audio.mp3
AudioLeadIn: 0
PreviewTime: 55070
Countdown: 0
SampleSet: Soft
StackLeniency: 0.2
Mode: 0
LetterboxInBreaks: 0
WidescreenStoryboard: 1

[Editor]
Bookmarks: 25434,31252,77797,89434,166888,172706
DistanceSpacing: 0.4
BeatDivisor: 4
GridSize: 4
TimelineZoom: 1.7

[Metadata]
Title:Nostalgic Rainfall
TitleUnicode:ノスタルジックレインフォール
Artist:CHiCO with HoneyWorks
ArtistUnicode:CHiCO with HoneyWorks
Creator:-Mo-
Version:Insane
Source:恋は雨上がりのように
Tags:Koi wa Ameagari no You ni Love is like After the Rain opening 私を染めるiの歌 Watashiwo Someru I Uta
BeatmapID:1767499
BeatmapSetID:786665

[Difficulty]
HPDrainRate:6
CircleSize:4
OverallDifficulty:7
ApproachRate:9
SliderMultiplier:1.7
SliderTickRate:1

[Events]
//Background and Video events
0,0,"sb/scene/e0.jpg",0,0
//Break Periods
2,135615,143615
2,184343,193070
//Storyboard Layer 0 (Background)
//Storyboard Layer 1 (Fail)
//Storyboard Layer 2 (Pass)
//Storyboard Layer 3 (Foreground)
//Storyboard Sound Samples

[TimingPoints]
707,363.636363636364,4,2,1,40,1,0
10888,-100,4,2,1,20,0,0
12343,-142.857142857143,4,3,2,60,0,0
15888,-142.857142857143,4,3,2,20,0,0
15979,-142.857142857143,4,3,2,60,0,0
23979,-250,4,2,1,20,0,0
25252,-142.857142857143,4,2,1,70,0,0
25434,-83.3333333333333,4,2,1,100,0,0
28252,-83.3333333333333,4,2,1,40,0,0
28343,-83.3333333333333,4,2,1,100,0,0
29707,-83.3333333333333,4,2,1,40,0,0
29797,-83.3333333333333,4,2,1,100,0,0
31252,-100,4,2,1,60,0,0
32707,-83.3333333333333,4,2,1,80,0,0
33434,-125,4,2,1,80,0,0
38161,-83.3333333333333,4,2,1,80,0,0
38434,-83.3333333333333,4,2,1,40,0,0
38525,-83.3333333333333,4,2,1,80,0,0
39070,-100,4,2,1,80,0,0
42707,-83.3333333333333,4,2,1,80,0,0
44343,-100,4,2,1,80,0,0
53797,-100,4,2,3,80,0,0
53888,-100,4,2,1,80,0,0
54343,-100,4,2,3,80,0,0
55979,-66.6666666666667,4,2,1,100,0,1
65979,-83.3333333333333,4,2,1,100,0,1
66888,-100,4,2,1,100,0,0
67616,-400,4,2,1,70,0,0
67888,-500,4,2,1,20,0,0
67979,-66.6666666666667,4,2,1,100,0,1
73434,-58.8235294117647,4,2,1,100,0,1
75616,-58.8235294117647,4,2,2,100,0,1
75707,-58.8235294117647,4,2,1,100,0,1
76343,-100,4,2,3,100,0,0
77616,-142.857142857143,4,2,3,70,0,0
77797,-83.3333333333333,4,2,1,100,0,0
80616,-83.3333333333333,4,2,1,40,0,0
80707,-83.3333333333333,4,2,1,100,0,0
86434,-83.3333333333333,4,2,1,40,0,0
86525,-83.3333333333333,4,2,1,100,0,0
88161,-100,4,2,1,100,0,0
89434,-100,4,2,1,60,0,0
90797,-100,4,2,1,20,0,0
90888,-133.333333333333,4,2,1,20,0,0
91252,-100,4,3,2,80,0,0
95252,-100,4,2,1,80,0,0
96616,-100,4,2,1,40,0,0
96707,-83.3333333333333,4,2,1,80,0,0
97434,-100,4,2,1,80,0,0
100888,-83.3333333333333,4,2,1,80,0,0
102525,-100,4,2,1,80,0,0
111979,-100,4,2,3,80,0,0
112070,-100,4,2,1,80,0,0
112525,-100,4,2,3,80,0,0
114161,-66.6666666666667,4,2,1,100,0,1
124161,-83.3333333333333,4,2,1,100,0,1
125070,-100,4,2,1,100,0,0
125797,-400,4,2,1,70,0,0
126069,-333.333333333333,4,2,1,20,0,0
126161,-66.6666666666667,4,2,1,100,0,1
131616,-58.8235294117647,4,2,1,100,0,1
133797,-100,4,2,1,80,0,0
133919,-100,4,2,1,60,0,0
134525,363.636363636364,7,2,1,80,1,0
144706,-142.857142857143,7,2,1,80,0,0
162525,363.636363636364,4,2,1,80,1,0
162525,-142.857142857143,4,2,1,80,0,0
165434,-142.857142857143,4,2,1,20,0,0
166706,-142.857142857143,4,2,1,70,0,0
166888,-83.3333333333333,4,2,1,100,0,0
169706,-83.3333333333333,4,2,1,40,0,0
169797,-83.3333333333333,4,2,1,100,0,0
171252,-83.3333333333333,4,2,1,70,0,0
171434,-83.3333333333333,4,2,1,100,0,0
172706,-83.3333333333333,4,2,1,60,0,0
173070,-83.3333333333333,4,2,1,80,0,1
173343,-83.3333333333333,4,2,1,40,0,1
173434,-100,4,2,1,80,0,0
174403,-100,4,2,1,50,0,0
174525,-100,4,2,1,80,0,0
182706,-125,4,2,1,80,0,0
183070,-100,4,2,1,40,0,0
195979,-66.6666666666667,4,2,1,100,0,1
205979,-83.3333333333333,4,2,1,100,0,1
206888,-100,4,2,1,100,0,0
207615,-400,4,2,1,70,0,0
207888,-400,4,2,1,20,0,0
207979,-66.6666666666667,4,2,1,100,0,1
213434,-58.8235294117647,4,2,1,85,0,0
219252,-50,4,2,1,100,0,1
221434,-50,4,2,2,100,0,1
221525,-50,4,2,1,100,0,1
222161,-100,4,2,3,100,0,0
223615,-66.6666666666667,4,2,1,100,0,1
223979,-66.6666666666667,4,2,1,80,0,0
229434,-50,4,2,1,100,0,1
233070,-58.8235294117647,4,2,2,100,0,1
233252,-58.8235294117647,4,2,1,100,0,1
233615,-58.8235294117647,4,2,3,100,0,0

[Colours]
Combo1 : 96,142,253
Combo2 : 136,251,239
Combo3 : 189,112,252
Combo4 : 172,238,123

[HitObjects]
84,80,707,5,2,0:0:0:0:
89,156,1070,1,0,0:0:0:0:
94,232,1434,1,2,0:0:0:0:
262,99,2161,5,2,0:0:0:0:
257,175,2524,1,0,0:0:0:0:
252,251,2888,1,2,0:0:0:0:
429,274,3616,5,2,0:0:0:0:
419,122,4343,1,2,0:0:0:0:
94,232,6525,5,2,0:0:0:0:
94,232,7252,1,2,0:0:0:0:
89,156,7616,1,2,0:0:0:0:
252,251,7979,5,2,0:0:0:0:
262,99,8707,1,2,0:0:0:0:
429,274,9434,5,2,0:0:0:0:
256,192,10888,12,0,12161,0:0:0:0:
97,37,12343,6,0,L|90:155,1,118.999996368408,2|2,0:2|0:0,0:0:0:0:
104,188,12888,1,2,0:0:0:0:
181,137,13070,2,0,L|187:255,1,118.999996368408,8|2,0:2|0:0,0:0:0:0:
171,288,13616,1,2,0:0:0:0:
309,191,13797,6,0,L|302:309,1,118.999996368408,2|2,0:2|0:0,0:0:0:0:
314,343,14343,1,2,0:0:0:0:
433,268,14525,2,0,L|427:150,1,118.999996368408,8|2,0:2|0:0,0:0:0:0:
443,117,15070,1,2,0:0:0:0:
319,51,15252,6,0,P|219:78|119:57,1,208.249993644715,2|0,0:2|0:0,0:0:0:0:
105,49,15979,1,10,0:2:0:0:
68,117,16161,1,2,0:0:0:0:
104,185,16343,1,2,0:2:0:0:
105,49,16707,6,0,P|213:78|353:26,1,237.999992736817,2|10,0:2|0:2,0:0:0:0:
400,9,17797,2,0,L|406:68,1,59.4999981842042
283,138,18161,6,0,L|277:197,1,59.4999981842042,2|2,0:2|0:0,0:0:0:0:
329,254,18525,1,0,0:0:0:0:
333,258,18707,1,2,0:0:0:0:
249,296,18888,2,0,L|243:355,1,59.4999981842042,8|2,0:2|0:0,0:0:0:0:
159,142,19434,5,2,0:0:0:0:
94,223,19616,1,2,0:2:0:0:
35,66,19797,2,0,B|121:102|110:30|206:66,1,178.499994552612,2|8,0:2|0:2,0:0:0:0:
352,175,20707,5,2,0:2:0:0:
441,204,20888,1,2,0:0:0:0:
477,99,21070,2,0,B|390:135|401:63|305:99,1,178.499994552612,2|0,0:2|0:0,0:0:0:0:
236,155,21797,2,0,L|241:214,1,59.4999981842042,8|2,0:2|0:3,0:0:0:0:
200,294,22161,1,0,0:2:0:0:
69,174,22525,6,0,L|63:114,1,59.4999981842042,2|2,0:2|0:3,0:0:0:0:
163,92,22888,2,0,L|168:32,1,59.4999981842042,0|2,0:2|0:3,0:0:0:0:
269,142,23252,1,8,0:2:0:0:
281,249,23434,1,2,0:0:0:0:
383,151,23616,2,0,L|387:91,1,59.4999981842042,0|2,0:2|0:0,0:0:0:0:
469,215,23979,6,0,P|440:308|344:325,1,204
225,348,25252,2,0,L|195:344,1,29.7499990921021,0|0,3:0|3:0,0:0:0:0:
106,384,25434,5,6,1:2:0:0:
22,326,25616,1,0,3:0:0:0:
24,300,25707,1,0,3:0:0:0:
26,274,25797,2,0,L|30:223,1,50.9999984436036,0|0,3:0|3:0,0:0:0:0:
135,276,25979,5,6,1:1:0:0:
240,236,26161,1,0,3:0:0:0:
238,210,26252,1,0,3:0:0:0:
236,184,26343,2,0,L|232:133,1,50.9999984436036,0|0,3:0|3:0,0:0:0:0:
123,129,26525,6,0,P|145:40|56:17,1,203.999993774414,6|0,1:2|1:0,0:0:0:0:
127,133,27070,1,8,0:0:0:0:
267,38,27252,2,0,L|283:138,1,101.999996887207,8|0,0:0|1:0,0:0:0:0:
209,225,27616,5,0,3:0:0:0:
217,237,27707,1,0,3:0:0:0:
228,246,27797,1,0,3:0:0:0:
241,253,27888,1,0,3:0:0:0:
255,256,27979,2,0,P|322:224|397:235,1,152.999995330811,6|0,1:1|0:0,0:0:0:0:
467,201,28343,5,6,1:2:0:0:
298,115,28525,1,0,3:0:0:0:
435,29,28707,1,0,3:0:0:0:
391,233,28888,5,6,1:1:0:0:
231,164,29070,1,0,3:0:0:0:
313,318,29252,1,0,3:0:0:0:
498,254,29434,6,0,P|510:183|446:150,1,152.999995330811,6|0,1:1|0:0,0:0:0:0:
376,185,29797,6,0,L|342:190,4,33.9999989624024,8|0|8|0|0,0:0|0:0|0:0|0:0|1:0,0:0:0:0:
285,248,30161,2,0,L|251:242,4,33.9999989624024,0|0|0|0|0,1:0|0:0|1:0|0:0|1:0,0:0:0:0:
198,304,30525,2,0,L|164:311,4,33.9999989624024,0|0|0|0|0,1:0|0:0|1:0|0:0|1:0,0:0:0:0:
322,368,30888,6,0,L|423:362,1,101.999996887207,6|0,0:1|0:0,0:0:0:0:
369,186,31252,6,0,L|242:194,1,127.5,2|2,0:0|0:0,0:0:0:0:
130,96,31797,1,2,0:0:0:0:
157,217,31979,6,0,L|284:209,1,127.5,2|2,0:0|0:0,0:0:0:0:
396,307,32524,1,2,0:0:0:0:
204,362,32707,6,0,L|1:348,1,203.999993774414,2|0,1:0|1:0,0:0:0:0:
0,348,33434,2,0,P|18:321|26:288,1,68,2|0,1:2|0:0,0:0:0:0:
0,162,33797,1,0,1:0:0:0:
132,226,33979,6,0,L|174:221,1,34
191,255,34161,2,0,P|220:238|253:231,1,68,2|0,1:2|0:0,0:0:0:0:
307,124,34525,2,0,P|274:113|241:114,1,68,0|0,1:0|0:0,0:0:0:0:
354,15,34888,2,0,P|383:32|406:58,2,68,0|0|0,1:0|0:0|1:0,0:0:0:0:
312,260,35616,5,2,1:2:0:0:
190,287,35979,1,0,1:0:0:0:
100,197,36343,1,0,1:0:0:0:
117,73,36707,1,0,1:0:0:0:
225,18,37070,6,0,L|231:102,1,68,2|0,1:2|0:0,0:0:0:0:
357,158,37434,2,0,L|350:242,1,68,0|0,1:0|0:0,0:0:0:0:
443,338,37797,1,0,1:0:0:0:
286,257,37979,1,2,0:3:0:0:
139,345,38161,6,0,P|130:271|182:219,1,152.999995330811,2|0,0:3|0:0,0:0:0:0:
203,297,38525,2,0,L|0:283,1,203.999993774414,6|2,1:2|0:3,0:0:0:0:
94,131,39070,2,0,L|87:172,1,42.5,0|0,3:0|3:0,0:0:0:0:
110,214,39252,1,2,0:0:0:0:
228,129,39434,2,0,P|242:169|239:211,1,85,0|2,1:0|0:3,0:0:0:0:
363,298,39797,6,0,P|349:258|352:216,1,85,2|0,0:0|1:0,0:0:0:0:
479,230,40161,1,0,1:0:0:0:
378,134,40343,1,2,0:3:0:0:
246,181,40525,1,0,0:0:0:0:
133,95,40707,2,0,P|138:53|158:16,1,85,2|0,0:0|1:0,0:0:0:0:
271,102,41070,2,0,P|266:144|246:181,1,85,2|0,0:3|0:0,0:0:0:0:
75,231,41434,5,2,1:2:0:0:
186,247,41616,1,0,1:0:0:0:
108,357,41797,5,2,0:3:0:0:
326,292,41979,1,0,0:0:0:0:
238,350,42161,5,2,0:0:0:0:
395,371,42343,2,0,P|419:336|429:294,1,85,0|2,1:0|0:3,0:0:0:0:
508,174,42707,6,0,B|453:197|410:174|410:174|366:150|312:174,1,203.999993774414,4|0,1:2|1:0,0:0:0:0:
184,78,43252,1,2,0:3:0:0:
314,54,43434,1,0,0:0:0:0:
213,201,43616,6,0,L|210:251,3,50.9999984436036,2|0|0|0,1:2|3:0|3:0|3:0,0:0:0:0:
202,276,43979,1,2,3:0:0:0:
183,294,44070,1,0,3:0:0:0:
159,304,44161,1,0,3:0:0:0:
133,307,44252,1,0,3:0:0:0:
112,303,44343,6,0,L|100:218,1,85,6|0,1:2|1:0,0:0:0:0:
171,47,44707,2,0,L|183:132,1,85,2|0,0:3|3:0,0:0:0:0:
237,183,44979,5,0,3:0:0:0:
233,203,45070,1,2,0:0:0:0:
381,116,45252,2,0,P|464:126|513:192,1,170,0|0,1:0|1:0,0:0:0:0:
400,303,45797,6,0,L|412:218,1,85,2|0,1:2|1:0,0:0:0:0:
341,47,46161,2,0,L|329:132,1,85,2|0,0:3|3:0,0:0:0:0:
275,183,46433,5,0,3:0:0:0:
279,203,46524,1,2,0:0:0:0:
131,116,46707,2,0,P|48:126|-1:192,1,170,0|0,1:0|1:0,0:0:0:0:
112,303,47252,6,0,L|100:218,1,85,2|0,1:2|1:0,0:0:0:0:
171,47,47616,2,0,L|183:132,1,85,2|0,0:3|3:0,0:0:0:0:
237,183,47888,5,0,3:0:0:0:
233,203,47979,1,2,0:0:0:0:
381,116,48161,2,0,P|405:149|413:191,1,85,0|2,1:0|0:3,0:0:0:0:
504,317,48525,6,0,P|469:292|427:286,1,85,2|0,1:2|1:0,0:0:0:0:
279,352,48888,1,0,1:0:0:0:
193,236,49070,2,0,P|199:194|224:160,1,85,2|0,0:3|3:0,0:0:0:0:
285,122,49343,1,2,0:3:0:0:
305,127,49434,1,2,0:0:0:0:
224,35,49616,1,0,1:0:0:0:
116,199,49797,1,2,0:3:0:0:
400,303,50161,6,0,L|412:218,1,85,6|0,1:2|1:0,0:0:0:0:
341,47,50525,2,0,L|329:132,1,85,2|0,0:3|3:0,0:0:0:0:
275,183,50797,5,0,3:0:0:0:
279,203,50888,1,2,0:0:0:0:
131,116,51070,2,0,P|48:126|-1:192,1,170,0|0,1:0|1:0,0:0:0:0:
112,303,51616,6,0,L|100:218,1,85,2|0,1:0|1:0,0:0:0:0:
220,273,51979,1,2,0:3:0:0:
309,180,52161,1,0,1:0:0:0:
318,199,52252,1,2,0:3:0:0:
321,220,52343,1,0,1:0:0:0:
198,148,52525,1,0,1:0:0:0:
352,42,52707,2,0,P|354:85|370:124,1,85,12|0,0:1|0:0,0:0:0:0:
489,221,53070,5,6,1:2:0:0:
468,216,53160,1,0,3:0:0:0:
447,216,53251,1,0,3:0:0:0:
426,223,53342,1,0,3:0:0:0:
408,233,53433,1,2,3:0:0:0:
390,244,53524,1,0,3:0:0:0:
369,250,53615,1,0,3:0:0:0:
348,250,53706,1,0,3:0:0:0:
328,246,53797,5,6,3:2:0:0:
173,315,53979,2,0,L|130:320,2,42.5,0|0|2,3:0|3:0|3:0,0:0:0:0:
404,377,54343,5,6,1:1:0:0:
71,23,55979,6,0,P|54:84|71:145,1,127.500004863739,6|0,1:2|0:0,0:0:0:0:
259,42,56343,2,0,P|276:103|259:164,1,127.500004863739,8|0,0:0|0:0,0:0:0:0:
34,118,56707,2,0,P|33:181|65:235,1,127.500004863739,6|0,1:1|1:0,0:0:0:0:
255,168,57070,1,8,0:0:0:0:
99,284,57252,6,0,P|22:187|47:66,1,255.000009727478,6|0,1:2|1:0,0:0:0:0:
222,17,57797,2,0,L|207:145,1,127.500004863739,8|0,0:0|0:0,0:0:0:0:
178,181,58070,1,0,3:0:0:0:
182,212,58161,1,6,1:1:0:0:
346,167,58343,5,0,3:0:0:0:
341,136,58434,1,0,3:0:0:0:
347,105,58525,1,2,3:3:0:0:
359,75,58616,1,0,3:0:0:0:
378,49,58707,1,0,3:0:0:0:
404,31,58797,1,0,3:0:0:0:
441,23,58888,6,0,P|458:84|441:145,1,127.500004863739,6|0,1:2|0:0,0:0:0:0:
253,42,59252,2,0,P|236:103|253:164,1,127.500004863739,8|0,0:0|0:0,0:0:0:0:
478,118,59616,2,0,P|479:181|447:235,1,127.500004863739,6|0,1:1|1:0,0:0:0:0:
257,168,59979,1,8,0:0:0:0:
413,284,60161,6,0,P|490:187|465:66,1,255.000009727478,6|0,1:2|1:0,0:0:0:0:
296,17,60706,2,0,L|311:145,1,127.500004863739,8|0,0:0|0:0,0:0:0:0:
145,227,61070,5,6,1:1:0:0:
162,200,61161,1,0,3:0:0:0:
170,168,61253,1,0,3:0:0:0:
172,136,61344,1,0,3:0:0:0:
165,105,61435,1,2,3:3:0:0:
153,75,61526,1,0,3:0:0:0:
134,49,61617,1,0,3:0:0:0:
108,31,61707,1,0,3:0:0:0:
71,23,61797,6,0,P|54:84|71:145,1,127.500004863739,6|0,1:2|0:0,0:0:0:0:
259,42,62161,2,0,P|276:103|259:164,1,127.500004863739,8|0,0:0|0:0,0:0:0:0:
34,118,62525,2,0,P|33:181|65:235,1,127.500004863739,6|0,1:1|1:0,0:0:0:0:
255,168,62888,1,8,0:0:0:0:
99,284,63070,6,0,P|22:187|47:66,1,255.000009727478,6|0,1:2|1:0,0:0:0:0:
216,17,63616,2,0,L|201:145,1,127.500004863739,8|0,0:0|0:0,0:0:0:0:
178,181,63888,1,0,3:0:0:0:
182,212,63979,1,6,1:1:0:0:
297,295,64161,1,0,3:0:0:0:
301,264,64252,1,0,3:0:0:0:
305,233,64343,1,8,3:2:0:0:
430,135,64525,5,0,3:0:0:0:
434,166,64616,1,0,3:0:0:0:
438,197,64707,2,0,P|375:189|325:151,1,127.500004863739,6|0,1:2|0:0,0:0:0:0:
160,233,65070,2,0,P|223:241|273:279,1,127.500004863739,8|0,0:0|1:0,0:0:0:0:
121,340,65435,1,8,0:0:0:0:
41,146,65616,1,2,1:2:0:0:
4,273,65797,1,8,0:0:0:0:
202,134,65979,6,0,P|277:130|341:169,1,152.999995330811,6|0,1:2|0:0,0:0:0:0:
396,216,66343,2,0,P|383:168|391:118,1,101.999996887207,2|8,1:2|0:0,0:0:0:0:
488,162,66707,1,2,0:0:0:0:
423,303,66888,5,2,1:2:0:0:
361,345,67010,2,0,P|333:344|306:336,1,56.6666666666667,0|0,3:0|3:0,0:0:0:0:
261,278,67252,5,0,3:0:0:0:
200,236,67374,2,0,P|171:236|144:244,1,56.6666666666667,0|0,3:0|3:0,0:0:0:0:
84,159,67616,6,0,B|90:165|90:165|113:162,1,31.875,2|0,0:0|0:0,0:0:0:0:
153,130,67979,6,0,P|209:161|272:158,1,127.500004863739,6|2,1:2|0:0,0:0:0:0:
402,14,68343,1,0,1:0:0:0:
235,44,68525,1,2,0:0:0:0:
373,191,68707,2,0,P|375:253|344:308,1,127.500004863739,8|2,0:0|3:2,0:0:0:0:
269,294,68979,5,0,3:0:0:0:
257,280,69070,2,0,L|235:154,1,127.500004863739,0|2,1:0|0:0,0:0:0:0:
163,282,69434,1,8,0:0:0:0:
308,132,69616,1,2,3:2:0:0:
309,151,69707,1,0,3:0:0:0:
305,170,69797,2,0,P|268:219|207:221,1,127.500004863739,0|2,1:0|0:0,0:0:0:0:
111,86,70161,1,8,0:0:0:0:
11,211,70343,1,2,3:2:0:0:
10,230,70434,1,0,3:0:0:0:
8,249,70525,6,0,L|134:231,1,127.500004863739,6|2,1:2|0:0,0:0:0:0:
277,286,70888,1,8,0:0:0:0:
305,129,71070,1,2,0:0:0:0:
134,231,71252,2,0,L|8:249,1,127.500004863739,0|2,1:0|0:0,0:0:0:0:
131,35,71616,2,0,P|156:92|152:155,1,127.500004863739,8|2,0:0|0:0,0:0:0:0:
297,353,71979,6,0,P|272:296|276:233,1,127.500004863739,6|2,1:2|0:0,0:0:0:0:
462,94,72343,1,8,0:0:0:0:
389,276,72525,1,2,0:0:0:0:
333,29,72707,2,0,P|273:46|228:90,1,127.500004863739,6|2,1:1|3:2,0:0:0:0:
210,64,72979,1,0,3:0:0:0:
189,40,73070,1,8,3:2:0:0:
162,23,73161,1,0,3:0:0:0:
130,15,73253,1,2,3:2:0:0:
98,13,73344,1,0,3:0:0:0:
64,21,73434,6,0,P|47:91|69:159,1,144.500002756119,6|2,1:2|0:0,0:0:0:0:
264,30,73797,2,0,P|281:100|259:168,1,144.500002756119,8|2,0:0|0:0,0:0:0:0:
17,109,74161,2,0,P|37:178|90:226,1,144.500002756119,6|2,1:1|0:0,0:0:0:0:
311,121,74525,2,0,P|286:188|230:233,1,144.500002756119,8|2,0:0|0:0,0:0:0:0:
1,90,74888,6,0,P|49:37|117:17,1,144.500002756119,6|2,1:2|0:0,0:0:0:0:
325,101,75252,2,0,P|282:43|217:16,1,144.500002756119,8|2,0:0|0:0,0:0:0:0:
200,186,75616,5,6,1:1:0:0:
234,178,75706,1,0,3:0:0:0:
269,189,75797,1,2,3:2:0:0:
295,213,75888,1,0,3:0:0:0:
307,247,75979,1,8,3:2:0:0:
302,282,76070,1,0,3:0:0:0:
282,311,76161,1,2,3:2:0:0:
250,329,76252,1,0,3:0:0:0:
203,327,76343,5,6,1:1:0:0:
287,348,77616,2,0,L|317:344,1,29.7499990921021,0|0,3:0|3:0,0:0:0:0:
406,384,77798,5,6,1:2:0:0:
490,326,77980,1,0,3:0:0:0:
481,301,78071,1,0,3:0:0:0:
479,275,78161,2,0,P|480:249|486:224,1,50.9999984436036,0|0,3:0|3:0,0:0:0:0:
373,285,78343,5,6,1:1:0:0:
269,234,78526,1,0,3:0:0:0:
278,209,78617,1,0,3:0:0:0:
280,183,78707,2,0,P|279:157|273:132,1,50.9999984436036,0|0,3:0|3:0,0:0:0:0:
367,135,78889,6,0,P|383:44|293:25,1,203.999993774414,6|0,1:2|1:0,0:0:0:0:
171,131,79434,5,8,1:2:0:0:
36,27,79616,2,0,L|52:127,1,101.999996887207,8|0,0:0|1:0,0:0:0:0:
202,30,79979,1,12,0:0:0:0:
316,181,80161,5,0,3:0:0:0:
305,192,80252,1,0,3:0:0:0:
292,201,80343,1,0,3:0:0:0:
278,207,80434,1,0,3:0:0:0:
263,209,80525,2,0,P|240:200|221:183,1,50.9999984436036,0|0,3:0|0:0,0:0:0:0:
50,118,80707,5,6,1:2:0:0:
254,64,80889,1,0,3:0:0:0:
93,25,81071,1,0,3:0:0:0:
160,218,81252,5,6,1:1:0:0:
0,179,81434,1,0,3:0:0:0:
105,321,81616,1,0,3:0:0:0:
251,213,81797,6,0,P|226:122|133:134,1,203.999993774414,6|0,1:1|1:0,0:0:0:0:
73,265,82343,5,2,3:0:0:0:
75,280,82434,1,0,3:0:0:0:
77,295,82525,1,2,3:0:0:0:
221,212,82707,1,0,1:0:0:0:
303,361,82888,5,2,3:0:0:0:
318,361,82979,1,0,3:0:0:0:
333,358,83070,1,2,3:0:0:0:
346,351,83161,1,0,3:0:0:0:
357,341,83252,2,0,L|373:292,2,50.9999984436036,0|0|0,3:0|3:0|3:0,0:0:0:0:
106,384,83616,5,6,1:2:0:0:
22,326,83798,1,0,3:0:0:0:
31,301,83889,1,0,3:0:0:0:
33,275,83979,2,0,P|32:249|26:224,1,50.9999984436036,0|0,3:0|3:0,0:0:0:0:
139,285,84161,5,6,1:1:0:0:
243,234,84344,1,0,3:0:0:0:
234,209,84435,1,0,3:0:0:0:
232,183,84525,2,0,P|233:157|239:132,1,50.9999984436036,0|0,3:0|3:0,0:0:0:0:
145,135,84707,6,0,P|129:44|219:25,1,203.999993774414,6|0,1:2|1:0,0:0:0:0:
341,131,85252,5,8,1:2:0:0:
476,27,85434,2,0,L|460:127,1,101.999996887207,8|0,0:0|1:0,0:0:0:0:
310,30,85797,1,12,0:0:0:0:
196,181,85979,5,0,3:0:0:0:
207,192,86070,1,0,3:0:0:0:
220,201,86161,1,0,3:0:0:0:
234,207,86252,1,0,3:0:0:0:
249,209,86343,2,0,P|272:200|291:183,1,50.9999984436036,0|0,3:0|0:0,0:0:0:0:
462,73,86525,5,6,1:2:0:0:
254,106,86707,1,0,3:0:0:0:
391,6,86889,1,0,3:0:0:0:
494,198,87070,5,6,1:1:0:0:
299,167,87252,1,0,3:0:0:0:
401,283,87434,1,0,3:0:0:0:
221,372,87616,6,0,P|226:275|316:243,1,203.999993774414,6|0,1:1|1:0,0:0:0:0:
242,89,88161,6,0,L|248:173,1,85,8|8,0:0|0:0,0:0:0:0:
321,54,88525,1,0,1:0:0:0:
170,195,88707,1,8,0:0:0:0:
40,128,88888,1,0,3:0:0:0:
35,115,88979,1,0,3:0:0:0:
32,102,89070,2,0,P|33:80|39:60,2,42.5,0|0|0,3:0|3:0|1:0,0:0:0:0:
157,207,89434,5,0,1:0:0:0:
274,131,89616,1,8,0:0:0:0:
275,143,89707,1,0,3:0:0:0:
276,155,89797,1,8,0:0:0:0:
157,207,89979,1,0,1:0:0:0:
49,124,90161,1,8,0:0:0:0:
50,112,90252,1,0,3:0:0:0:
51,100,90342,1,8,0:0:0:0:
52,88,90435,1,0,3:0:0:0:
54,76,90525,2,0,P|117:85|169:121,1,127.5,10|0,0:0|0:0,0:0:0:0:
169,121,90888,6,0,P|106:112|54:76,1,127.5,0|0,0:0|1:0,0:0:0:0:
58,227,91616,5,0,1:0:0:0:
169,121,91797,2,0,L|173:205,1,85,2|0,0:2|1:0,0:0:0:0:
378,153,92161,6,0,L|374:237,1,85,2|0,0:2|1:0,0:0:0:0:
265,299,92525,1,0,0:0:0:0:
398,252,92707,2,0,L|394:336,1,85,2|0,1:2|0:0,0:0:0:0:
271,134,93070,2,0,L|275:218,1,85,2|2,1:2|0:2,0:0:0:0:
257,237,93343,1,0,0:0:0:0:
240,256,93434,2,0,L|236:340,1,85,0|2,1:0|0:2,0:0:0:0:
114,200,93797,6,0,P|117:242|128:283,1,85,0|0,1:0|0:0,0:0:0:0:
327,163,94161,2,0,P|324:205|313:246,1,85,2|0,1:2|0:0,0:0:0:0:
131,31,94525,2,0,P|134:73|145:114,1,85,0|0,1:0|0:0,0:0:0:0:
362,0,94889,2,0,P|359:42|348:83,1,85,2|0,1:2|0:0,0:0:0:0:
211,205,95252,5,0,1:0:0:0:
415,121,95434,2,0,L|419:205,1,85,2|2,0:3|0:3,0:3:0:0:
321,297,95797,1,0,1:0:0:0:
242,117,95979,1,2,0:3:0:0:
108,239,96161,5,0,3:0:0:0:
104,259,96252,1,0,3:0:0:0:
102,280,96343,1,0,3:0:0:0:
105,300,96434,1,0,3:0:0:0:
112,319,96525,2,0,P|125:336|142:349,1,42.5,0|0,3:0|0:0,0:0:0:0:
218,294,96707,6,0,B|272:312|316:294|316:294|361:273|418:293,1,203.999993774414,4|2,1:2|0:3,0:0:0:0:
417,293,97434,1,2,0:0:0:0:
491,184,97616,2,0,L|502:268,1,85,0|2,1:0|0:3,0:0:0:0:
351,145,97979,6,0,P|315:122|273:119,1,85,2|0,0:0|1:0,0:0:0:0:
99,165,98343,1,0,1:0:0:0:
176,2,98525,2,0,L|184:86,1,85,2|0,0:3|0:0,0:0:0:0:
203,124,98797,1,0,0:0:0:0:
200,145,98888,1,2,0:0:0:0:
94,80,99070,1,0,1:0:0:0:
285,33,99252,2,0,P|325:36|361:59,1,85,2|0,0:3|0:0,0:0:0:0:
456,262,99616,5,2,1:2:0:0:
345,246,99798,1,0,1:0:0:0:
423,136,99979,5,2,0:3:0:0:
205,201,100161,1,0,0:0:0:0:
293,143,100343,5,2,0:0:0:0:
145,80,100525,2,0,P|121:115|111:157,1,85,0|2,1:0|0:3,0:0:0:0:
1,234,100889,6,0,B|56:211|99:234|99:234|143:258|197:234,1,203.999993774414,4|0,1:2|1:0,0:0:0:0:
285,378,101434,2,0,P|241:352|218:307,1,101.999996887207,2|0,0:3|0:0,0:0:0:0:
238,137,101797,6,0,P|249:159|257:184,1,50.9999984436036,2|0,1:2|3:0,0:0:0:0:
143,100,101979,2,0,P|150:75|163:53,1,50.9999984436036,0|0,3:0|3:0,0:0:0:0:
308,52,102161,1,2,3:0:0:0:
327,70,102252,1,0,3:0:0:0:
351,80,102343,1,0,3:0:0:0:
377,83,102434,1,0,3:0:0:0:
398,81,102525,6,0,P|397:123|409:163,1,85,6|0,1:2|1:0,0:0:0:0:
340,335,102888,2,0,P|341:293|329:253,1,85,2|0,0:3|3:0,0:0:0:0:
276,182,103160,5,0,3:0:0:0:
272,202,103251,1,2,0:0:0:0:
131,268,103433,2,0,P|48:258|-1:192,1,170,0|0,1:0|1:0,0:0:0:0:
114,81,103979,6,0,P|115:123|103:163,1,85,2|0,1:2|1:0,0:0:0:0:
172,335,104343,2,0,P|171:293|183:253,1,85,2|0,0:3|3:0,0:0:0:0:
236,182,104616,5,0,3:0:0:0:
240,202,104707,1,2,0:0:0:0:
381,268,104888,2,0,P|464:258|513:192,1,170,0|0,1:0|1:0,0:0:0:0:
398,81,105434,6,0,P|397:123|409:163,1,85,2|0,1:2|1:0,0:0:0:0:
340,335,105797,2,0,P|341:293|329:253,1,85,2|0,0:3|3:0,0:0:0:0:
276,182,106069,5,0,3:0:0:0:
272,202,106160,1,2,0:0:0:0:
131,116,106343,2,0,P|48:126|-1:192,1,170,0|0,1:0|1:0,0:0:0:0:
193,176,106888,6,0,P|194:218|182:258,1,85,2|0,1:2|1:0,0:0:0:0:
127,314,107161,1,0,1:0:0:0:
130,335,107252,1,2,0:3:0:0:
303,288,107434,5,0,1:0:0:0:
297,267,107525,1,2,0:3:0:0:
291,246,107616,1,2,0:0:0:0:
381,116,107797,2,0,P|464:126|513:192,1,170,0|0,1:0|1:0,0:0:0:0:
400,303,108343,6,0,L|412:218,1,85,6|0,1:2|1:0,0:0:0:0:
341,47,108707,2,0,L|329:132,1,85,2|0,0:3|3:0,0:0:0:0:
275,183,108979,5,0,3:0:0:0:
279,203,109070,1,2,0:0:0:0:
131,116,109252,2,0,P|48:126|-1:192,1,170,0|0,1:0|1:0,0:0:0:0:
112,303,109798,6,0,L|100:218,1,85,2|0,1:0|1:0,0:0:0:0:
300,268,110161,2,0,P|268:296|226:305,1,85,2|0,0:3|1:3,0:3:0:0:
206,301,110434,1,2,0:3:0:0:
187,292,110525,1,0,1:0:0:0:
348,186,110707,1,0,1:0:0:0:
229,65,110888,2,0,P|186:67|147:83,1,85,12|0,0:1|0:0,0:0:0:0:
23,221,111252,5,6,1:2:0:0:
44,216,111342,1,0,3:0:0:0:
65,216,111433,1,0,3:0:0:0:
86,223,111524,1,0,3:0:0:0:
104,233,111615,1,2,3:0:0:0:
122,244,111706,1,0,3:0:0:0:
143,250,111797,1,0,3:0:0:0:
164,250,111888,1,0,3:0:0:0:
184,246,111979,5,6,3:2:0:0:
339,315,112161,2,0,L|382:320,2,42.5,0|0|2,3:0|3:0|3:0,0:0:0:0:
108,377,112525,5,6,1:1:0:0:
422,31,114161,6,0,P|405:92|422:153,1,127.500004863739,6|0,1:2|0:0,0:0:0:0:
224,40,114525,2,0,P|241:101|224:162,1,127.500004863739,8|0,0:0|0:0,0:0:0:0:
445,126,114888,2,0,P|444:189|476:243,1,127.500004863739,6|0,1:1|1:0,0:0:0:0:
306,181,115252,1,8,0:0:0:0:
510,287,115434,6,0,P|433:190|458:69,1,255.000009727478,6|0,1:2|1:0,0:0:0:0:
315,221,115979,2,0,P|256:245|193:236,1,127.500004863739,8|0,0:0|0:0,0:0:0:0:
304,72,116343,1,6,1:1:0:0:
151,163,116525,2,0,P|119:164|90:152,2,63.7500024318696,0|0|2,3:0|3:0|3:3,0:0:0:0:
153,37,116888,1,0,3:0:0:0:
123,26,116978,1,0,3:0:0:0:
90,31,117070,6,0,P|107:92|90:153,1,127.500004863739,6|0,1:2|0:0,0:0:0:0:
288,40,117434,2,0,P|271:101|288:162,1,127.500004863739,8|0,0:0|0:0,0:0:0:0:
67,126,117797,2,0,P|68:189|36:243,1,127.500004863739,6|0,1:1|1:0,0:0:0:0:
206,181,118161,1,8,0:0:0:0:
2,287,118343,6,0,P|79:190|54:69,1,255.000009727478,6|0,1:2|1:0,0:0:0:0:
209,252,118888,2,0,P|268:276|331:267,1,127.500004863739,8|0,0:0|3:0,0:0:0:0:
357,251,119161,1,0,3:0:0:0:
371,222,119252,1,6,1:1:0:0:
370,190,119343,1,0,3:0:0:0:
355,161,119434,1,0,3:0:0:0:
325,147,119525,1,0,3:0:0:0:
294,154,119616,1,2,3:3:0:0:
359,20,119797,1,0,3:0:0:0:
389,31,119887,1,0,3:0:0:0:
422,31,119979,6,0,P|405:92|422:153,1,127.500004863739,6|0,1:2|0:0,0:0:0:0:
224,40,120343,2,0,P|241:101|224:162,1,127.500004863739,8|0,0:0|0:0,0:0:0:0:
445,126,120707,2,0,P|444:189|476:243,1,127.500004863739,6|0,1:1|1:0,0:0:0:0:
306,181,121070,1,8,0:0:0:0:
449,45,121252,1,6,1:2:0:0:
244,0,121434,6,0,P|247:63|222:121,1,127.500004863739,2|0,0:0|1:0,0:0:0:0:
196,139,121707,1,2,0:0:0:0:
192,143,121797,2,0,L|129:133,1,63.7500024318696,10|0,0:0|0:0,0:0:0:0:
97,220,121979,2,0,L|37:242,1,63.7500024318696
53,334,122161,1,6,1:1:0:0:
201,230,122343,5,0,3:0:0:0:
230,217,122434,1,0,3:0:0:0:
260,206,122525,1,8,3:2:0:0:
291,202,122616,1,0,3:0:0:0:
322,203,122707,1,0,3:0:0:0:
352,210,122797,1,0,3:0:0:0:
377,228,122888,6,0,P|401:286|393:348,1,127.500004863739,6|0,1:2|0:0,0:0:0:0:
512,218,123252,2,0,P|487:159|495:97,1,127.500004863739,8|0,0:0|1:0,0:0:0:0:
314,205,123616,1,8,0:0:0:0:
394,63,123797,1,2,1:2:0:0:
433,261,123978,1,8,0:0:0:0:
313,115,124161,6,0,P|238:111|174:150,1,152.999995330811,6|0,1:2|0:0,0:0:0:0:
119,196,124525,2,0,P|132:148|124:98,1,101.999996887207,2|8,1:2|0:0,0:0:0:0:
27,143,124889,1,2,0:0:0:0:
92,284,125070,5,2,1:2:0:0:
154,326,125192,2,0,P|182:325|209:317,1,56.6666666666667,0|0,3:0|3:0,0:0:0:0:
254,259,125434,5,0,3:0:0:0:
315,217,125556,2,0,P|344:217|371:225,1,56.6666666666667,0|0,3:0|3:0,0:0:0:0:
445,152,125797,6,0,B|439:158|439:158|415:155,1,31.875,2|0,0:0|0:0,0:0:0:0:
374,124,126161,6,0,P|318:93|255:96,1,127.500004863739,6|2,1:2|0:0,0:0:0:0:
99,156,126525,1,0,1:0:0:0:
186,19,126707,1,2,0:0:0:0:
273,178,126889,2,0,P|275:240|244:295,1,127.500004863739,8|2,0:0|3:2,0:0:0:0:
173,330,127161,5,0,3:0:0:0:
168,311,127252,2,0,L|153:184,1,127.500004863739,0|2,1:0|0:0,0:0:0:0:
56,303,127616,1,8,0:0:0:0:
248,230,127798,1,2,3:2:0:0:
265,239,127889,1,0,3:0:0:0:
283,244,127979,2,0,P|345:233|383:184,1,127.500004863739,0|2,1:0|0:0,0:0:0:0:
493,296,128343,1,8,0:0:0:0:
285,351,128525,1,2,3:2:0:0:
279,332,128616,1,0,3:0:0:0:
273,313,128707,6,0,L|293:187,1,127.500004863739,6|2,1:2|0:0,0:0:0:0:
139,239,129070,1,8,0:0:0:0:
90,86,129252,1,2,0:0:0:0:
293,187,129434,2,0,L|273:313,1,127.500004863739,0|2,1:0|0:0,0:0:0:0:
492,247,129798,2,0,P|435:222|372:226,1,127.500004863739,8|2,0:0|0:0,0:0:0:0:
93,135,130161,6,0,P|150:160|213:155,1,127.500004863739,6|2,1:2|0:0,0:0:0:0:
68,33,130525,1,8,0:0:0:0:
15,222,130707,1,2,0:0:0:0:
172,30,130888,2,0,P|232:47|277:91,1,127.500004863739,6|2,1:1|3:2,0:0:0:0:
295,65,131160,1,0,3:0:0:0:
316,41,131251,1,8,3:2:0:0:
343,24,131342,1,0,3:0:0:0:
375,16,131434,1,2,3:2:0:0:
407,14,131525,1,0,3:0:0:0:
441,27,131616,6,0,P|421:99|441:172,1,144.500002756119,6|2,1:2|0:0,0:0:0:0:
244,48,131980,2,0,P|265:121|244:195,1,144.500002756119,8|2,0:0|0:0,0:0:0:0:
447,100,132343,2,0,P|465:172|519:225,1,144.500002756119,6|2,1:1|0:0,0:0:0:0:
243,125,132707,2,0,P|224:198|169:252,1,144.500002756119,8|2,0:0|0:0,0:0:0:0:
508,103,133070,6,0,P|438:86|386:37,1,144.500002756119,6|2,1:2|0:0,0:0:0:0:
171,51,133434,2,0,P|242:52|305:19,1,144.500002756119,8|2,0:0|0:0,0:0:0:0:
416,169,133797,5,4,1:1:0:0:
372,229,133919,2,0,P|345:238|317:240,1,56.6666666666667,8|8,1:3|1:3,0:0:0:0:
252,206,134161,5,4,1:3:0:0:
178,218,134283,2,0,P|152:230|130:248,1,56.6666666666667,4|4,1:3|1:3,0:0:0:0:
92,316,134525,5,6,1:1:0:0:
60,75,144706,6,0,L|51:193,1,118.999996368408,6|0,1:2|1:0,0:0:0:0:
134,227,145252,1,0,1:0:0:0:
211,127,145434,2,0,L|215:186,1,59.4999981842042,2|0,0:3|1:0,0:0:0:0:
60,75,145797,6,0,L|47:253,1,178.499994552612,2|0,1:2|1:0,0:0:0:0:
146,279,146525,2,0,L|150:338,1,59.4999981842042,0|0,1:0|1:0,0:0:0:0:
236,229,146888,1,2,0:3:0:0:
434,58,147252,6,0,L|443:176,1,118.999996368408,2|0,1:2|1:0,0:0:0:0:
360,210,147798,1,0,1:0:0:0:
283,110,147980,2,0,L|279:169,1,59.4999981842042,2|0,0:3|1:0,0:0:0:0:
434,58,148343,6,0,L|447:236,1,178.499994552612,2|0,1:2|1:0,0:0:0:0:
348,262,149071,2,0,L|344:321,1,59.4999981842042,0|0,1:0|1:0,0:0:0:0:
258,212,149434,1,2,0:3:0:0:
434,58,149797,6,0,L|447:236,1,178.499994552612,2|0,1:2|1:0,0:0:0:0:
344,162,150525,2,0,L|340:221,1,59.4999981842042,2|0,0:3|1:0,0:0:0:0:
240,240,150888,1,2,1:2:0:0:
222,255,151434,5,2,1:2:0:0:
126,184,151615,2,0,L|122:243,1,59.4999981842042,0|0,1:0|1:0,0:0:0:0:
31,260,151979,2,0,L|35:319,1,59.4999981842042,2|0,0:3|1:0,0:0:0:0:
131,125,152343,6,0,L|122:243,1,118.999996368408,2|0,1:2|1:0,0:0:0:0:
205,277,152889,1,0,1:0:0:0:
282,177,153071,2,0,L|286:236,1,59.4999981842042,2|0,0:3|1:0,0:0:0:0:
131,125,153434,6,0,L|118:303,1,178.499994552612,2|2,1:2|1:2,0:0:0:0:
50,211,154161,1,0,1:0:0:0:
193,283,154343,1,0,1:0:0:0:
313,198,154525,2,0,L|311:168,3,29.7499990921021,2|0|0|0,0:3|3:0|3:0|3:0,0:0:0:0:
341,144,154888,6,0,P|360:200|355:259,1,118.999996368408,6|0,1:2|1:0,0:0:0:0:
243,213,155434,1,0,1:0:0:0:
133,173,155615,2,0,P|127:199|130:239,1,59.4999981842042,2|0,0:3|1:0,0:0:0:0:
341,144,155979,6,0,P|360:229|325:310,1,178.499994552612,2|0,1:2|1:0,0:0:0:0:
223,184,156706,2,0,P|216:213|218:243,1,59.4999981842042,0|0,1:0|1:0,0:0:0:0:
111,135,157070,1,2,0:3:0:0:
266,43,157434,6,0,P|280:76|287:115,1,59.4999981842042,2|0,1:0|1:0,0:0:0:0:
200,201,157797,1,0,1:0:0:0:
364,161,157979,2,0,P|350:194|343:233,1,59.4999981842042,0|2,1:0|0:3,0:0:0:0:
479,232,158343,1,0,1:0:0:0:
364,161,158525,6,0,P|345:246|380:327,1,178.499994552612,2|0,1:2|1:0,0:0:0:0:
243,248,159252,2,0,P|244:218|237:189,1,59.4999981842042,0|0,1:0|1:0,0:0:0:0:
141,271,159615,2,0,P|139:300|146:329,1,59.4999981842042,2|0,0:3|1:0,0:0:0:0:
218,134,159979,6,0,P|232:167|239:206,1,59.4999981842042,6|0,1:2|1:0,0:0:0:0:
109,92,160343,1,0,1:0:0:0:
24,178,160525,2,0,P|10:211|3:250,1,59.4999981842042,0|2,1:0|0:3,0:0:0:0:
142,167,160888,1,0,1:0:0:0:
24,178,161070,6,0,P|5:263|40:344,1,178.499994552612,2|0,1:2|1:0,0:0:0:0:
141,271,161797,2,0,P|142:241|135:212,1,59.4999981842042,0|0,1:0|1:0,0:0:0:0:
252,305,162161,2,0,P|250:334|257:363,1,59.4999981842042,2|0,0:3|1:0,0:0:0:0:
397,218,162525,6,0,P|416:274|411:333,1,118.999996368408,2|0,1:2|1:0,0:0:0:0:
302,288,163071,1,0,1:0:0:0:
192,248,163252,2,0,P|186:274|189:314,1,59.4999981842042,2|0,0:3|1:0,0:0:0:0:
397,218,163616,6,0,P|416:303|381:384,1,178.499994552612,2|0,1:2|1:0,0:0:0:0:
273,285,164343,1,0,1:0:0:0:
171,345,164525,1,0,1:0:0:0:
67,234,164706,2,0,P|61:260|64:300,1,59.4999981842042,2|0,0:3|1:0,0:0:0:0:
182,156,165070,6,0,P|201:212|196:271,1,118.999996368408,2|0,1:2|0:0,0:0:0:0:
287,348,166706,2,0,L|317:344,1,29.7499990921021,0|0,3:0|3:0,0:0:0:0:
406,384,166888,5,6,1:2:0:0:
490,326,167070,1,0,3:0:0:0:
488,300,167161,1,0,3:0:0:0:
486,274,167252,2,0,L|482:223,1,50.9999984436036,0|0,3:0|3:0,0:0:0:0:
377,276,167433,5,6,1:1:0:0:
272,236,167615,1,0,3:0:0:0:
274,210,167706,1,0,3:0:0:0:
276,184,167797,2,0,L|280:133,1,50.9999984436036,0|0,3:0|3:0,0:0:0:0:
389,129,167979,6,0,P|367:40|456:17,1,203.999993774414,6|0,1:2|1:0,0:0:0:0:
385,133,168524,1,8,0:0:0:0:
232,39,168706,2,0,L|216:139,1,101.999996887207,8|0,0:0|1:0,0:0:0:0:
93,21,169070,1,12,0:0:0:0:
39,192,169252,5,0,3:0:0:0:
50,203,169343,1,0,3:0:0:0:
63,212,169434,1,0,3:0:0:0:
77,218,169525,1,0,3:0:0:0:
92,220,169616,2,0,P|116:221|140:213,1,50.9999984436036,0|0,3:0|0:0,0:0:0:0:
268,86,169797,5,6,1:2:0:0:
69,121,169979,1,0,3:0:0:0:
186,9,170161,1,0,3:0:0:0:
324,148,170342,5,6,1:1:0:0:
143,139,170524,1,0,3:0:0:0:
273,228,170706,1,0,3:0:0:0:
115,282,170888,6,0,P|179:355|271:325,1,203.999993774414,6|0,1:1|0:0,0:0:0:0:
220,184,171434,5,0,3:0:0:0:
216,208,171525,1,0,3:0:0:0:
211,233,171615,1,2,3:0:0:0:
110,171,171797,5,0,3:0:0:0:
105,146,171888,1,0,3:0:0:0:
100,121,171979,2,0,L|89:56,1,50.9999984436036,2|0,3:0|3:0,0:0:0:0:
198,60,172161,2,0,L|220:-1,1,50.9999984436036,0|0,3:0|3:0,0:0:0:0:
309,91,172343,1,0,3:0:0:0:
333,83,172434,1,0,3:0:0:0:
358,82,172525,1,0,3:0:0:0:
383,84,172615,1,0,3:0:0:0:
406,93,172706,5,0,1:0:0:0:
456,7,172888,1,0,1:0:0:0:
402,97,173070,6,0,L|414:249,1,152.999995330811,6|0,1:2|0:0,0:0:0:0:
406,269,173434,1,0,1:0:0:0:
290,201,173615,1,0,1:0:0:0:
193,309,173797,2,0,B|151:317|151:317|111:305,1,85,2|0,0:3|3:0,0:0:0:0:
55,260,174070,5,0,3:0:0:0:
50,239,174161,1,0,1:0:0:0:
82,132,174343,2,0,L|88:105,2,28.3333333333333,0|0|0,1:0|0:0|0:0,0:0:0:0:
96,154,174525,2,0,L|180:146,1,85,2|0,0:3|3:0,0:0:0:0:
247,171,174797,1,0,3:0:0:0:
245,192,174888,1,0,1:0:0:0:
141,263,175070,1,0,1:0:0:0:
288,320,175252,2,0,B|330:312|330:312|370:324,1,85,2|0,0:3|3:0,0:0:0:0:
444,343,175524,5,0,3:0:0:0:
464,335,175615,2,0,L|457:250,1,85,0|0,1:0|1:0,0:0:0:0:
364,220,175979,1,12,0:0:0:0:
360,224,176161,1,0,0:0:0:0:
466,77,176343,6,0,L|473:162,1,85,0|0,1:0|1:0,0:0:0:0:
336,110,176706,1,12,0:1:0:0:
263,162,176888,1,0,0:0:0:0:
410,199,177070,6,0,L|403:284,1,85,0|0,1:0|1:0,0:0:0:0:
512,224,177434,1,12,0:1:0:0:
454,342,177615,1,0,1:0:0:0:
305,239,177797,1,4,0:0:0:0:
220,331,177979,1,0,3:0:0:0:
198,333,178070,1,0,3:0:0:0:
176,330,178161,1,2,3:0:0:0:
156,322,178252,1,0,3:0:0:0:
137,311,178343,1,0,3:0:0:0:
122,295,178434,1,0,3:0:0:0:
112,275,178525,5,6,1:0:0:0:
214,178,178706,2,0,L|256:184,2,42.5,0|0|2,0:0|0:0|0:3,0:0:0:0:
129,76,179070,2,0,L|86:82,1,42.5,0|0,1:0|0:0,0:0:0:0:
0,181,179251,1,2,0:3:0:0:
18,193,179342,1,0,0:0:0:0:
32,209,179433,1,0,1:0:0:0:
43,227,179524,1,0,0:0:0:0:
50,247,179615,1,2,0:3:0:0:
144,352,179797,6,0,B|185:358|185:358|225:345,1,85,0|2,1:0|0:3,0:0:0:0:
241,324,180070,1,0,0:0:0:0:
262,322,180161,1,0,1:0:0:0:
283,320,180252,1,0,0:0:0:0:
300,298,180343,5,2,0:3:0:0:
320,301,180434,1,0,0:0:0:0:
340,304,180525,1,0,1:0:0:0:
360,308,180615,1,0,0:0:0:0:
380,327,180706,6,0,B|421:313|421:313|462:319,1,85,2|0,0:3|1:0,0:0:0:0:
396,204,181070,2,0,B|355:218|355:218|314:212,1,85,12|0,0:1|0:0,0:0:0:0:
150,278,181434,6,0,L|156:235,3,42.5,6|0|0|0,1:2|3:0|1:0|3:0,0:0:0:0:
226,209,181797,2,0,L|219:166,3,42.5,2|0|0|0,3:3|3:0|1:0|3:0,0:0:0:0:
180,143,182161,5,2,3:3:0:0:
185,113,182252,1,0,3:0:0:0:
193,84,182343,1,0,1:0:0:0:
198,54,182434,1,0,3:0:0:0:
206,25,182525,1,2,3:3:0:0:
0,57,182706,6,0,B|89:75|89:75|115:113,1,136,6|0,0:0|0:0,0:0:0:0:
256,351,194343,5,2,1:2:0:0:
121,221,194706,5,2,0:0:0:0:
211,201,194888,1,2,0:0:0:0:
300,182,195070,1,2,0:0:0:0:
390,162,195252,1,2,0:0:0:0:
71,23,195979,6,0,P|54:84|71:145,1,127.500004863739,6|0,1:2|0:0,0:0:0:0:
259,42,196343,2,0,P|276:103|259:164,1,127.500004863739,8|0,0:0|0:0,0:0:0:0:
34,118,196707,2,0,P|33:181|65:235,1,127.500004863739,6|0,1:1|1:0,0:0:0:0:
255,168,197070,1,8,0:0:0:0:
99,284,197252,6,0,P|22:187|47:66,1,255.000009727478,6|0,1:2|1:0,0:0:0:0:
222,17,197797,2,0,L|207:145,1,127.500004863739,8|0,0:0|0:0,0:0:0:0:
178,181,198070,1,0,3:0:0:0:
182,212,198161,1,6,1:1:0:0:
346,167,198343,5,0,3:0:0:0:
341,136,198434,1,0,3:0:0:0:
347,105,198525,1,2,3:3:0:0:
359,75,198616,1,0,3:0:0:0:
378,49,198707,1,0,3:0:0:0:
404,31,198797,1,0,3:0:0:0:
441,23,198888,6,0,P|458:84|441:145,1,127.500004863739,6|0,1:2|0:0,0:0:0:0:
253,42,199252,2,0,P|236:103|253:164,1,127.500004863739,8|0,0:0|0:0,0:0:0:0:
478,118,199616,2,0,P|479:181|447:235,1,127.500004863739,6|0,1:1|1:0,0:0:0:0:
257,168,199979,1,8,0:0:0:0:
413,284,200161,6,0,P|490:187|465:66,1,255.000009727478,6|0,1:2|1:0,0:0:0:0:
296,17,200706,2,0,L|311:145,1,127.500004863739,8|0,0:0|0:0,0:0:0:0:
145,227,201070,5,6,1:1:0:0:
162,200,201161,1,0,3:0:0:0:
170,168,201252,1,0,3:0:0:0:
172,136,201343,1,0,3:0:0:0:
165,105,201434,1,2,3:3:0:0:
153,75,201525,1,0,3:0:0:0:
134,49,201615,1,0,3:0:0:0:
108,31,201706,1,0,3:0:0:0:
71,23,201797,6,0,P|54:84|71:145,1,127.500004863739,6|0,1:2|0:0,0:0:0:0:
259,42,202161,2,0,P|276:103|259:164,1,127.500004863739,8|0,0:0|0:0,0:0:0:0:
34,118,202525,2,0,P|33:181|65:235,1,127.500004863739,6|0,1:1|1:0,0:0:0:0:
255,168,202888,1,8,0:0:0:0:
99,284,203070,6,0,P|22:187|47:66,1,255.000009727478,6|0,1:2|1:0,0:0:0:0:
216,17,203616,2,0,L|201:145,1,127.500004863739,8|0,0:0|0:0,0:0:0:0:
178,181,203888,1,0,3:0:0:0:
182,212,203979,1,6,1:1:0:0:
186,243,204070,1,0,3:0:0:0:
192,274,204161,2,0,L|200:337,1,63.7500024318696,0|0,3:0|3:0,0:0:0:0:
326,258,204343,1,8,3:2:0:0:
430,135,204525,5,0,3:0:0:0:
434,166,204616,1,0,3:0:0:0:
438,197,204707,2,0,P|375:189|325:151,1,127.500004863739,6|0,1:2|0:0,0:0:0:0:
160,233,205070,2,0,P|223:241|273:279,1,127.500004863739,8|0,0:0|1:0,0:0:0:0:
121,340,205435,1,8,0:0:0:0:
41,146,205616,1,2,1:2:0:0:
4,273,205797,1,8,0:0:0:0:
202,134,205979,6,0,P|277:130|341:169,1,152.999995330811,6|0,1:2|0:0,0:0:0:0:
396,216,206343,2,0,P|383:168|391:118,1,101.999996887207,2|8,1:2|0:0,0:0:0:0:
488,162,206707,1,2,0:0:0:0:
423,303,206888,5,2,1:2:0:0:
361,345,207010,2,0,P|333:344|306:336,1,56.6666666666667,0|0,3:0|3:0,0:0:0:0:
261,278,207252,5,0,3:0:0:0:
200,236,207374,2,0,P|171:236|144:244,1,56.6666666666667,0|0,3:0|3:0,0:0:0:0:
84,159,207615,6,0,B|90:165|90:165|113:162,1,31.875,2|0,0:0|0:0,0:0:0:0:
153,130,207979,6,0,P|209:161|272:158,1,127.500004863739,6|2,1:2|0:0,0:0:0:0:
438,38,208343,1,0,1:0:0:0:
277,76,208525,1,2,0:0:0:0:
419,169,208707,2,0,P|403:230|357:274,1,127.500004863739,8|2,0:0|3:2,0:0:0:0:
281,316,208979,5,0,3:0:0:0:
275,298,209070,2,0,L|287:172,1,127.500004863739,0|2,1:0|0:0,0:0:0:0:
170,269,209434,1,8,0:0:0:0:
45,148,209616,1,2,3:2:0:0:
44,167,209707,1,0,3:0:0:0:
47,185,209797,2,0,P|106:204|168:191,1,127.500004863739,0|2,1:0|0:0,0:0:0:0:
306,82,210161,1,8,0:0:0:0:
437,196,210343,1,2,3:2:0:0:
437,215,210434,1,0,3:0:0:0:
437,234,210525,6,0,L|311:252,1,127.500004863739,6|2,1:2|0:0,0:0:0:0:
174,170,210888,1,8,0:0:0:0:
124,336,211070,1,2,0:0:0:0:
311,252,211252,2,0,L|437:234,1,127.500004863739,0|2,1:0|0:0,0:0:0:0:
492,89,211616,2,0,P|517:146|513:209,1,127.500004863739,8|2,0:0|0:0,0:0:0:0:
253,384,211979,6,0,P|228:327|232:264,1,127.500004863739,6|2,1:2|0:0,0:0:0:0:
474,95,212343,1,8,0:0:0:0:
389,276,212525,1,2,0:0:0:0:
333,29,212707,2,0,P|273:46|228:90,1,127.500004863739,6|2,1:1|3:2,0:0:0:0:
210,64,212979,1,0,3:0:0:0:
189,40,213070,1,8,3:2:0:0:
162,23,213161,1,0,3:0:0:0:
130,15,213253,1,2,3:2:0:0:
98,13,213344,1,0,3:0:0:0:
64,21,213434,6,0,P|47:91|69:159,1,144.500002756119,6|2,1:2|0:0,0:0:0:0:
264,30,213797,2,0,P|281:100|259:168,1,144.500002756119,8|2,0:0|0:0,0:0:0:0:
17,109,214161,2,0,P|37:178|90:226,1,144.500002756119,6|2,1:1|0:0,0:0:0:0:
311,121,214525,2,0,P|286:188|230:233,1,144.500002756119,8|2,0:0|0:0,0:0:0:0:
1,90,214888,6,0,P|49:37|117:17,1,144.500002756119,6|2,1:2|0:0,0:0:0:0:
325,101,215252,2,0,P|282:43|217:16,1,144.500002756119,8|2,0:0|0:0,0:0:0:0:
90,138,215615,5,6,1:1:0:0:
263,171,215797,1,2,0:0:0:0:
160,234,215979,5,8,0:0:0:0:
333,201,216161,1,2,0:0:0:0:
448,21,216343,6,0,P|465:91|443:159,1,144.500002756119,6|2,1:2|0:0,0:0:0:0:
248,30,216706,2,0,P|231:100|253:168,1,144.500002756119,8|2,0:0|0:0,0:0:0:0:
495,109,217070,2,0,P|475:178|422:226,1,144.500002756119,6|2,1:1|0:0,0:0:0:0:
201,121,217434,2,0,P|226:188|282:233,1,144.500002756119,8|2,0:0|0:0,0:0:0:0:
508,103,217797,6,0,P|438:86|386:37,1,144.500002756119,6|2,1:2|0:0,0:0:0:0:
171,51,218161,2,0,P|242:52|305:19,1,144.500002756119,8|2,0:0|0:0,0:0:0:0:
350,147,218525,5,6,1:1:0:0:
346,168,218615,1,0,3:0:0:0:
343,189,218706,1,2,3:2:0:0:
151,157,218888,5,8,0:0:0:0:
291,99,219070,1,2,0:0:0:0:
71,21,219252,6,0,P|52:102|83:180,1,170,6|2,1:2|0:0,0:0:0:0:
326,32,219615,2,0,P|345:113|314:191,1,170,8|2,0:0|0:0,0:0:0:0:
22,109,219979,2,0,P|48:187|116:237,1,170,6|2,1:1|0:0,0:0:0:0:
377,123,220343,2,0,P|343:199|271:242,1,170,8|2,0:0|0:0,0:0:0:0:
0,89,220706,6,0,P|54:27|136:7,1,170,6|2,1:2|0:0,0:0:0:0:
405,106,221070,2,0,P|354:38|274:12,1,170,8|2,0:0|0:0,0:0:0:0:
194,252,221434,5,6,1:1:0:0:
230,251,221525,1,0,3:0:0:0:
262,233,221616,1,2,3:2:0:0:
282,204,221707,1,0,3:0:0:0:
287,169,221798,1,8,3:2:0:0:
275,135,221889,1,0,3:0:0:0:
249,111,221980,1,2,3:2:0:0:
214,100,222071,1,0,3:0:0:0:
169,111,222161,5,6,1:3:0:0:
457,20,223615,6,0,P|475:81|461:143,1,127.500004863739,6|2,1:2|0:0,0:0:0:0:
308,86,223979,2,0,P|290:147|304:209,1,127.500004863739,8|2,0:0|0:0,0:0:0:0:
361,260,224252,1,8,0:0:0:0:
372,276,224343,2,0,P|311:258|249:272,1,127.500004863739,0|2,1:0|0:0,0:0:0:0:
140,336,224706,1,8,0:0:0:0:
36,260,224888,1,2,0:0:0:0:
206,185,225070,5,0,1:0:0:0:
41,124,225252,1,2,1:2:0:0:
141,267,225434,2,0,P|202:285|264:271,1,127.500004863739,8|2,0:0|0:0,0:0:0:0:
326,227,225706,1,8,0:0:0:0:
342,218,225797,2,0,P|403:204|464:222,1,127.500004863739,0|2,1:0|0:0,0:0:0:0:
349,315,226161,1,8,0:0:0:0:
276,146,226343,1,2,0:0:0:0:
112,248,226525,5,0,1:0:0:0:
307,217,226706,1,2,1:2:0:0:
168,312,226888,1,8,0:0:0:0:
302,378,227070,1,2,0:0:0:0:
311,361,227161,1,8,0:0:0:0:
321,344,227252,2,0,L|307:217,1,127.500004863739,0|2,1:0|0:0,0:0:0:0:
443,254,227615,2,0,L|457:127,1,127.500004863739,8|2,0:0|0:0,0:0:0:0:
425,59,227888,5,0,0:0:0:0:
407,51,227979,1,0,1:0:0:0:
245,83,228161,1,2,1:2:0:0:
370,179,228343,5,8,0:0:0:0:
208,147,228525,1,2,0:0:0:0:
206,165,228615,1,8,0:0:0:0:
204,184,228706,1,0,1:0:0:0:
326,250,228888,5,10,0:0:0:0:
164,282,229070,1,8,1:2:0:0:
39,174,229252,1,2,0:0:0:0:
235,19,229434,6,0,P|271:94|267:178,1,170,6|2,1:2|1:2,0:0:0:0:
69,49,229797,2,0,P|64:133|100:208,1,170,14|2,0:0|0:0,0:0:0:0:
160,260,230070,1,8,0:0:0:0:
182,272,230161,2,0,L|351:258,1,170,6|2,1:1|0:0,0:0:0:0:
507,140,230525,1,14,2:1:0:0:
351,168,230706,1,2,0:0:0:0:
277,19,230888,6,0,P|241:94|245:178,1,170,6|2,1:2|1:2,0:0:0:0:
443,49,231252,2,0,P|448:133|412:208,1,170,14|2,0:0|0:0,0:0:0:0:
352,260,231524,1,8,0:0:0:0:
330,272,231615,2,0,L|161:258,1,170,6|2,1:1|0:0,0:0:0:0:
17,111,231979,1,14,2:1:0:0:
139,180,232161,1,2,0:0:0:0:
235,19,232343,6,0,P|271:94|267:178,1,170,6|2,1:2|1:2,0:0:0:0:
69,49,232706,2,0,P|64:133|100:208,1,170,14|2,0:0|0:0,0:0:0:0:
313,256,233070,5,6,1:1:0:0:
199,142,233252,1,2,3:2:0:0:
177,143,233343,1,0,3:0:0:0:
156,149,233434,1,10,0:1:0:0:
31,375,233615,5,4,0:1:0:0:
