osu file format v14

[General]
AudioFilename: audio.mp3
AudioLeadIn: 0
PreviewTime: 45752
Countdown: 0
SampleSet: Soft
StackLeniency: 0.7
Mode: 0
LetterboxInBreaks: 0
WidescreenStoryboard: 1

[Editor]
DistanceSpacing: 0.9
BeatDivisor: 2
GridSize: 32
TimelineZoom: 1.2

[Metadata]
Title:Minikui Ikimono (TV Size)
TitleUnicode:醜い生き物 (TV Size)
Artist:CHiCO with HoneyWorks
ArtistUnicode:CHiCO with HoneyWorks
Creator:sanairrt
Version:Chihara's Normal
Source:裏世界ピクニック
Tags:Otherside Picnic Urasekai Picnic op opening japanese anime j-pop jpop pop frozz Fzl_17 eclipselotus chihara minori time capsule Erisu Mayuzumi Fuyuko image-- meg
BeatmapID:2781165
BeatmapSetID:1342646

[Difficulty]
HPDrainRate:4
CircleSize:3.2
OverallDifficulty:5
ApproachRate:5
SliderMultiplier:1.2
SliderTickRate:1

[Events]
//Background and Video events
0,0,"wa.jpg",0,0
Video,30,"UrasekaiPicnic.mp4"
//Break Periods
//Storyboard Layer 0 (Background)
//Storyboard Layer 1 (Fail)
//Storyboard Layer 2 (Pass)
//Storyboard Layer 3 (Foreground)
//Storyboard Layer 4 (Overlay)
//Storyboard Sound Samples

[TimingPoints]
291,307.692307692308,4,2,17,60,1,0
291,-111.111111111111,4,2,17,40,0,0
906,-111.111111111111,4,2,17,40,0,0
1521,-111.111111111111,4,2,17,40,0,0
2444,-111.111111111111,4,2,17,40,0,0
2752,-111.111111111111,4,2,17,40,0,0
3367,-111.111111111111,4,2,17,40,0,0
3983,-111.111111111111,4,2,17,40,0,0
4905,-111.111111111111,4,2,17,40,0,0
5214,-111.111111111111,4,2,17,60,0,0
12598,-111.111111111111,4,2,17,60,0,0
15060,-125,4,2,17,50,0,0
24906,-125,4,2,17,60,0,0
34752,-125,4,2,17,60,0,0
47060,-111.111111111111,4,2,17,80,0,1
55675,-111.111111111111,4,2,17,60,0,0
56906,-111.111111111111,4,2,17,80,0,1
66752,-125,4,2,17,60,0,0
76598,-111.111111111111,4,2,17,70,0,0
86444,-111.111111111111,4,2,17,60,0,0
87829,-111.111111111111,4,2,17,20,0,0

[Colours]
Combo1 : 148,148,148
Combo2 : 128,255,255
Combo3 : 255,191,128
Combo4 : 128,128,255

[HitObjects]
33,151,291,6,0,P|29:124|23:97,2,53.9999983520508,2|2|2,0:0|0:0|0:0,0:0:0:0:
20,192,752,1,2,0:0:0:0:
186,330,1521,2,0,P|191:356|194:383,2,53.9999983520508,2|2|2,0:0|0:0|0:0,0:0:0:0:
222,306,1983,2,0,P|276:312|329:321,1,107.999996704102,2|2,0:0|0:0,0:0:0:0:
458,312,2752,6,0,L|511:303,2,53.9999983520508,2|2|2,0:0|0:0|0:0,0:0:0:0:
423,286,3214,1,2,0:0:0:0:
400,71,3983,2,0,L|409:18,2,53.9999983520508,2|2|2,0:0|0:0|0:0,0:0:0:0:
361,90,4444,2,0,P|310:102|268:69,1,107.999996704102,2|2,0:0|0:0,0:0:0:0:
141,43,5214,6,0,P|90:31|49:63,1,107.999996704102,6|2,3:2|3:2,0:0:0:0:
7,139,5829,1,0,3:2:0:0:
59,207,6137,1,0,3:2:0:0:
28,287,6444,2,0,L|135:304,1,107.999996704102,4|2,3:2|3:2,0:0:0:0:
160,339,6906,2,0,L|267:322,1,107.999996704102,10|10,0:3|0:3,0:0:0:0:
304,343,7367,1,0,3:0:0:0:
365,282,7675,6,0,P|371:228|380:175,1,107.999996704102,4|2,3:2|3:2,0:0:0:0:
422,99,8291,1,0,3:2:0:0:
367,32,8598,1,0,3:2:0:0:
298,85,8906,2,0,P|247:96|206:64,1,107.999996704102,4|2,3:2|3:2,0:0:0:0:
163,55,9367,2,0,P|153:108|148:161,1,107.999996704102,2|10,0:0|0:3,0:0:0:0:
116,191,9829,1,8,3:3:0:0:
178,250,10137,6,0,P|231:255|284:264,1,107.999996704102,4|2,3:2|3:2,0:0:0:0:
318,236,10598,1,10,0:0:0:0:
402,265,10906,2,0,P|407:291|411:318,2,53.9999983520508,10|0|10,0:0|3:2|0:0,0:0:0:0:
436,239,11367,2,0,L|451:132,1,107.999996704102,4|2,3:2|3:2,0:0:0:0:
475,96,11829,2,0,P|422:91|369:82,1,107.999996704102,10|10,0:3|0:3,0:0:0:0:
339,49,12291,1,0,3:0:0:0:
256,192,12598,12,0,14444,0:0:0:0:
260,92,15060,6,0,P|219:68|172:74,1,96,6|0,3:2|3:2,0:0:0:0:
100,26,15675,1,0,3:2:0:0:
33,81,15983,1,2,3:2:0:0:
53,164,16291,2,0,P|59:211|65:259,1,96,2|2,3:2|3:2,0:0:0:0:
57,301,16752,2,0,B|97:290|126:310|126:310|157:335|202:326,1,144,10|2,0:0|3:2,0:0:0:0:
270,366,17521,6,0,L|365:353,1,96,2|2,3:2|3:2,0:0:0:0:
451,361,18137,2,0,P|474:320|468:273,1,96,0|0,3:2|3:2,0:0:0:0:
434,193,18752,2,0,L|442:138,2,48,0|8|2,3:2|0:0|3:2,0:0:0:0:
397,216,19214,2,0,L|301:203,1,96,8|0,0:0|0:0,0:0:0:0:
264,225,19675,1,2,3:2:0:0:
193,174,19983,6,0,P|175:130|196:80,1,96,2|0,3:2|3:2,0:0:0:0:
207,46,20444,2,0,B|247:35|276:55|276:55|307:80|352:71,1,144,2|0,0:0|3:2,0:0:0:0:
379,48,21060,2,0,P|423:40|440:38,1,48,2|0,0:0|3:2,0:0:0:0:
502,85,21521,1,0,3:2:0:0:
440,145,21829,2,0,L|433:192,1,48,2|8,3:2|0:0,0:0:0:0:
450,232,22137,1,0,3:2:0:0:
387,290,22444,6,0,P|341:304|307:337,1,96,2|0,0:3|3:2,0:0:0:0:
269,358,22906,2,0,L|173:345,1,96,10|2,0:0|0:0,0:0:0:0:
88,358,23521,1,2,0:0:0:0:
88,358,23675,2,0,P|82:310|75:262,1,96,2|2,0:3|0:3,0:0:0:0:
47,180,24291,2,0,L|0:186,2,48,8|8|8,0:0|0:0|0:0,0:0:0:0:
105,116,24906,6,0,P|145:139|192:133,1,96,6|10,3:2|0:0,0:0:0:0:
233,120,25367,1,0,0:0:0:0:
233,120,25521,2,0,P|246:73|261:28,1,96,2|10,3:2|0:0,0:0:0:0:
346,44,26137,2,0,P|361:89|374:135,1,96,2|10,3:2|0:0,0:0:0:0:
391,175,26598,1,0,0:0:0:0:
391,175,26752,2,0,P|367:216|374:262,1,96,2|10,3:2|0:0,0:0:0:0:
344,343,27367,6,0,B|304:332|275:352|275:352|244:377|199:368,1,144,2|2,3:2|0:0,0:0:0:0:
121,379,28137,1,2,0:0:0:0:
41,345,28444,2,0,P|35:273|27:201,1,144,2|12,0:0|0:2,0:0:0:0:
30,114,29214,6,0,L|77:121,1,48,2|0,3:2|3:2,0:0:0:0:
107,152,29521,2,0,L|154:145,1,48,2|8,3:2|0:0,0:0:0:0:
197,140,29829,2,0,P|245:189|313:174,1,144,6|2,3:2|0:0,0:0:0:0:
392,209,30598,1,2,0:0:0:0:
463,160,30906,1,2,0:0:0:0:
463,160,31060,2,0,P|468:112|476:64,1,96,0|10,3:2|0:0,0:0:0:0:
413,5,31675,6,0,L|317:18,1,96,0|10,3:2|0:0,0:0:0:0:
243,61,32291,2,0,L|147:48,1,96,0|10,3:2|0:0,0:0:0:0:
105,37,32752,2,0,P|97:84|91:132,1,96,2|2,0:0|0:0,0:0:0:0:
58,159,33214,1,10,0:0:0:0:
112,225,33521,2,0,L|159:218,2,48,2|8|0,3:2|0:0|3:2,0:0:0:0:
64,297,34137,2,0,L|17:290,2,48,10|8|4,0:3|0:3|0:3,0:0:0:0:
138,340,34752,6,0,B|174:344|207:332|207:332|254:350|254:350|288:333|346:336,1,192,6|0,3:2|0:0,0:0:0:0:
405,367,35675,1,10,0:0:0:0:
460,300,35983,2,0,P|457:276|452:252,1,48,2|0,3:2|3:2,0:0:0:0:
483,171,36444,2,0,P|436:164|395:187,1,96,10|0,0:0|3:2,0:0:0:0:
367,220,36906,1,0,3:2:0:0:
283,241,37214,6,0,B|272:201|292:172|292:172|317:141|308:96,1,144,6|10,3:2|0:0,0:0:0:0:
262,31,37983,2,0,P|238:26|214:23,1,48,2|10,3:2|0:0,0:0:0:0:
143,72,38444,2,0,P|96:78|55:55,1,96,2|2,3:2|0:0,0:0:0:0:
21,82,38906,2,0,P|13:129|7:177,1,96,10|0,0:0|3:2,0:0:0:0:
3,220,39367,1,0,3:2:0:0:
52,290,39675,6,0,B|99:301|136:336|136:336|177:305|243:304,1,192,6|0,3:2|0:0,0:0:0:0:
283,241,40598,1,10,0:0:0:0:
354,289,40906,2,0,P|358:312|361:336,1,48,2|0,3:2|3:2,0:0:0:0:
445,353,41367,2,0,P|451:281|459:209,1,144,10|0,0:0|3:2,0:0:0:0:
489,128,42137,6,0,P|442:121|401:144,1,96,6|2,3:2|0:0,0:0:0:0:
371,175,42598,2,0,P|324:181|283:158,1,96,10|2,0:0|3:2,0:0:0:0:
254,125,43060,1,10,0:0:0:0:
175,161,43367,2,0,P|170:184|167:208,2,48,8|8|0,0:0|3:2|3:2,0:0:0:0:
124,90,43983,2,0,P|121:66|116:42,2,48,0|0|2,3:2|3:2|3:2,0:0:0:0:
54,141,44598,6,0,P|62:188|68:236,1,96,4|14,3:2|0:2,0:0:0:0:
49,320,45214,1,14,0:2:0:0:
120,368,45521,1,10,0:0:0:0:
188,315,45829,2,0,P|211:317|235:322,1,48,6|2,3:2|0:0,0:0:0:0:
263,355,46137,2,0,P|304:331|351:337,1,96,2|2,0:0|0:0,0:0:0:0:
429,374,46752,1,2,0:0:0:0:
470,297,47060,6,0,P|476:243|485:190,1,107.999996704102,6|10,3:2|0:0,0:0:0:0:
484,146,47521,2,0,P|442:113|391:125,1,107.999996704102,2|2,0:0|3:2,0:0:0:0:
323,72,48137,2,0,P|281:104|230:92,1,107.999996704102,2|0,0:0|3:2,0:0:0:0:
188,97,48598,2,0,L|134:87,1,53.9999983520508,10|0,0:0|0:0,0:0:0:0:
93,73,48906,2,0,P|83:126|78:179,1,107.999996704102,2|10,3:2|0:0,0:0:0:0:
31,252,49521,5,2,3:2:0:0:
84,320,49829,1,10,0:0:0:0:
161,281,50137,1,2,3:2:0:0:
242,310,50444,2,0,B|288:299|321:331|321:331|349:363|402:350,1,161.999995056153,10|0,0:0|3:2,0:0:0:0:
429,331,51060,1,8,0:0:0:0:
488,268,51367,6,0,P|491:241|497:214,1,53.9999983520508,2|0,3:2|3:2,0:0:0:0:
479,174,51675,1,10,0:0:0:0:
479,174,51829,2,0,P|428:186|386:153,1,107.999996704102,2|2,3:2|0:0,0:0:0:0:
360,118,52291,1,8,0:0:0:0:
314,44,52598,2,0,P|287:47|260:53,1,53.9999983520508,2|0,3:2|3:2,0:0:0:0:
226,80,52906,1,10,0:0:0:0:
226,80,53060,2,0,L|119:63,1,107.999996704102,2|2,0:0|3:2,0:0:0:0:
84,37,53521,1,8,0:0:0:0:
21,96,53829,6,0,P|-11:137|0:188,1,107.999996704102,2|10,3:2|0:0,0:0:0:0:
45,261,54444,2,0,L|98:251,1,53.9999983520508,2|0,3:2|0:0,0:0:0:0:
138,236,54752,2,0,L|191:245,1,53.9999983520508,14|0,0:2|0:0,0:0:0:0:
228,267,55060,2,0,P|260:225|249:174,1,107.999996704102,2|14,3:2|0:2,0:0:0:0:
236,89,55675,2,0,B|282:78|315:110|315:110|343:142|396:129,1,161.999995056153,14|12,0:0|0:2,0:0:0:0:
470,125,56444,2,0,P|476:151|480:178,1,53.9999983520508,0|8,3:2|0:0,0:0:0:0:
501,261,56906,6,0,L|394:278,1,107.999996704102,6|10,3:2|0:0,0:0:0:0:
369,313,57367,2,0,P|327:280|276:292,1,107.999996704102,2|2,0:0|3:2,0:0:0:0:
233,286,57829,1,8,0:0:0:0:
176,351,58137,2,0,L|123:361,1,53.9999983520508,2|0,3:2|0:0,0:0:0:0:
79,355,58444,2,0,L|26:344,1,53.9999983520508,10|0,0:0|0:0,0:0:0:0:
6,305,58752,2,0,P|10:251|20:198,1,107.999996704102,2|10,3:2|0:0,0:0:0:0:
5,113,59367,5,2,3:2:0:0:
67,52,59675,1,10,0:0:0:0:
130,110,59983,2,0,P|136:136|140:162,2,53.9999983520508,2|0|10,3:2|3:2|0:0,0:0:0:0:
181,40,60598,2,0,B|227:29|260:61|260:61|288:93|341:80,1,161.999995056153,2|0,3:2|3:2,0:0:0:0:
364,107,61214,2,0,L|416:96,1,53.9999983520508,2|2,3:2|3:2,0:0:0:0:
460,94,61521,1,10,0:0:0:0:
474,179,61829,6,0,P|464:232|459:285,1,107.999996704102,4|8,3:2|0:0,0:0:0:0:
434,321,62291,1,10,0:0:0:0:
434,321,62444,2,0,P|393:353|342:342,1,107.999996704102,2|10,3:2|0:0,0:0:0:0:
256,340,63060,2,0,P|215:307|164:318,1,107.999996704102,0|8,3:2|0:0,0:0:0:0:
126,339,63521,1,2,0:0:0:0:
126,339,63675,2,0,P|120:285|110:232,1,107.999996704102,0|10,3:2|0:0,0:0:0:0:
43,177,64291,5,6,3:2:0:0:
20,93,64598,1,10,0:2:0:0:
81,31,64906,2,0,L|188:48,1,107.999996704102,10|10,0:0|0:2,0:0:0:0:
257,99,65521,2,0,P|263:125|267:151,2,53.9999983520508,10|0|0,0:0|3:2|3:2,0:0:0:0:
287,68,65983,2,0,P|327:100|378:89,1,107.999996704102,8|0,0:0|3:2,0:0:0:0:
416,67,66444,1,2,3:2:0:0:
480,124,66752,6,0,P|472:195|466:267,1,144,6|2,3:2|0:0,0:0:0:0:
483,306,67367,1,2,3:2:0:0:
417,362,67675,1,0,3:2:0:0:
346,312,67983,2,0,P|304:288|257:294,1,96,14|2,0:0|3:2,0:0:0:0:
230,328,68444,2,0,P|188:351|141:345,1,96,8|2,0:3|3:2,0:0:0:0:
101,329,68906,1,2,3:2:0:0:
17,353,69214,6,0,B|6:313|26:284|26:284|51:253|42:208,1,144,6|2,3:2|0:0,0:0:0:0:
25,176,69829,1,2,3:2:0:0:
91,120,70137,1,0,3:2:0:0:
153,179,70444,2,0,L|200:172,1,48,2|12,3:2|0:0,0:0:0:0:
236,196,70752,1,14,0:0:0:0:
298,136,71060,2,0,L|291:89,2,48,10|8|0,0:0|0:0|3:2,0:0:0:0:
364,190,71675,6,0,P|356:237|350:285,1,96,6|0,3:2|3:2,0:0:0:0:
336,326,72137,1,10,0:3:0:0:
336,326,72291,2,0,P|289:320|247:343,1,96,2|0,3:2|3:2,0:0:0:0:
164,363,72906,2,0,P|116:368|69:376,1,96,6|2,3:2|3:2,0:0:0:0:
7,315,73521,2,0,L|0:268,1,48,2|2,3:2|3:2,0:0:0:0:
8,224,73829,1,2,3:2:0:0:
256,192,74137,12,2,75367,0:0:0:0:
48,154,76598,6,0,P|57:207|62:260,1,107.999996704102,6|8,3:2|0:0,0:0:0:0:
46,301,77060,1,0,3:2:0:0:
46,301,77214,2,0,P|86:333|137:322,1,107.999996704102,0|8,3:2|0:0,0:0:0:0:
217,286,77829,1,0,3:2:0:0:
285,338,78137,1,10,0:0:0:0:
351,283,78444,2,0,L|404:291,1,53.9999983520508,2|0,3:2|3:2,0:0:0:0:
445,276,78752,1,10,0:0:0:0:
498,208,79060,6,0,P|493:154|484:101,1,107.999996704102,2|8,3:2|0:0,0:0:0:0:
434,30,79675,2,0,P|382:19|342:52,1,107.999996704102,0|8,3:2|0:0,0:0:0:0:
308,79,80137,1,0,0:0:0:0:
308,79,80291,2,0,P|256:90|215:58,1,107.999996704102,0|8,3:2|0:0,0:0:0:0:
135,26,80906,2,0,L|81:34,1,53.9999983520508,2|2,3:2|3:2,0:0:0:0:
45,58,81214,1,10,0:0:0:0:
15,139,81521,5,4,3:2:0:0:
64,209,81829,1,10,0:0:0:0:
55,295,82137,2,0,P|28:298|1:304,2,53.9999983520508,0|0|8,3:2|3:2|0:0,0:0:0:0:
139,314,82752,2,0,P|165:316|192:322,1,53.9999983520508,0|0,3:2|3:2,0:0:0:0:
231,304,83060,1,8,0:0:0:0:
231,304,83214,2,0,B|277:293|310:325|310:325|338:357|391:344,1,161.999995056153,0|8,3:2|0:0,0:0:0:0:
458,310,83983,6,0,P|463:336|466:363,2,53.9999983520508,12|0|12,0:0|3:2|0:0,0:0:0:0:
479,272,84444,1,0,3:2:0:0:
479,272,84598,2,0,P|484:218|493:165,1,107.999996704102,12|12,0:0|0:0,0:0:0:0:
474,80,85214,2,0,L|420:88,1,53.9999983520508,4|0,3:2|3:2,0:0:0:0:
388,116,85521,2,0,L|334:107,1,53.9999983520508,0|0,3:2|3:2,0:0:0:0:
294,125,85829,2,0,P|253:93|202:104,1,107.999996704102,0|8,3:2|0:3,0:0:0:0:
132,156,86444,1,4,3:2:0:0:
256,192,86598,12,0,87829,0:0:0:0:
