osu file format v14

[General]
AudioFilename: audio.mp3
AudioLeadIn: 0
PreviewTime: 56906
Countdown: 0
SampleSet: Soft
StackLeniency: 0.7
Mode: 0
LetterboxInBreaks: 0
WidescreenStoryboard: 1

[Editor]
DistanceSpacing: 1
BeatDivisor: 4
GridSize: 4
TimelineZoom: 2.4

[Metadata]
Title:Minikui Ikimono (TV Size)
TitleUnicode:醜い生き物 (TV Size)
Artist:CHiCO with HoneyWorks
ArtistUnicode:CHiCO with HoneyWorks
Creator:Aerous
Version:Normal
Source:裏世界ピクニック
Tags:Otherside Picnic Urasekai op opening japanese anime pop j-pop jpop oninomori 鬼ノ森 13th シングル single gom ゴム shito 使徒 yamako ヤマコ 城山綾子
BeatmapID:2831530
BeatmapSetID:1369259

[Difficulty]
HPDrainRate:4
CircleSize:3
OverallDifficulty:4
ApproachRate:5.5
SliderMultiplier:1.2
SliderTickRate:1

[Events]
//Background and Video events
0,0,"ni6ublmdgj961 (1).jpg",0,0
Video,0,"UrasekaiPicnic.mp4"
//Break Periods
//Storyboard Layer 0 (Background)
//Storyboard Layer 1 (Fail)
//Storyboard Layer 2 (Pass)
//Storyboard Layer 3 (Foreground)
//Storyboard Layer 4 (Overlay)
//Storyboard Sound Samples

[TimingPoints]
357,307.692307692308,4,2,17,40,1,0
5280,-100,4,2,17,60,0,0
15126,-100,4,2,17,50,0,0
24972,-100,4,2,17,60,0,0
47126,-100,4,2,17,80,0,1
55741,-100,4,2,17,60,0,1
56972,-100,4,2,17,80,0,1
66818,-100,4,2,17,60,0,0
75433,-100,4,2,17,40,0,0
76664,-100,4,2,17,70,0,0
86510,-100,4,2,17,60,0,0
87894,-100,4,2,17,20,0,0

[Colours]
Combo1 : 255,221,231
Combo2 : 255,149,202
Combo3 : 129,208,252
Combo4 : 242,158,254

[HitObjects]
436,132,357,6,0,L|300:128,1,120,2|2,2:0|2:0,0:0:0:0:
260,112,818,1,2,2:0:0:0:
48,324,1587,6,0,L|184:320,1,120,2|2,2:0|2:0,0:0:0:0:
228,324,2049,2,0,P|296:340|352:316,1,120,2|2,2:0|2:0,0:0:0:0:
236,176,2818,6,0,B|234:115|234:115|212:60,1,120,2|2,2:0|2:0,0:0:0:0:
152,44,3280,1,2,2:0:0:0:
47,325,4049,6,0,L|183:321,1,120,2|2,2:0|2:0,0:0:0:0:
222,298,4510,2,0,P|290:314|346:290,1,120,2|2,2:0|2:0,0:0:0:0:
264,120,5280,6,0,P|205:105|136:112,1,120,6|2,3:2|3:2,0:0:0:0:
36,68,5895,2,0,B|24:124|24:124|48:208,1,120,0|0,3:2|3:2,0:0:0:0:
96,292,6510,2,0,P|152:268|220:280,1,120,4|2,3:2|3:2,0:0:0:0:
260,308,6972,2,0,P|310:329|392:308,1,120,10|10,2:3|2:3,0:0:0:0:
428,296,7433,1,0,3:0:0:0:
384,184,7741,6,0,P|333:162|252:184,1,120,4|2,3:2|3:2,0:0:0:0:
152,192,8357,2,0,P|157:120|204:75,1,120,0|0,3:2|3:2,0:0:0:0:
304,60,8972,2,0,B|372:48|372:48|436:64,1,120,4|2,3:2|3:2,0:0:0:0:
464,104,9433,2,0,P|440:148|464:224,1,120,2|10,2:0|2:3,0:0:0:0:
492,260,9895,1,8,3:0:0:0:
372,280,10203,6,0,P|319:285|248:256,1,120,4|2,3:2|3:2,0:0:0:0:
220,216,10664,1,10,2:0:0:0:
112,264,10972,2,0,P|107:290|102:331,2,60,10|0|10,2:0|3:2|2:0,0:0:0:0:
96,204,11433,2,0,P|77:147|96:76,1,120,4|2,3:2|3:2,0:0:0:0:
144,68,11895,2,0,P|220:48|288:52,1,120,10|10,2:3|2:3,0:0:0:0:
320,72,12357,1,0,3:0:0:0:
256,192,12664,12,0,14510,2:0:0:0:
361,305,15126,6,0,P|320:329|241:313,1,120,6|0,3:2|3:2,0:0:0:0:
139,364,15741,1,0,3:2:0:0:
31,309,16049,1,2,3:2:0:0:
109,220,16357,2,0,P|116:161|111:102,1,120,2|2,3:2|3:2,0:0:0:0:
79,49,16818,1,10,2:0:0:0:
79,49,16972,2,0,P|143:41|211:49,1,120,2|2,3:2|3:2,0:0:0:0:
315,71,17587,6,0,B|394:68|394:68|443:83,1,120,2|2,3:2|3:2,0:0:0:0:
462,133,18049,2,0,L|450:265,1,120,2|2,2:0|2:0,0:0:0:0:
413,366,18664,1,2,2:3:0:0:
413,366,18818,2,0,L|236:348,1,120,0|2,3:2|3:2,0:0:0:0:
233,357,19280,1,8,2:0:0:0:
233,357,19433,2,0,P|196:319|200:240,1,120,2|2,3:2|3:2,0:0:0:0:
259,154,20049,6,0,P|197:140|122:160,1,120,2|0,3:2|3:2,0:0:0:0:
108,199,20510,2,0,P|88:139|111:60,1,120,2|10,2:0|2:0,0:0:0:0:
207,36,21126,2,0,B|344:40,1,120,2|0,2:0|0:0,0:0:0:0:
387,39,21587,1,0,3:2:0:0:
485,108,21895,2,0,P|495:66|469:4,2,60,2|8|0,3:2|2:0|3:2,0:0:0:0:
440,219,22510,6,0,P|394:233|312:215,1,120,2|0,2:3|3:2,0:0:0:0:
268,244,22972,2,0,P|267:177|228:119,1,120,10|2,2:0|2:0,0:0:0:0:
130,85,23587,1,2,2:0:0:0:
130,85,23741,2,0,L|118:237,1,120,2|2,2:3|2:3,0:0:0:0:
108,324,24357,2,0,P|79:332|48:332,2,60,8|8|8,2:0|2:0|2:0,0:0:0:0:
228,320,24972,6,0,P|274:326|344:300,1,120,6|10,3:2|2:0,0:0:0:0:
401,294,25433,1,0,2:0:0:0:
401,294,25587,2,0,P|388:247|430:166,1,120,2|10,3:2|2:0,0:0:0:0:
407,61,26203,2,0,P|363:45|303:105,1,120,2|10,3:2|2:0,0:0:0:0:
253,110,26664,1,0,2:0:0:0:
253,110,26818,2,0,P|167:99|97:126,1,120,2|10,3:2|2:0,0:0:0:0:
39,177,27433,6,0,P|51:231|48:314,1,120,2|10,3:2|2:0,0:0:0:0:
32,353,27895,2,0,P|118:350|149:314,1,120,2|2,2:0|2:0,0:0:0:0:
190,220,28510,2,0,B|284:239|284:239|376:192,1,180,2|12,2:0|2:0,0:0:0:0:
421,97,29280,2,0,P|413:53|419:27,2,60,2|2|2,3:2|3:2|3:2,0:0:0:0:
476,204,29895,6,0,B|503:255|503:255|500:336,1,120,6|10,3:2|2:0,0:0:0:0:
447,346,30357,2,0,L|319:334,1,120,2|2,2:0|2:0,0:0:0:0:
268,344,30818,1,8,2:0:0:0:
147,340,31126,2,0,P|142:292|127:208,1,120,0|10,3:2|2:0,0:0:0:0:
227,151,31741,2,0,P|302:142|349:160,1,120,0|10,3:2|2:0,0:0:0:0:
438,229,32357,6,0,P|461:175|449:117,1,120,0|10,3:2|2:0,0:0:0:0:
418,65,32818,2,0,P|359:64|297:57,1,120,2|2,2:0|2:0,0:0:0:0:
241,37,33280,1,10,2:0:0:0:
121,48,33587,2,0,P|91:47|57:32,2,60,2|8|0,3:2|2:0|3:2,0:0:0:0:
145,168,34203,2,0,P|172:178|202:179,2,60,10|8|4,2:3|2:3|2:3,0:0:0:0:
64,264,34818,6,0,B|108:296|108:296|228:276,1,120,6|2,3:2|2:0,0:0:0:0:
228,264,35280,1,10,2:0:0:0:
328,332,35587,2,0,P|392:329|428:320,1,60,2|10,3:2|2:0,0:0:0:0:
444,220,36049,2,0,P|432:152|452:92,1,120,2|2,3:2|2:0,0:0:0:0:
476,52,36510,2,0,P|434:29|344:32,1,120,10|0,2:0|3:2,0:0:0:0:
304,40,36972,1,0,3:2:0:0:
212,116,37280,6,0,L|204:280,1,120,6|2,3:2|2:0,0:0:0:0:
204,296,37741,2,0,P|146:266|76:268,1,120,10|2,2:0|3:2,0:0:0:0:
48,304,38203,1,10,2:0:0:0:
44,184,38510,2,0,P|34:108|40:48,1,120,2|2,3:2|2:0,0:0:0:0:
96,60,38972,2,0,P|155:72|232:56,1,120,10|0,2:0|3:2,0:0:0:0:
272,64,39433,1,2,3:2:0:0:
383,18,39741,6,0,P|394:74|365:144,1,120,6|2,3:2|2:0,0:0:0:0:
348,186,40203,1,10,2:0:0:0:
247,251,40510,2,0,P|201:256|163:243,1,60,2|10,3:2|2:0,0:0:0:0:
93,178,40972,2,0,L|84:320,1,120,2|2,3:2|2:0,0:0:0:0:
100,355,41433,2,0,P|194:341|237:353,1,120,10|0,2:0|3:2,0:0:0:0:
275,361,41895,1,0,3:2:0:0:
379,301,42203,6,0,P|363:226|380:164,1,120,6|2,3:2|2:0,0:0:0:0:
375,124,42664,2,0,P|333:101|255:128,1,120,10|2,2:0|3:2,0:0:0:0:
212,88,43126,1,10,2:0:0:0:
102,135,43433,2,0,P|86:107|89:67,2,60,8|8|0,2:0|3:2|3:2,0:0:0:0:
75,252,44049,2,0,P|46:267|7:261,2,60,0|0|2,3:2|3:2|3:2,0:0:0:0:
192,227,44664,6,0,B|272:247|272:247|340:207,1,120,4|14,3:2|2:0,0:0:0:0:
395,149,45280,1,14,2:0:0:0:
397,268,45587,1,10,2:0:0:0:
301,341,45895,1,6,3:2:0:0:
48,324,47126,6,0,P|64:260|40:208,1,120,6|10,3:2|2:0,0:0:0:0:
28,152,47587,2,0,P|70:119|144:136,1,120,2|2,2:0|3:2,0:0:0:0:
174,240,48203,2,0,P|216:272|278:256,1,120,2|0,0:0|2:0,0:0:0:0:
337,250,48664,2,0,P|382:232|425:234,1,60,10|0,2:0|3:0,0:0:0:0:
442,265,48972,2,0,P|436:211|430:137,1,120,2|10,3:2|2:0,0:0:0:0:
377,37,49587,6,0,P|435:25|509:61,2,120,2|10|2,3:2|2:0|3:2,0:0:0:0:
256,36,50510,1,10,2:0:0:0:
152,96,50818,2,0,P|171:155|164:260,1,120,2|8,3:2|2:0,0:0:0:0:
120,320,51433,2,0,P|86:306|32:304,2,60,2|0|10,3:2|3:2|2:0,0:0:0:0:
180,328,51895,6,0,P|231:340|296:288,1,120,2|2,3:2|2:0,0:0:0:0:
344,292,52357,1,8,2:0:0:0:
416,196,52664,2,0,P|449:182|504:180,2,60,2|0|10,3:2|3:2|2:0,0:0:0:0:
360,176,53126,2,0,P|292:184|228:120,1,120,2|2,2:0|3:2,0:0:0:0:
196,128,53587,1,8,2:0:0:0:
92,68,53895,6,0,P|74:121|96:200,1,120,2|10,3:2|2:0,0:0:0:0:
137,290,54510,1,2,3:2:0:0:
253,261,54818,1,14,2:0:0:0:
340,340,55126,2,0,P|412:352|496:316,1,120,2|14,3:2|2:0,0:0:0:0:
436,224,55741,6,0,B|416:152|416:152|444:64,1,120,14|0,2:0|3:2,0:0:0:0:
475,69,56203,2,0,L|356:51,1,120,12|0,2:0|3:2,0:0:0:0:
297,62,56664,2,0,L|229:54,1,60,8|8,2:0|2:0,0:0:0:0:
180,34,56972,6,0,P|134:78|124:151,1,120,6|10,3:2|2:0,0:0:0:0:
92,183,57433,2,0,P|134:216|204:195,1,120,2|2,2:0|3:2,0:0:0:0:
308,243,58049,1,2,2:0:0:0:
308,243,58203,2,0,L|296:325,2,60,2|0|10,3:2|2:0|2:0,0:0:0:0:
426,225,58818,2,0,P|422:171|410:97,1,120,2|10,3:2|2:0,0:0:0:0:
321,27,59433,5,2,3:2:0:0:
204,56,59741,1,10,2:0:0:0:
88,84,60049,2,0,B|52:152|52:152|72:232,1,120,2|10,3:2|2:0,0:0:0:0:
52,312,60664,2,0,P|124:276|183:298,1,120,2|8,3:2|2:0,0:0:0:0:
211,314,61126,1,0,3:2:0:0:
264,287,61280,2,0,P|276:215|271:182,2,60,2|2|10,3:2|3:2|2:0,0:0:0:0:
305,330,61741,6,0,P|362:345|421:337,1,120,10|2,2:0|2:0,0:0:0:0:
480,323,62203,1,8,2:0:0:0:
472,203,62510,2,0,P|494:173|525:151,2,60,2|2|10,3:2|2:0|2:0,0:0:0:0:
412,214,62972,2,0,P|350:179|334:133,1,120,2|2,2:0|2:0,0:0:0:0:
345,76,63433,1,8,2:0:0:0:
243,12,63741,2,0,P|226:64|242:142,1,120,0|10,3:2|2:0,0:0:0:0:
157,219,64357,5,6,3:2:0:0:
133,336,64664,1,10,2:0:0:0:
250,354,64972,2,0,P|307:340|409:370,1,120,10|10,2:0|2:0,0:0:0:0:
478,303,65587,2,0,P|488:330|484:370,2,60,10|0|0,2:0|3:2|3:2,0:0:0:0:
455,247,66049,1,8,2:0:0:0:
461,187,66203,2,0,P|479:130|470:71,1,120,2|2,3:2|3:2,0:0:0:0:
350,69,66818,6,0,P|338:125|360:185,1,120,6|0,3:2|3:2,0:0:0:0:
262,253,67433,2,0,P|169:255|134:201,1,120,2|0,3:2|3:2,0:0:0:0:
184,124,68049,2,0,P|127:110|60:127,1,120,14|2,2:0|3:2,0:0:0:0:
21,160,68510,2,0,B|44:220|44:220|33:300,1,120,8|2,2:3|3:2,0:0:0:0:
36,336,68972,1,2,3:2:0:0:
152,312,69280,6,0,P|212:288|296:304,1,120,6|2,3:2|3:2,0:0:0:0:
360,364,69895,2,0,P|412:332|416:248,1,120,2|0,3:2|3:2,0:0:0:0:
460,164,70510,2,0,L|508:120,2,60,2|12|14,3:2|2:0|2:0,0:0:0:0:
359,96,71126,2,0,L|342:32,2,60,10|8|2,2:0|2:0|3:2,0:0:0:0:
312,208,71741,6,0,P|249:216|160:188,1,120,6|0,3:2|3:2,0:0:0:0:
136,220,72203,1,10,2:3:0:0:
136,220,72357,2,0,P|99:160|108:92,1,120,2|0,3:2|3:2,0:0:0:0:
192,36,72972,2,0,B|264:26|264:26|336:40,1,120,6|2,3:2|3:2,0:0:0:0:
372,136,73587,2,0,P|408:132|456:108,2,60,2|2|2,3:2|3:2|3:2,0:0:0:0:
256,192,74203,12,0,75433,2:0:0:0:
464,154,76664,6,0,P|455:207|468:292,1,120,6|8,3:2|2:0,0:0:0:0:
479,330,77126,1,0,2:0:0:0:
479,330,77280,2,0,P|423:331|331:325,1,120,0|8,3:2|2:0,0:0:0:0:
247,285,77895,2,0,L|95:277,1,120,0|10,3:2|2:0,0:0:0:0:
9,256,78510,2,0,P|4:282|14:325,2,60,2|0|10,3:2|3:2|2:0,0:0:0:0:
109,188,79126,6,0,P|164:110|172:72,1,120,2|8,3:2|2:0,0:0:0:0:
287,60,79741,2,0,P|339:49|407:94,1,120,0|8,3:2|2:0,0:0:0:0:
420,136,80203,1,0,2:0:0:0:
420,136,80357,2,0,P|431:226|416:272,1,120,0|8,3:2|2:0,0:0:0:0:
348,348,80972,2,0,P|377:346|407:358,2,60,2|2|10,3:2|3:2|2:0,0:0:0:0:
236,308,81587,6,0,L|92:292,1,120,4|10,3:2|2:0,0:0:0:0:
112,176,82203,2,0,P|82:174|52:186,2,60,0|0|8,3:2|3:2|2:0,0:0:0:0:
232,164,82818,2,0,P|296:172|388:128,1,120,0|8,3:2|2:0,0:0:0:0:
380,104,83280,2,0,P|464:132|464:248,1,180,0|8,3:2|2:0,0:0:0:0:
432,324,84049,6,0,P|465:338|512:348,2,60,12|0|12,2:0|3:2|2:0,0:0:0:0:
372,328,84510,1,0,3:2:0:0:
372,328,84664,2,0,P|308:319|220:324,1,120,12|12,2:0|2:0,0:0:0:0:
137,353,85280,2,0,P|126:324|125:289,1,60,4|0,3:2|3:2,0:0:0:0:
100,240,85587,2,0,P|110:211|112:176,1,60,0|0,3:2|3:2,0:0:0:0:
84,128,85895,2,0,P|112:75|181:88,1,120,0|8,3:2|2:3,0:0:0:0:
276,128,86510,6,0,B|221:119|177:151|197:247|272:252|308:320|308:320|352:264|415:255|464:140|392:116|340:132,1,540,4|0,3:2|2:0,0:0:0:0:
