osu file format v14

[General]
AudioFilename: audio.mp3
AudioLeadIn: 0
PreviewTime: 56906
Countdown: 0
SampleSet: Soft
StackLeniency: 0.7
Mode: 0
LetterboxInBreaks: 0
WidescreenStoryboard: 1

[Editor]
DistanceSpacing: 1.4
BeatDivisor: 4
GridSize: 4
TimelineZoom: 2.4

[Metadata]
Title:Minikui Ikimono (TV Size)
TitleUnicode:醜い生き物 (TV Size)
Artist:CHiCO with HoneyWorks
ArtistUnicode:CHiCO with HoneyWorks
Creator:Aerous
Version:Hard
Source:裏世界ピクニック
Tags:Otherside Picnic Urasekai op opening japanese anime pop j-pop jpop oninomori 鬼ノ森 13th シングル single gom ゴム shito 使徒 yamako ヤマコ 城山綾子
BeatmapID:2831528
BeatmapSetID:1369259

[Difficulty]
HPDrainRate:5
CircleSize:4
OverallDifficulty:6
ApproachRate:8
SliderMultiplier:1.4
SliderTickRate:1

[Events]
//Background and Video events
0,0,"ni6ublmdgj961 (1).jpg",0,0
Video,0,"UrasekaiPicnic.mp4"
//Break Periods
//Storyboard Layer 0 (Background)
//Storyboard Layer 1 (Fail)
//Storyboard Layer 2 (Pass)
//Storyboard Layer 3 (Foreground)
//Storyboard Layer 4 (Overlay)
//Storyboard Sound Samples

[TimingPoints]
357,307.692307692308,4,2,17,40,1,0
357,-133.333333333333,4,2,17,40,0,0
5280,-100,4,2,17,60,0,0
15126,-100,4,2,17,50,0,0
24972,-100,4,2,17,60,0,0
34818,-133.333333333333,4,2,17,60,0,0
44664,-100,4,2,17,60,0,0
47126,-100,4,2,17,80,0,1
55741,-100,4,2,17,60,0,1
56972,-100,4,2,17,80,0,1
66818,-100,4,2,17,60,0,0
74203,-181.818181818181,4,2,17,60,0,0
75433,-181.818181818181,4,2,17,40,0,0
76664,-100,4,2,17,70,0,0
86510,-133.333333333333,4,2,17,60,0,0
87894,-133.333333333333,4,2,17,20,0,0

[Colours]
Combo1 : 255,221,231
Combo2 : 255,149,202
Combo3 : 129,208,252
Combo4 : 242,158,254

[HitObjects]
405,233,357,6,0,L|423:165,1,52.5000000000001,2|2,2:0|2:0,2:0:0:0:
339,186,664,2,0,L|321:116,1,52.5000000000001,2|2,2:0|2:0,2:0:0:0:
99,142,1587,2,0,P|66:125|45:121,2,52.5000000000001,2|2|2,2:0|2:0|2:0,2:0:0:0:
142,81,2049,2,0,P|167:114|160:183,1,105,2|2,2:0|2:0,2:0:0:0:
303,314,2818,6,0,L|285:246,1,52.5000000000001,2|2,2:0|2:0,2:0:0:0:
369,267,3126,2,0,L|385:194,1,52.5000000000001,2|2,2:0|2:0,0:0:0:0:
344,93,4049,2,0,P|377:76|398:72,2,52.5000000000001,2|2|2,2:0|2:0|2:0,0:0:0:0:
301,32,4510,2,0,P|275:65|282:134,1,105,2|2,2:0|2:0,2:0:0:0:
129,218,5280,6,0,P|138:192|136:137,1,70,6|2,3:2|2:0,2:0:0:0:
54,199,5587,2,0,P|53:233|63:267,1,70,2|2,3:2|2:0,0:0:0:0:
128,331,5895,2,0,L|207:320,1,70,0|2,3:2|2:0,0:0:0:0:
288,316,6203,2,0,L|377:337,1,70,0|2,3:2|2:0,2:0:0:0:
368,226,6510,6,0,P|300:231|233:201,1,140,4|2,3:2|3:2,0:0:0:0:
216,113,6972,2,0,P|209:59|183:30,2,70,10|0|10,2:3|2:0|2:3,0:0:0:0:
125,102,7433,2,0,P|90:98|55:104,1,70,0|10,3:0|2:3,0:0:0:0:
40,148,7664,1,8,2:3:0:0:
40,148,7741,6,0,B|66:221|66:221|59:295,1,140,4|2,3:2|3:2,2:0:0:0:
131,351,8203,1,2,2:0:0:0:
131,351,8357,2,0,P|145:309|139:269,1,70,0|2,3:2|2:0,2:0:0:0:
158,186,8664,2,0,P|201:184|247:205,1,70,0|2,3:2|2:0,0:0:0:0:
306,272,8972,6,0,P|359:279|426:212,1,140,4|2,3:2|3:2,2:0:0:0:
412,131,9433,1,8,2:3:0:0:
321,119,9587,1,8,3:0:0:0:
321,119,9664,1,8,2:3:0:0:
321,119,9741,2,0,P|328:154|338:187,1,70,10|8,2:3|3:0,0:0:0:0:
432,138,10049,1,0,0:0:0:0:
349,48,10203,6,0,P|269:60|245:119,1,140,4|2,3:2|3:2,2:0:0:0:
223,196,10664,2,0,P|174:197|130:177,1,70,10|0,2:0|3:2,0:0:0:0:
121,276,10972,2,0,P|83:244|64:199,1,70,10|0,2:0|3:2,0:0:0:0:
19,301,11280,1,10,2:0:0:0:
19,301,11357,1,8,2:0:0:0:
19,301,11433,6,0,B|-3:233|-3:233|6:138,1,140,4|2,3:2|3:2,0:0:0:0:
0,74,11895,2,0,P|37:79|79:118,1,70,10|0,2:3|3:0,2:0:0:0:
162,98,12203,1,10,2:3:0:0:
162,98,12357,2,0,P|206:83|252:80,1,70,0|2,3:0|3:2,0:0:0:0:
331,141,12664,5,4,3:2:0:0:
256,192,12818,12,0,14510,2:0:0:0:
79,265,15126,6,0,P|89:308|194:324,1,140,6|0,3:2|3:2,2:0:0:0:
263,371,15587,1,2,2:0:0:0:
263,371,15741,2,0,P|268:317|260:292,1,70,0|2,3:2|2:0,2:0:0:0:
254,204,16049,2,0,P|268:156|301:132,1,70,2|2,3:2|2:0,2:0:0:0:
376,112,16357,5,2,3:2:0:0:
451,161,16510,2,0,B|406:215|406:215|315:189,1,140,2|10,2:0|2:0,0:0:0:0:
376,112,16972,2,0,L|377:37,1,70,2|2,3:2|2:0,0:0:0:0:
294,1,17280,2,0,L|294:70,1,70,2|2,3:2|2:3,2:0:0:0:
206,137,17587,6,0,P|151:84|93:107,1,140,2|2,3:2|3:2,2:0:0:0:
11,56,18049,2,0,B|10:155,1,70,2|0,2:0|0:0,2:0:0:0:
102,194,18357,2,0,P|121:186|144:179,2,35,2|0|0,2:0|2:0|3:2,0:0:0:0:
70,291,18664,1,2,2:3:0:0:
70,291,18741,1,0,2:0:0:0:
70,291,18818,6,0,L|149:290,1,70,0|8,3:2|2:0,2:0:0:0:
236,262,19126,1,2,3:2:0:0:
263,349,19280,1,8,2:0:0:0:
230,242,19433,2,0,P|221:187|231:151,1,70,2|0,3:2|2:0,2:0:0:0:
322,131,19741,2,0,P|324:165|315:199,1,70,2|8,3:2|2:0,2:0:0:0:
355,281,20049,6,0,P|401:290|477:221,1,140,2|0,3:2|3:2,2:0:0:0:
486,147,20510,2,0,P|448:147|406:164,1,70,2|0,2:0|3:2,2:0:0:0:
322,131,20818,2,0,P|288:141|253:141,1,70,10|0,2:0|3:2,2:0:0:0:
274,52,21126,1,2,2:0:0:0:
187,81,21280,6,0,P|165:118|210:228,1,140,0|0,3:2|3:2,2:0:0:0:
253,277,21741,1,8,2:0:0:0:
253,277,21895,2,0,P|259:325|244:353,2,70,2|8|0,3:2|2:0|3:2,3:2:0:0:
325,209,22357,1,0,2:0:0:0:
373,123,22510,6,0,P|422:170|415:244,1,140,2|0,2:3|3:2,2:0:0:0:
418,336,22972,2,0,P|384:326|355:307,1,70,10|0,2:0|0:0,2:0:0:0:
257,308,23280,2,0,P|221:318|182:310,2,70,2|0|2,2:0|3:2|2:0,0:0:0:0:
325,209,23741,6,0,B|246:222|246:222|163:199,1,140,2|2,2:3|2:3,2:0:0:0:
99,162,24203,2,0,L|86:106,2,35,10|8|8,2:0|2:0|2:0,0:0:0:0:
125,256,24510,1,8,2:0:0:0:
191,172,24664,2,0,L|193:98,1,70,8|8,2:0|2:0,0:0:0:0:
290,115,24972,6,0,P|340:111|372:92,2,70,6|0|10,3:2|2:0|2:0,2:0:0:0:
305,22,25433,1,0,2:0:0:0:
215,55,25587,2,0,P|165:51|133:32,2,70,2|0|10,3:2|2:0|2:0,2:0:0:0:
316,17,26049,1,0,2:0:0:0:
413,44,26203,6,0,P|445:78|463:129,1,70,2|0,3:2|2:0,0:0:0:0:
366,139,26510,2,0,P|358:170|351:222,1,70,10|0,2:0|2:0,2:0:0:0:
352,320,26818,1,2,3:2:0:0:
352,320,26972,2,0,P|293:297|197:320,1,140,0|0,2:0|2:0,0:0:0:0:
130,373,27433,6,0,P|97:326|136:239,1,140,2|10,3:2|2:0,2:0:0:0:
112,169,27895,2,0,P|74:181|49:232,1,70,2|0,2:0|3:2,2:0:0:0:
138,258,28203,2,0,L|222:247,1,70,2|8,2:0|2:0,2:0:0:0:
304,236,28510,6,0,B|287:179|287:179|308:92,1,140,2|0,2:0|2:0,0:0:0:0:
396,76,28972,2,0,L|388:163,1,70,12|0,2:0|0:0,2:0:0:0:
449,216,29280,1,2,3:2:0:0:
398,299,29433,1,2,3:2:0:0:
398,299,29510,1,0,3:2:0:0:
398,299,29587,2,0,L|390:387,1,70,2|8,3:2|2:0,0:0:0:0:
296,320,29895,6,0,B|192:328|192:328|200:288,1,140,6|10,3:2|2:0,2:0:0:0:
264,228,30357,2,0,P|280:176|272:144,1,70,2|0,2:0|3:2,0:0:0:0:
188,168,30664,2,0,P|173:136|173:101,1,70,2|8,2:0|2:0,2:0:0:0:
252,56,30972,1,2,2:0:0:0:
332,100,31126,6,0,P|429:79|484:88,1,140,0|10,3:2|2:0,2:0:0:0:
492,172,31587,1,0,2:0:0:0:
500,264,31741,2,0,L|484:344,2,70,0|0|10,3:2|2:0|2:0,2:0:0:0:
412,236,32203,1,0,2:0:0:0:
412,236,32357,6,0,P|377:274|288:252,1,140,0|10,3:2|2:0,0:0:0:0:
232,200,32818,1,2,2:0:0:0:
164,264,32972,2,0,P|117:264|76:252,1,70,0|2,3:2|2:0,0:0:0:0:
96,167,33280,2,0,P|130:160|165:162,1,70,10|8,2:0|2:0,0:0:0:0:
191,125,33510,1,8,2:0:0:0:
191,125,33587,6,0,P|234:117|276:126,1,70,2|8,3:2|2:0,2:0:0:0:
340,182,33895,2,0,P|335:147|342:106,1,70,0|2,3:2|2:0,0:0:0:0:
405,48,34203,1,10,2:3:0:0:
405,48,34357,1,8,2:3:0:0:
472,108,34510,1,4,2:3:0:0:
472,108,34664,1,4,2:3:0:0:
451,207,34818,6,0,B|437:258|437:258|441:326,1,105.000004005432,6|2,3:2|2:0,2:0:0:0:
360,328,35280,2,0,P|284:344|236:328,1,105,10|2,2:0|3:2,2:0:0:0:
180,344,35741,2,0,P|184:300|200:272,1,52.5000000000001,10|2,2:0|2:0,0:0:0:0:
252,244,36049,6,0,B|268:184|268:184|236:128,1,105,2|2,3:2|2:0,2:0:0:0:
304,100,36510,2,0,B|272:70|272:70|210:73,1,105,10|0,2:0|3:2,2:0:0:0:
126,76,36972,1,0,3:2:0:0:
148,248,37280,6,0,P|184:290|188:360,1,105,6|2,3:2|2:0,2:0:0:0:
268,340,37741,2,0,P|308:356|380:324,1,105,10|2,2:0|3:2,2:0:0:0:
428,291,38203,2,0,P|436:260|428:219,1,52.5000000000001,10|2,2:0|2:0,2:0:0:0:
458,139,38510,6,0,P|486:122|523:116,2,52.5000000000001,2|0|2,3:2|3:2|2:0,0:0:0:0:
362,128,38972,2,0,P|351:96|352:58,2,52.5000000000001,10|0|0,2:0|2:0|3:2,2:0:0:0:
340,216,39433,2,0,P|313:212|289:203,1,52.5000000000001,2|8,3:2|2:0,0:0:0:0:
252,204,39664,1,8,2:0:0:0:
252,204,39741,6,0,L|128:188,1,105,6|2,3:2|2:0,2:0:0:0:
100,132,40203,2,0,P|76:192|88:244,1,105,10|2,2:0|3:2,2:0:0:0:
60,304,40664,2,0,P|96:304|128:288,1,52.5000000000001,10|0,2:0|2:0,2:0:0:0:
189,322,40972,6,0,P|186:270|152:232,1,105,2|2,3:2|2:0,2:0:0:0:
176,156,41433,2,0,L|244:152,1,52.5000000000001,10|0,2:0|0:0,2:0:0:0:
299,107,41741,1,0,3:2:0:0:
306,190,41895,1,0,3:2:0:0:
469,258,42203,6,0,P|465:211|483:148,1,105,6|2,3:2|2:0,2:0:0:0:
464,84,42664,2,0,P|416:64|352:96,1,105,10|2,2:0|3:2,2:0:0:0:
288,88,43126,2,0,P|259:73|220:74,1,52.5000000000001,10|8,2:0|2:0,2:0:0:0:
204,88,43357,1,8,2:0:0:0:
204,88,43433,6,0,P|163:104|132:108,1,52.5000000000001,8|8,2:0|3:2,0:0:0:0:
74,112,43741,2,0,P|78:76|90:52,2,52.5000000000001,0|0|0,3:2|3:2|3:2,0:0:0:0:
53,201,44203,1,0,3:2:0:0:
53,201,44357,2,0,L|125:193,1,52.5000000000001,2|0,3:2|3:2,2:0:0:0:
176,272,44664,6,0,P|222:262|276:264,1,70,4|0,3:2|3:2,0:0:0:0:
276,168,44972,2,0,P|314:196|348:236,1,70,14|0,2:0|3:2,0:0:0:0:
420,172,45280,2,0,P|423:219|414:272,1,70,14|0,2:0|3:2,0:0:0:0:
400,336,45587,1,10,2:0:0:0:
400,336,45664,1,8,2:0:0:0:
400,336,45741,1,8,2:0:0:0:
331,264,45895,5,6,3:2:0:0:
412,248,47126,6,0,P|342:233|332:156,1,140,6|10,3:2|2:0,2:0:0:0:
388,92,47587,2,0,P|349:70|312:72,1,70,2|0,2:0|3:2,2:0:0:0:
244,140,47895,2,0,P|215:159|180:162,1,70,2|8,3:2|2:0,0:0:0:0:
138,72,48203,1,2,0:0:0:0:
60,160,48357,6,0,B|76:216|76:216|57:256|57:256|60:312,1,140,2|10,3:2|2:0,2:0:0:0:
125,355,48818,1,0,3:0:0:0:
205,312,48972,2,0,P|225:272|225:232,1,70,2|0,3:2|3:2,0:0:0:0:
185,165,49280,2,0,P|237:157|277:173,1,70,10|0,2:0|2:0,0:0:0:0:
291,185,49510,1,0,0:0:0:0:
291,185,49587,6,0,P|339:213|431:181,1,140,2|10,3:2|2:0,2:0:0:0:
496,86,50049,1,0,2:0:0:0:
498,177,50203,2,0,L|498:269,1,70,2|0,3:2|3:2,2:0:0:0:
481,336,50510,2,0,P|435:340|389:320,1,70,10|0,2:0|2:0,2:0:0:0:
332,276,50818,5,2,3:2:0:0:
248,340,50972,1,0,3:2:0:0:
256,236,51126,2,0,L|252:144,1,70,8|0,2:0|2:0,2:0:0:0:
188,92,51433,2,0,P|240:64|264:64,2,70,2|0|10,3:2|3:2|2:0,0:0:0:0:
136,176,51895,1,2,3:2:0:0:
68,244,52049,6,0,P|40:184|64:116,1,140,4|8,3:2|2:0,2:0:0:0:
136,176,52510,1,0,2:0:0:0:
188,260,52664,2,0,B|257:269|257:269|344:232,1,140,2|10,3:2|2:0,2:0:0:0:
368,156,53126,1,2,2:0:0:0:
288,100,53280,6,0,L|280:192,1,70,0|2,3:2|3:2,0:0:0:0:
200,116,53587,2,0,L|193:46,1,70,8|2,2:0|2:0,0:0:0:0:
288,20,53895,2,0,P|332:32|364:56,1,70,2|0,3:2|3:2,0:0:0:0:
429,102,54203,1,10,2:0:0:0:
429,102,54357,1,0,2:0:0:0:
394,220,54510,6,0,B|362:320|362:320|374:360,2,140,2|14|2,3:2|2:0|3:2,2:0:0:0:
476,172,55280,1,0,3:2:0:0:
384,136,55433,2,0,L|296:128,1,70,14|0,2:0|3:2,2:0:0:0:
220,100,55741,5,14,2:0:0:0:
164,180,55895,2,0,L|80:172,1,70,0|0,3:2|3:2,0:0:0:0:
24,108,56203,1,12,2:0:0:0:
12,204,56357,2,0,P|25:258|36:288,1,70,0|0,3:2|3:2,0:0:0:0:
120,308,56664,2,0,L|128:345,3,35,8|8|8|8,2:0|2:0|2:0|2:0,0:0:0:0:
160,352,56972,6,0,B|272:364|272:364|288:312,1,140,6|10,3:2|2:0,2:0:0:0:
340,260,57433,2,0,P|330:227|332:175,1,70,2|0,2:0|3:2,0:0:0:0:
428,200,57741,2,0,P|440:152|440:120,1,70,2|8,3:2|2:0,0:0:0:0:
444,39,58049,1,2,2:0:0:0:
332,72,58203,6,0,L|188:60,1,140,2|10,3:2|2:0,0:0:0:0:
100,24,58664,1,0,3:0:0:0:
132,116,58818,2,0,P|160:136|208:144,1,70,2|0,3:2|3:2,2:0:0:0:
292,160,59126,2,0,L|264:236,1,70,10|0,2:0|2:0,0:0:0:0:
176,260,59433,6,0,B|256:320|256:320|326:304,2,140,2|10|2,3:2|2:0|3:2,2:0:0:0:
108,188,60203,1,0,3:2:0:0:
204,176,60357,2,0,P|205:141|197:107,1,70,10|0,2:0|2:0,2:0:0:0:
109,56,60664,6,0,B|85:120|85:120|113:204,1,140,2|8,3:2|2:0,2:0:0:0:
91,292,61126,1,0,3:2:0:0:
91,292,61203,1,0,0:0:0:0:
91,292,61280,2,0,P|143:280|235:303,1,140,2|10,3:2|2:0,0:0:0:0:
327,279,61741,1,10,2:0:0:0:
327,279,61818,1,10,2:0:0:0:
327,279,61895,6,0,P|346:239|340:184,1,70,4|2,3:2|2:0,0:0:0:0:
248,220,62203,2,0,P|231:189|227:155,1,70,8|0,2:0|2:0,2:0:0:0:
315,134,62510,2,0,P|328:87|326:55,1,70,2|2,3:2|2:0,0:0:0:0:
257,7,62818,1,10,2:0:0:0:
185,65,62972,6,0,L|97:61,1,70,2|0,2:0|3:2,0:0:0:0:
63,137,63280,2,0,P|47:189|51:229,1,70,2|8,2:0|2:0,2:0:0:0:
55,294,63587,1,2,2:0:0:0:
125,351,63741,2,0,P|181:331|221:331,1,70,0|0,3:2|2:0,0:0:0:0:
295,359,64049,2,0,P|307:330|304:305,3,35,10|8|8|8,2:0|2:0|2:0|2:0,0:0:0:0:
318,282,64357,6,0,P|329:243|338:194,1,70,6|0,3:2|2:0,0:0:0:0:
244,200,64664,2,0,P|234:166|227:132,1,70,10|0,2:0|2:0,0:0:0:0:
324,124,64972,2,0,P|333:90|340:56,1,70,10|0,2:0|3:2,0:0:0:0:
244,32,65280,2,0,P|209:51|172:48,1,70,10|0,2:0|3:2,0:0:0:0:
84,40,65587,6,0,P|56:40|36:55,2,35,10|8|0,2:0|2:0|3:2,0:0:0:0:
136,124,65895,1,0,3:2:0:0:
52,172,66049,2,0,P|35:177|17:175,2,35,8|8|2,2:0|2:0|3:2,0:0:0:0:
128,232,66357,1,0,3:2:0:0:
204,292,66510,2,0,L|256:288,3,35,2|0|0|0,3:2|3:2|3:2|3:2,0:0:0:0:
288,288,66818,6,0,P|292:211|352:184,1,140,6|0,3:2|3:2,2:0:0:0:
433,185,67280,1,2,2:0:0:0:
433,185,67433,2,0,P|455:110|423:52,1,140,2|0,3:2|3:2,2:0:0:0:
338,67,67895,1,2,2:0:0:0:
338,67,68049,6,0,P|262:43|196:78,2,140,14|2|2,2:0|3:2|3:2,2:0:0:0:
272,130,68818,1,2,3:2:0:0:
336,194,68972,2,0,L|332:286,1,70,2|0,3:2|3:2,2:0:0:0:
330,310,69203,1,0,3:2:0:0:
330,310,69280,6,0,P|262:293|176:325,1,140,6|2,3:2|3:2,2:0:0:0:
126,369,69741,1,0,2:0:0:0:
100,281,69895,2,0,P|75:225|98:140,1,140,2|0,3:2|3:2,2:0:0:0:
182,145,70357,1,2,2:0:0:0:
271,155,70510,6,0,P|305:148|334:129,1,70,2|12,3:2|2:0,0:0:0:0:
372,46,70818,1,14,2:0:0:0:
431,218,71126,2,0,P|456:207|479:202,3,35,10|8|8|8,2:0|2:0|2:0|2:0,0:0:0:0:
489,242,71433,2,0,P|497:272|493:330,1,70,0|0,3:2|2:0,0:0:0:0:
407,328,71741,6,0,B|337:354|337:354|256:321,1,140,6|0,3:2|3:2,2:0:0:0:
202,273,72203,1,10,2:3:0:0:
202,273,72357,2,0,P|172:213|198:129,1,140,2|0,3:2|3:2,2:0:0:0:
276,88,72818,1,2,3:2:0:0:
276,88,72895,1,0,3:2:0:0:
276,88,72972,6,0,P|348:84|432:72,1,140,6|2,3:2|3:2,2:0:0:0:
500,40,73433,1,8,2:3:0:0:
492,132,73587,2,0,P|497:181|492:228,1,70,2|2,3:2|3:2,0:0:0:0:
480,292,73895,1,2,3:2:0:0:
404,244,74049,1,0,3:2:0:0:
404,244,74126,1,0,3:2:0:0:
404,244,74203,6,0,B|340:200|277:222|277:222|268:224|268:224|240:192|240:192|180:208|116:160,1,308.000000000001,6|0,3:2|2:0,0:0:0:0:
152,136,76664,6,0,P|135:178|128:230,1,70,6|0,3:2|3:2,0:0:0:0:
204,268,76972,2,0,P|217:235|225:201,1,70,8|0,2:0|2:0,0:0:0:0:
256,108,77280,1,0,3:2:0:0:
256,108,77433,1,0,3:2:0:0:
332,172,77587,2,0,L|432:168,1,70,8|0,2:0|2:0,2:0:0:0:
484,116,77895,5,0,3:2:0:0:
484,116,78049,1,0,3:2:0:0:
484,216,78203,2,0,P|476:264|459:316,1,70,10|0,2:0|2:0,2:0:0:0:
396,348,78510,2,0,P|357:351|312:336,1,70,2|0,3:2|3:2,0:0:0:0:
238,379,78818,2,0,P|230:340|241:293,1,70,10|0,2:0|2:0,0:0:0:0:
278,197,79126,6,0,P|319:152|314:57,2,140,2|8|0,3:2|2:0|3:2,2:0:0:0:
231,109,79895,1,0,3:2:0:0:
154,170,80049,2,0,L|62:158,1,70,8|0,2:0|2:0,2:0:0:0:
12,96,80357,6,0,P|56:72|96:76,1,70,0|0,3:2|3:2,0:0:0:0:
164,28,80664,1,8,2:0:0:0:
260,72,80818,2,0,P|296:52|342:56,1,70,0|2,3:2|3:2,0:0:0:0:
356,46,81049,1,0,3:2:0:0:
356,46,81126,1,2,3:2:0:0:
315,135,81280,2,0,L|318:214,1,70,10|2,2:0|2:0,0:0:0:0:
211,206,81587,6,0,L|223:302,1,70,4|2,3:2|2:0,2:0:0:0:
155,350,81895,2,0,P|131:310|135:270,1,70,10|0,2:0|2:0,0:0:0:0:
87,199,82203,1,0,3:2:0:0:
87,199,82357,1,0,3:2:0:0:
120,96,82510,2,0,L|200:84,1,70,8|0,2:0|2:0,2:0:0:0:
284,52,82818,5,0,3:2:0:0:
284,52,82972,1,0,3:2:0:0:
364,108,83126,2,0,P|384:164|393:205,1,70,8|0,2:0|3:2,0:0:0:0:
460,240,83433,2,0,P|474:206|480:168,1,70,2|2,3:2|3:2,0:0:0:0:
444,80,83741,2,0,P|420:40|372:20,1,70,8|0,2:0|3:2,2:0:0:0:
284,52,84049,6,0,L|272:128,1,70,12|0,2:0|3:2,0:0:0:0:
176,136,84357,2,0,L|188:212,1,70,12|0,2:0|3:2,0:0:0:0:
284,224,84664,2,0,L|272:300,1,70,12|0,2:0|3:2,0:0:0:0:
196,355,84972,1,12,2:0:0:0:
196,355,85126,1,0,3:2:0:0:
144,252,85280,6,0,P|96:232|56:236,1,70,4|0,3:2|3:2,2:0:0:0:
12,160,85587,2,0,P|60:140|100:144,1,70,0|0,3:2|3:2,2:0:0:0:
148,72,85895,2,0,L|196:86,3,35,0|0|0|0,3:2|3:2|3:2|3:2,0:0:0:0:
232,76,86203,2,0,P|272:64|320:80,1,70,8|4,2:3|2:3,2:0:0:0:
337,150,86510,6,0,B|297:136|246:167|272:249|321:246|364:314|364:314|407:264|445:257|499:173|449:120|391:157,1,472.500000000001,4|0,3:2|2:0,2:0:0:0:
