osu file format v14

[General]
AudioFilename: audio.mp3
AudioLeadIn: 0
PreviewTime: 56906
Countdown: 0
SampleSet: Soft
StackLeniency: 0.7
Mode: 0
LetterboxInBreaks: 0
WidescreenStoryboard: 0

[Editor]
DistanceSpacing: 0.9
BeatDivisor: 4
GridSize: 4
TimelineZoom: 2.7

[Metadata]
Title:Minikui Ikimono (TV Size)
TitleUnicode:醜い生き物 (TV Size)
Artist:CHiCO with HoneyWorks
ArtistUnicode:CHiCO with HoneyWorks
Creator:Aerous
Version:Extra
Source:裏世界ピクニック
Tags:Otherside Picnic Urasekai op opening japanese anime pop j-pop jpop oninomori 鬼ノ森 13th シングル single gom ゴム shito 使徒 yamako ヤマコ 城山綾子
BeatmapID:2831363
BeatmapSetID:1369259

[Difficulty]
HPDrainRate:6
CircleSize:4
OverallDifficulty:8
ApproachRate:9.3
SliderMultiplier:1.8
SliderTickRate:1

[Events]
//Background and Video events
0,0,"ni6ublmdgj961 (1).jpg",0,0
Video,0,"UrasekaiPicnic.mp4"
//Break Periods
//Storyboard Layer 0 (Background)
//Storyboard Layer 1 (Fail)
//Storyboard Layer 2 (Pass)
//Storyboard Layer 3 (Foreground)
//Storyboard Layer 4 (Overlay)
//Storyboard Sound Samples

[TimingPoints]
357,307.692307692308,4,2,17,40,1,0
664,-133.333333333333,4,2,17,40,0,0
5280,-100,4,2,17,60,0,0
15126,-125,4,2,17,50,0,0
24972,-100,4,2,17,60,0,0
34818,-125,4,2,17,60,0,0
39741,-111.111111111111,4,2,17,60,0,0
45280,-100,4,2,17,60,0,0
47126,-90.9090909090909,4,2,17,80,0,1
66818,-125,4,2,17,60,0,0
75433,-125,4,2,17,40,0,0
76664,-125,4,2,17,70,0,0
76972,-100,4,2,17,70,0,0
86510,-133.333333333333,4,2,17,70,0,0
87894,-133.333333333333,4,2,17,20,0,0

[Colours]
Combo1 : 255,221,231
Combo2 : 255,149,202
Combo3 : 129,208,252
Combo4 : 242,158,254

[HitObjects]
151,190,357,5,2,2:0:0:0:
80,113,510,1,2,2:0:0:0:
169,206,664,2,0,P|202:202|236:199,1,67.5000000000002,2|2,2:0|2:0,2:0:0:0:
334,56,972,6,0,P|327:108|322:151,1,67.5000000000002,0|0,2:0|2:0,2:0:0:0:
312,28,1280,2,0,P|305:80|299:123,1,67.5000000000002,0|0,2:0|2:0,2:0:0:0:
236,199,1587,6,0,L|168:199,1,67.5000000000002,2|2,2:0|2:0,2:0:0:0:
331,242,1895,1,2,2:0:0:0:
189,299,2049,2,0,L|122:288,1,67.5000000000002,2|0,2:0|2:0,2:0:0:0:
349,265,2357,2,0,L|429:252,1,67.5000000000002,2|0,2:0|2:0,2:0:0:0:
466,189,2664,1,0,2:0:0:0:
287,323,2818,6,0,P|269:273|273:232,1,67.5000000000002,2|2,2:0|2:0,2:0:0:0:
342,159,3126,1,2,2:0:0:0:
233,72,3280,1,2,2:0:0:0:
274,166,3433,6,0,L|360:157,1,67.5000000000002,0|0,2:0|2:0,2:0:0:0:
182,163,3741,2,0,L|250:171,1,67.5000000000002,0|0,2:0|2:0,2:0:0:0:
60,123,4049,6,0,L|57:55,1,67.5000000000002,2|2,2:0|2:0,0:0:0:0:
175,23,4357,1,2,2:0:0:0:
135,155,4510,2,0,L|125:221,1,67.5000000000002,2|0,2:0|2:0,2:0:0:0:
42,275,4818,2,0,L|32:208,1,67.5000000000002,2|0,2:0|2:0,2:0:0:0:
60,123,5126,1,2,2:0:0:0:
216,198,5280,6,0,B|399:178,1,180,6|2,3:2|3:2,2:0:0:0:
483,125,5741,1,2,2:0:0:0:
453,247,5895,2,0,P|401:265|364:265,1,90,0|2,3:2|2:0,0:0:0:0:
216,198,6203,2,0,P|203:154|207:109,1,90,0|2,3:2|2:0,2:0:0:0:
400,54,6510,5,4,3:2:0:0:
282,143,6664,1,0,2:0:0:0:
229,17,6818,1,2,3:2:0:0:
407,80,6972,2,0,P|397:140|389:192,1,90,10|0,2:3|2:0,0:0:0:0:
148,265,7280,2,0,P|136:221|127:177,1,90,10|0,2:3|3:0,0:0:0:0:
278,21,7587,1,10,2:3:0:0:
288,37,7664,1,8,2:3:0:0:
295,54,7741,6,0,L|277:170,1,90,4|2,3:2|2:0,2:0:0:0:
260,338,8049,1,2,3:2:0:0:
356,247,8203,1,2,2:0:0:0:
206,197,8357,1,0,3:2:0:0:
244,361,8510,1,2,2:0:0:0:
445,240,8664,2,0,P|400:242|355:246,1,90,0|2,3:2|2:0,0:0:0:0:
191,168,8972,6,0,P|146:161|102:153,1,90,4|0,3:2|2:0,2:0:0:0:
244,361,9280,2,0,P|262:305|258:249,1,90,2|2,3:2|2:0,0:0:0:0:
39,200,9587,1,8,3:0:0:0:
42,229,9664,1,8,2:3:0:0:
45,259,9741,1,10,2:3:0:0:
48,289,9818,1,0,2:0:0:0:
51,319,9895,2,0,P|135:300|217:295,1,135,8|0,3:0|2:0,2:0:0:0:
244,361,10203,6,0,P|262:305|258:249,1,90,4|0,3:2|2:0,2:0:0:0:
257,101,10510,1,2,3:2:0:0:
380,221,10664,2,0,P|447:209|484:198,1,90,10|0,2:0|3:2,0:0:0:0:
240,72,10972,1,10,2:0:0:0:
421,24,11126,2,0,P|414:77|411:133,1,90,0|10,3:2|2:0,2:0:0:0:
413,136,11357,1,8,2:0:0:0:
413,136,11433,5,4,3:2:0:0:
377,315,11587,1,2,1:2:0:0:
212,194,11741,1,2,3:2:0:0:
245,357,11895,1,10,2:3:0:0:
429,241,12049,1,0,3:0:0:0:
184,175,12203,1,10,2:3:0:0:
352,89,12357,1,0,3:0:0:0:
229,276,12510,2,0,L|141:267,1,45,2|0,3:2|3:2,3:2:0:0:
17,193,12664,5,4,3:2:0:0:
256,192,12741,12,0,14510,2:0:0:0:
169,289,15126,6,0,P|232:274|258:253,1,72,6|0,3:2|0:0,2:0:0:0:
386,225,15433,2,0,P|353:210|317:206,1,72,0|2,3:2|2:0,0:0:0:0:
174,198,15741,1,0,3:2:0:0:
251,123,15895,1,2,2:0:0:0:
130,77,16049,1,2,3:2:0:0:
159,225,16203,1,2,2:0:0:0:
286,114,16357,6,0,P|350:107|378:104,1,72,2|2,3:2|2:0,2:0:0:0:
460,66,16664,2,0,P|464:40|478:5,2,36,2|0|10,3:2|2:0|2:0,0:0:0:0:
478,209,16972,2,0,L|406:215,1,72,2|2,3:2|2:0,0:0:0:0:
316,370,17280,2,0,L|303:274,1,72,0|2,0:0|2:0,0:0:0:0:
302,280,17510,1,0,2:0:0:0:
296,259,17587,6,0,P|259:287|149:245,1,144,2|2,3:2|3:2,2:0:0:0:
56,107,18049,2,0,P|92:114|121:142,1,72,2|0,2:0|0:0,2:0:0:0:
237,176,18357,1,2,2:0:0:0:
233,193,18433,1,0,2:0:0:0:
229,210,18510,1,0,3:2:0:0:
142,303,18664,1,2,2:3:0:0:
142,303,18741,1,0,2:0:0:0:
142,303,18818,6,0,P|131:259|130:231,1,72,0|8,3:2|2:0,2:0:0:0:
335,173,19126,1,2,3:2:0:0:
215,97,19280,1,8,2:0:0:0:
322,256,19433,2,0,P|380:243|417:163,1,144,2|2,3:2|3:2,2:0:0:0:
426,56,19895,1,8,2:0:0:0:
335,173,20049,6,0,P|283:169|264:166,1,72,2|0,3:2|2:0,2:0:0:0:
168,160,20357,1,0,3:2:0:0:
172,43,20510,2,0,P|210:58|228:100,1,72,2|0,2:0|3:2,2:0:0:0:
215,266,20818,2,0,L|144:256,1,72,10|0,2:0|3:2,2:0:0:0:
64,208,21126,1,2,2:0:0:0:
192,348,21280,6,0,P|261:341|296:272,1,144,0|0,3:2|3:2,2:0:0:0:
325,124,21741,1,8,2:0:0:0:
372,259,21895,1,2,3:2:0:0:
454,180,22049,1,8,2:0:0:0:
304,104,22203,1,0,3:2:0:0:
482,62,22357,1,0,2:0:0:0:
286,83,22510,6,0,P|197:80|140:74,1,144,2|0,2:3|3:2,2:0:0:0:
406,6,22972,2,0,P|386:44|380:93,1,72,10|0,2:0|0:0,2:0:0:0:
269,180,23280,2,0,P|304:175|338:162,1,72,2|0,2:0|3:2,0:0:0:0:
453,137,23587,1,2,2:0:0:0:
366,305,23741,6,0,L|275:295,1,72,2|8,2:3|2:0,2:0:0:0:
154,231,24049,1,2,2:3:0:0:
214,333,24203,1,10,2:0:0:0:
214,333,24280,1,8,2:0:0:0:
214,333,24357,5,8,2:0:0:0:
286,181,24510,1,8,2:0:0:0:
150,54,24664,1,8,2:0:0:0:
388,34,24818,1,8,2:0:0:0:
440,249,24972,6,0,P|376:235|324:238,1,90,6|0,3:2|2:0,2:0:0:0:
214,333,25280,2,0,P|258:330|302:318,1,90,10|0,2:0|2:0,2:0:0:0:
422,152,25587,2,0,P|358:138|306:141,1,90,2|0,3:2|2:0,2:0:0:0:
145,78,25895,1,10,2:0:0:0:
166,210,26049,1,0,2:0:0:0:
281,132,26203,5,2,3:2:0:0:
133,54,26357,1,0,2:0:0:0:
153,235,26510,1,10,2:0:0:0:
302,121,26664,1,0,2:0:0:0:
340,318,26818,2,0,L|251:310,1,90,2|0,3:2|2:0,0:0:0:0:
88,189,27126,2,0,L|177:181,1,90,2|0,3:2|2:0,0:0:0:0:
380,110,27433,6,0,P|325:44|243:65,1,180,2|10,3:2|2:0,2:0:0:0:
439,176,27895,2,0,P|463:134|463:82,1,90,2|0,2:0|3:2,2:0:0:0:
226,106,28203,2,0,L|232:213,1,90,2|8,2:0|2:0,2:0:0:0:
236,352,28510,1,2,2:0:0:0:
367,259,28664,6,0,L|278:272,1,90,0|0,3:2|2:0,2:0:0:0:
54,228,28972,2,0,P|121:221|183:273,1,135,12|0,2:0|0:0,2:0:0:0:
248,371,29280,1,2,3:2:0:0:
308,187,29433,1,2,3:2:0:0:
315,170,29510,1,0,3:2:0:0:
321,153,29587,1,2,3:2:0:0:
187,113,29741,1,8,2:0:0:0:
291,285,29895,6,0,P|426:262|476:263,1,180,6|10,3:2|2:0,2:0:0:0:
512,150,30357,2,0,P|470:133|426:127,1,90,2|0,2:0|3:2,0:0:0:0:
291,285,30664,2,0,P|246:278|204:261,1,90,2|8,2:0|2:0,2:0:0:0:
151,95,30972,1,2,2:0:0:0:
19,174,31126,6,0,B|83:170|83:170|141:192|141:192|220:183,1,180,0|10,3:2|2:0,2:0:0:0:
350,181,31587,1,0,2:0:0:0:
280,59,31741,2,0,P|262:119|258:150,1,90,0|0,3:2|2:0,2:0:0:0:
320,290,32049,2,0,P|365:286|412:278,1,90,10|0,2:0|2:0,2:0:0:0:
512,141,32357,6,0,P|399:135|320:135,1,180,0|10,3:2|2:0,0:0:0:0:
150,253,32818,2,0,P|138:184|138:147,1,90,2|0,2:0|3:2,2:0:0:0:
280,59,33126,1,2,2:0:0:0:
225,194,33280,1,10,2:0:0:0:
84,107,33433,1,8,2:0:0:0:
84,107,33510,1,8,2:0:0:0:
84,107,33587,5,2,3:2:0:0:
202,316,33741,1,8,2:0:0:0:
235,166,33895,1,0,3:2:0:0:
396,253,34049,1,2,2:0:0:0:
248,131,34203,5,10,2:3:0:0:
464,132,34357,1,8,2:3:0:0:
300,253,34510,1,4,2:3:0:0:
325,35,34664,1,4,2:3:0:0:
300,253,34818,6,0,B|331:169|331:169|322:85,1,144,6|2,3:2|2:0,2:0:0:0:
225,160,35280,2,0,P|129:163|69:159,1,144,10|2,2:0|3:2,2:0:0:0:
168,249,35741,1,10,2:0:0:0:
136,81,35895,1,2,2:0:0:0:
168,249,36049,6,0,L|265:241,1,72,2|0,3:2|3:2,2:0:0:0:
371,194,36357,1,2,2:0:0:0:
369,325,36510,2,0,P|345:247|387:179,1,144,10|0,2:0|3:2,2:0:0:0:
452,146,36972,2,0,P|465:191|462:242,1,72,0|0,3:2|0:0,0:0:0:0:
288,72,37280,5,6,3:2:0:0:
304,96,37741,2,0,B|228:116|228:116|156:100,1,144,10|2,2:0|3:2,2:0:0:0:
68,51,38203,2,0,P|59:99|57:130,1,72,10|2,2:0|2:0,2:0:0:0:
154,249,38510,5,2,3:2:0:0:
164,101,38664,1,0,3:2:0:0:
285,187,38818,1,2,2:0:0:0:
136,271,38972,2,0,P|87:270|52:255,1,72,10|0,2:0|2:0,2:0:0:0:
211,160,39280,1,0,3:2:0:0:
217,319,39433,1,2,3:2:0:0:
52,225,39587,1,8,2:0:0:0:
52,225,39664,1,8,2:0:0:0:
52,225,39741,6,0,P|45:169|44:127,1,81.0000000000001,6|0,3:2|0:0,2:0:0:0:
139,53,40049,1,2,2:0:0:0:
211,160,40203,2,0,P|250:146|317:154,1,81.0000000000001,10|0,2:0|2:0,2:0:0:0:
464,168,40510,1,2,3:2:0:0:
386,76,40664,1,10,2:0:0:0:
391,53,40972,6,0,B|370:100|370:100|385:219,1,162,2|2,3:2|2:0,2:0:0:0:
336,315,41433,1,10,2:0:0:0:
206,248,41587,2,0,P|257:230|303:229,1,81.0000000000001,0|0,0:0|3:2,0:0:0:0:
413,335,41895,2,0,P|372:329|335:314,1,81.0000000000001,0|2,3:2|2:0,0:0:0:0:
161,176,42203,6,0,P|125:217|160:320,1,162,6|2,3:2|2:0,2:0:0:0:
259,173,42664,2,0,P|220:93|132:81,1,162,10|2,2:0|3:2,2:0:0:0:
206,248,43126,1,10,2:0:0:0:
340,213,43280,1,8,2:0:0:0:
344,193,43357,1,8,2:0:0:0:
349,173,43433,5,8,2:0:0:0:
282,66,43587,1,8,3:2:0:0:
437,152,43741,1,0,3:2:0:0:
430,20,43895,1,0,3:2:0:0:
260,99,44049,1,0,3:2:0:0:
134,24,44203,1,0,3:2:0:0:
244,128,44357,2,0,P|254:199|256:230,1,80.9999975280763,2|0,3:2|3:2,2:0:0:0:
405,330,44664,5,4,3:2:0:0:
220,233,44818,1,0,3:2:0:0:
433,180,44972,1,14,2:0:0:0:
308,335,45126,1,0,3:2:0:0:
126,174,45280,2,0,P|72:165|20:126,1,90,14|0,2:0|3:2,0:0:0:0:
305,19,45587,1,10,2:0:0:0:
297,51,45664,1,8,2:0:0:0:
291,84,45741,1,8,2:0:0:0:
308,335,45895,5,6,3:2:0:0:
258,244,47126,6,0,P|183:257|134:141,1,198,6|10,3:2|2:0,2:0:0:0:
279,59,47587,1,2,2:0:0:0:
208,174,47741,1,0,3:2:0:0:
111,48,47895,1,2,3:2:0:0:
208,174,48049,2,0,P|269:168|319:165,1,99,8|2,2:0|0:0,0:0:0:0:
443,300,48357,6,0,P|382:294|335:290,1,99,2|0,3:2|2:0,2:0:0:0:
147,90,48664,2,0,P|208:84|257:81,1,99,10|0,2:0|3:0,2:0:0:0:
428,96,48972,1,2,3:2:0:0:
436,74,49049,1,0,2:0:0:0:
444,53,49126,1,0,3:2:0:0:
277,151,49280,1,10,2:0:0:0:
469,199,49433,1,0,2:0:0:0:
217,219,49587,6,0,P|186:164|259:63,1,198,2|10,3:2|2:0,2:0:0:0:
444,53,50049,1,0,2:0:0:0:
414,284,50203,2,0,P|346:289|295:282,1,99,2|0,3:2|3:2,2:0:0:0:
158,43,50510,2,0,P|202:46|257:65,1,99,10|0,2:0|2:0,2:0:0:0:
276,318,50818,5,2,3:2:0:0:
149,170,50972,1,0,3:2:0:0:
379,144,51126,2,0,P|397:98|401:42,1,99,8|0,2:0|2:0,2:0:0:0:
158,43,51433,1,2,3:2:0:0:
161,69,51510,1,0,3:2:0:0:
165,95,51587,1,0,3:2:0:0:
250,227,51741,1,10,2:0:0:0:
319,74,51895,1,2,3:2:0:0:
120,177,52049,6,0,P|60:162|3:159,1,99,4|2,3:2|2:0,2:0:0:0:
219,311,52357,2,0,P|286:308|325:188,1,198,8|2,2:0|3:2,2:0:0:0:
212,46,52818,1,0,3:2:0:0:
250,227,52972,1,10,2:0:0:0:
374,111,53126,1,2,2:0:0:0:
112,173,53280,6,0,P|97:125|90:76,1,99,0|2,3:2|3:2,0:0:0:0:
320,36,53587,1,8,2:0:0:0:
250,227,53741,1,2,2:0:0:0:
178,104,53895,1,2,3:2:0:0:
178,104,53972,1,0,3:2:0:0:
178,104,54049,1,0,3:2:0:0:
371,203,54203,2,0,P|442:197|474:191,1,99,10|0,2:0|2:0,0:0:0:0:
284,19,54510,6,0,L|286:126,1,99,2|0,3:2|2:0,2:0:0:0:
299,351,54818,1,14,2:0:0:0:
186,233,54972,1,0,2:0:0:0:
377,169,55126,1,2,3:2:0:0:
153,242,55280,1,0,3:2:0:0:
336,369,55433,2,0,P|354:297|357:272,1,99,14|0,2:0|3:2,2:0:0:0:
195,113,55741,5,14,2:0:0:0:
248,306,55895,1,0,3:2:0:0:
44,257,56049,1,0,3:2:0:0:
249,191,56203,5,12,2:0:0:0:
101,358,56357,1,0,3:2:0:0:
275,309,56510,1,0,3:2:0:0:
104,204,56664,1,8,2:0:0:0:
99,170,56741,1,8,2:0:0:0:
94,136,56818,1,8,2:0:0:0:
91,103,56895,1,8,2:0:0:0:
85,70,56972,6,0,P|146:77|199:62,1,99.0000030212403,6|0,3:2|2:0,2:0:0:0:
329,25,57280,1,10,2:0:0:0:
220,161,57433,2,0,P|217:210|215:259,1,99.0000030212403,2|0,2:0|3:2,0:0:0:0:
472,145,57741,2,0,P|426:228|332:232,1,198.000006042481,2|2,3:2|2:0,0:0:0:0:
224,48,58203,5,2,3:2:0:0:
216,260,58357,1,0,2:0:0:0:
376,148,58510,1,10,2:0:0:0:
144,184,58664,1,0,3:0:0:0:
320,364,58818,2,0,P|336:304|344:252,1,99.0000030212403,2|0,3:2|3:2,2:0:0:0:
128,86,59126,2,0,P|132:134|143:182,1,99.0000030212403,10|0,2:0|2:0,0:0:0:0:
434,85,59433,6,0,P|363:67|295:166,1,198,2|10,3:2|2:0,2:0:0:0:
201,47,59895,1,0,2:0:0:0:
236,240,60049,2,0,P|285:251|334:251,1,99,2|0,3:2|3:2,0:0:0:0:
90,349,60357,2,0,P|140:345|187:331,1,99,10|0,2:0|2:0,2:0:0:0:
372,230,60664,5,2,3:2:0:0:
288,344,60818,1,0,3:2:0:0:
214,202,60972,1,8,2:0:0:0:
397,202,61126,1,0,3:2:0:0:
208,178,61280,1,2,3:2:0:0:
201,154,61357,1,0,3:0:0:0:
194,130,61433,1,2,3:2:0:0:
272,48,61587,1,10,2:0:0:0:
419,188,61741,1,10,2:0:0:0:
436,170,61818,1,10,2:0:0:0:
452,151,61895,6,0,P|466:89|453:34,1,99,4|2,3:2|2:0,0:0:0:0:
92,182,62203,2,0,P|100:238|107:280,1,99,8|0,2:0|2:0,2:0:0:0:
286,352,62510,1,2,3:2:0:0:
181,213,62664,1,2,2:0:0:0:
137,363,62818,1,10,2:0:0:0:
338,219,62972,1,2,2:0:0:0:
192,100,63126,5,0,3:2:0:0:
164,245,63280,2,0,P|232:267|286:271,1,99,2|8,2:0|2:0,2:0:0:0:
438,233,63587,1,2,2:0:0:0:
286,352,63741,1,0,3:2:0:0:
232,166,63895,1,0,2:0:0:0:
438,233,64049,5,10,2:0:0:0:
475,209,64126,1,8,2:0:0:0:
490,168,64203,1,8,2:0:0:0:
474,126,64280,1,8,2:0:0:0:
437,105,64357,6,0,P|392:113|340:132,1,99,6|0,3:2|2:0,0:0:0:0:
63,240,64664,2,0,P|107:247|161:266,1,99,10|0,2:0|2:0,0:0:0:0:
417,185,64972,1,10,2:0:0:0:
117,129,65126,1,0,3:2:0:0:
253,363,65280,1,10,2:0:0:0:
399,85,65433,1,0,3:2:0:0:
117,129,65587,5,10,2:0:0:0:
98,119,65664,1,8,2:0:0:0:
81,108,65741,1,0,3:2:0:0:
261,34,65895,1,0,3:2:0:0:
280,216,66049,1,8,2:0:0:0:
275,237,66126,1,8,2:0:0:0:
270,258,66203,1,2,3:2:0:0:
384,131,66357,1,0,3:2:0:0:
169,215,66510,5,2,3:2:0:0:
125,216,66587,1,0,3:2:0:0:
88,193,66664,1,0,3:2:0:0:
72,152,66741,1,0,3:2:0:0:
81,108,66818,6,0,P|150:120|235:111,1,144,6|0,3:2|3:2,2:0:0:0:
297,30,67280,1,2,2:0:0:0:
297,30,67433,2,0,B|331:96|331:96|311:195,1,144,2|0,3:2|3:2,2:0:0:0:
386,310,67895,1,2,2:0:0:0:
262,295,68049,6,0,P|302:328|404:285,1,144,14|2,2:0|3:2,2:0:0:0:
414,138,68510,1,8,2:3:0:0:
317,164,68664,2,0,L|328:244,1,72,2|2,3:2|3:2,0:0:0:0:
235,317,68972,1,2,3:2:0:0:
192,85,69126,1,0,3:2:0:0:
192,85,69203,1,0,3:2:0:0:
192,85,69280,6,0,B|238:84|262:103|262:103|293:82|354:86,1,144,6|2,3:2|3:2,2:0:0:0:
446,202,69741,1,0,2:0:0:0:
446,202,69895,2,0,B|481:164|483:108|483:108|464:112|428:116,1,144,2|0,3:2|3:2,2:0:0:0:
308,159,70357,1,2,2:0:0:0:
371,27,70510,6,0,L|363:128,1,72,2|12,3:2|2:0,0:0:0:0:
347,323,70818,1,14,2:0:0:0:
446,202,70972,1,4,3:0:0:0:
287,254,71126,5,10,2:0:0:0:
253,250,71203,1,8,2:0:0:0:
220,246,71280,1,8,2:0:0:0:
187,242,71357,1,8,2:0:0:0:
162,262,71433,5,2,3:2:0:0:
128,257,71510,1,2,2:0:0:0:
95,252,71587,1,2,2:0:0:0:
61,248,71664,1,2,2:0:0:0:
28,243,71741,6,0,L|13:147,1,72,6|0,3:2|2:0,2:0:0:0:
205,95,72049,2,0,L|192:175,1,72,0|10,3:2|2:3,0:0:0:0:
111,329,72357,1,2,3:2:0:0:
109,167,72510,2,0,L|108:114,2,36,8|0|0,2:3|2:0|3:2,0:0:0:0:
224,248,72818,1,2,3:2:0:0:
224,248,72895,1,0,3:2:0:0:
224,248,72972,6,0,P|286:252|326:251,1,72,6|0,3:2|2:0,2:0:0:0:
429,138,73280,2,0,P|384:139|349:142,1,72,2|8,3:2|2:3,2:0:0:0:
169,36,73587,1,2,3:2:0:0:
271,171,73741,1,2,3:2:0:0:
392,40,73895,1,2,3:2:0:0:
148,133,74049,1,0,3:2:0:0:
122,121,74126,1,0,3:2:0:0:
99,110,74203,5,6,3:2:0:0:
256,192,74280,12,0,75433,2:0:0:0:
198,176,76664,5,6,3:2:0:0:
76,108,76818,1,0,3:2:0:0:
225,197,76972,2,0,L|330:177,1,90,8|0,2:0|2:0,0:0:0:0:
421,316,77280,2,0,L|316:296,1,90,0|0,3:2|3:2,2:0:0:0:
129,261,77587,2,0,P|116:215|117:160,1,90,8|0,2:0|2:0,2:0:0:0:
283,54,77895,5,0,3:2:0:0:
225,197,78049,1,0,3:2:0:0:
86,68,78203,2,0,P|139:72|187:88,1,90,10|0,2:0|2:0,2:0:0:0:
359,192,78510,1,2,3:2:0:0:
379,201,78587,1,0,3:2:0:0:
400,209,78664,1,0,3:2:0:0:
315,70,78818,1,10,2:0:0:0:
225,197,78972,1,0,2:0:0:0:
358,283,79126,6,0,P|466:256|469:165,1,180,2|8,3:2|2:0,2:0:0:0:
315,70,79587,1,0,2:0:0:0:
225,197,79741,2,0,P|228:242|232:286,1,90,0|0,3:2|3:2,2:0:0:0:
431,374,80049,2,0,P|435:329|438:284,1,90,8|0,2:0|2:0,2:0:0:0:
315,70,80357,5,0,3:2:0:0:
325,252,80510,1,0,3:2:0:0:
456,153,80664,2,0,L|473:55,1,90,8|0,2:0|3:2,2:0:0:0:
219,44,80972,1,2,3:2:0:0:
219,44,81049,1,0,3:2:0:0:
219,44,81126,1,2,3:2:0:0:
325,252,81280,1,10,2:0:0:0:
390,80,81433,1,2,2:0:0:0:
212,197,81587,6,0,B|151:182|151:182|87:198|87:198|11:182,1,180,4|10,3:2|2:0,2:0:0:0:
240,56,82049,1,0,2:0:0:0:
73,25,82203,2,0,L|83:155,1,90,0|0,3:2|3:2,0:0:0:0:
157,300,82510,2,0,P|211:293|259:293,1,90,8|0,2:0|2:0,2:0:0:0:
433,212,82818,6,0,L|323:194,1,90,0|0,3:2|3:2,2:0:0:0:
193,210,83126,1,8,2:0:0:0:
310,346,83280,1,0,3:2:0:0:
392,116,83433,1,2,3:2:0:0:
398,94,83510,1,0,2:0:0:0:
404,72,83587,1,2,3:2:0:0:
208,33,83741,2,0,L|217:146,1,90,8|0,2:0|3:2,2:0:0:0:
310,346,84049,5,12,2:0:0:0:
314,104,84203,1,0,3:2:0:0:
136,217,84357,1,12,2:0:0:0:
405,275,84510,1,0,3:2:0:0:
167,360,84664,5,12,2:0:0:0:
159,135,84818,1,0,3:2:0:0:
405,275,84972,2,0,P|415:202|420:160,1,90,12|0,2:0|3:2,0:0:0:0:
210,35,85280,5,4,3:2:0:0:
186,50,85357,1,0,3:2:0:0:
169,71,85433,1,0,3:2:0:0:
160,98,85510,1,0,3:2:0:0:
160,126,85587,1,0,3:2:0:0:
169,152,85664,1,0,3:2:0:0:
187,174,85741,1,0,3:2:0:0:
211,188,85818,1,0,2:0:0:0:
238,194,85895,6,0,L|302:181,1,45,0|0,3:2|3:2,0:0:0:0:
370,52,86049,2,0,L|356:119,1,45,0|0,3:2|3:2,2:0:0:0:
370,264,86203,2,0,L|447:241,1,45,8|8,2:3|2:3,2:0:0:0:
507,138,86357,2,0,L|429:115,1,45,4|4,2:3|2:3,2:0:0:0:
213,128,86510,6,0,B|161:110|94:151|128:258|193:255|251:335|251:335|315:267|364:266|421:150|333:95|284:135,1,607.500000000001,4|0,3:2|2:0,2:0:0:0:
