osu file format v14

[General]
AudioFilename: audio.mp3
AudioLeadIn: 0
PreviewTime: 56906
Countdown: 0
SampleSet: Soft
StackLeniency: 0.7
Mode: 0
LetterboxInBreaks: 0
WidescreenStoryboard: 1

[Editor]
DistanceSpacing: 1.1
BeatDivisor: 4
GridSize: 4
TimelineZoom: 2.4

[Metadata]
Title:Minikui Ikimono (TV Size)
TitleUnicode:醜い生き物 (TV Size)
Artist:CHiCO with HoneyWorks
ArtistUnicode:CHiCO with HoneyWorks
Creator:Aerous
Version:Easy
Source:裏世界ピクニック
Tags:Otherside Picnic Urasekai op opening japanese anime pop j-pop jpop oninomori 鬼ノ森 13th シングル single gom ゴム shito 使徒 yamako ヤマコ 城山綾子
BeatmapID:2831527
BeatmapSetID:1369259

[Difficulty]
HPDrainRate:2
CircleSize:3
OverallDifficulty:2
ApproachRate:3
SliderMultiplier:0.8
SliderTickRate:1

[Events]
//Background and Video events
0,0,"ni6ublmdgj961 (1).jpg",0,0
Video,0,"UrasekaiPicnic.mp4"
//Break Periods
//Storyboard Layer 0 (Background)
//Storyboard Layer 1 (Fail)
//Storyboard Layer 2 (Pass)
//Storyboard Layer 3 (Foreground)
//Storyboard Layer 4 (Overlay)
//Storyboard Sound Samples

[TimingPoints]
357,307.692307692308,4,2,17,40,1,0
5280,-100,4,2,17,60,0,0
15126,-100,4,2,17,50,0,0
24972,-100,4,2,17,60,0,0
47126,-100,4,2,17,80,0,1
55741,-100,4,2,17,60,0,1
56972,-100,4,2,17,80,0,1
66818,-100,4,2,17,60,0,0
75433,-100,4,2,17,40,0,0
76664,-100,4,2,17,70,0,0
86510,-100,4,2,17,60,0,0
87894,-100,4,2,17,20,0,0

[Colours]
Combo1 : 255,221,231
Combo2 : 255,149,202
Combo3 : 129,208,252
Combo4 : 242,158,254

[HitObjects]
60,284,357,6,0,P|44:220|68:168,2,120,2|2|0,2:0|2:0|2:0,0:0:0:0:
132,232,1587,2,0,P|180:236|269:223,1,120,2|2,2:0|2:0,0:0:0:0:
331,191,2357,1,2,2:0:0:0:
452,242,2818,6,0,P|468:178|503:123,2,120,2|2|0,2:0|2:0|2:0,0:0:0:0:
404,315,4049,2,0,P|344:323|284:319,1,120,2|2,2:0|2:0,0:0:0:0:
203,284,4819,1,2,2:0:0:0:
286,182,5280,6,0,P|317:133|291:24,1,160,6|0,3:2|3:2,0:0:0:0:
214,21,6203,1,0,3:2:0:0:
126,31,6510,2,0,P|105:106|141:176,1,160,4|0,3:2|2:0,0:0:0:0:
158,262,7433,1,0,3:0:0:0:
243,279,7741,6,0,B|308:314|308:314|392:298,1,160,4|0,3:2|3:2,0:0:0:0:
450,232,8664,1,0,3:2:0:0:
423,147,8972,2,0,L|340:143,1,80,4|2,3:2|3:2,0:0:0:0:
282,79,9587,2,0,L|199:75,1,80,8|8,3:0|3:0,0:0:0:0:
125,118,10203,6,0,P|112:72|119:38,2,80,4|2|0,3:2|3:2|3:2,0:0:0:0:
137,205,11126,1,0,3:2:0:0:
131,292,11433,2,0,P|82:316|47:320,2,80,4|2|0,3:2|3:2|3:0,0:0:0:0:
215,307,12357,1,0,3:0:0:0:
256,192,12664,12,0,13895,0:0:0:0:
122,266,15126,6,0,P|88:212|129:121,1,160,6|0,3:2|3:2,0:0:0:0:
198,89,16049,1,2,3:2:0:0:
264,146,16357,2,0,P|306:155|348:150,1,80,2|2,3:2|3:2,0:0:0:0:
418,106,16972,2,0,P|432:146|427:194,1,80,2|2,3:2|3:2,0:0:0:0:
485,251,17587,6,0,P|429:272|365:250,1,120,2|2,3:2|2:0,0:0:0:0:
290,224,18357,1,2,2:0:0:0:
218,275,18664,2,0,P|169:291|139:291,1,80,2|8,2:3|2:0,0:0:0:0:
55,190,19433,5,2,3:2:0:0:
51,101,19741,1,2,3:2:0:0:
129,59,20049,2,0,P|185:38|252:64,1,120,2|2,3:2|2:0,0:0:0:0:
328,55,20818,1,10,2:0:0:0:
403,99,21126,2,0,L|404:187,1,80,2|0,2:0|0:0,0:0:0:0:
460,300,21895,6,0,P|423:313|374:303,1,80,2|0,3:2|3:2,0:0:0:0:
295,310,22510,2,0,P|298:264|307:177,1,120,2|10,2:3|2:0,0:0:0:0:
334,107,23280,1,2,2:0:0:0:
205,77,23741,2,0,B|131:23|50:40,1,160,2|8,2:3|2:0,0:0:0:0:
62,215,24972,6,0,P|36:245|28:284,2,80,6|10|2,3:2|2:0|3:2,0:0:0:0:
119,281,25895,1,10,2:0:0:0:
183,341,26203,2,0,P|152:366|113:374,2,80,2|10|2,3:2|2:0|3:2,0:0:0:0:
233,269,27126,1,10,2:0:0:0:
317,297,27433,6,0,P|332:247|330:218,1,80,2|10,3:2|2:0,0:0:0:0:
311,133,28049,2,0,P|296:95|297:56,1,80,0|8,3:2|2:0,0:0:0:0:
382,79,28664,2,0,L|472:73,1,80,0|12,3:2|2:0,0:0:0:0:
478,160,29280,1,2,3:2:0:0:
447,242,29587,1,2,3:2:0:0:
470,327,29895,6,0,P|385:339|305:314,1,160,6|0,3:2|3:2,0:0:0:0:
227,329,30818,1,8,2:0:0:0:
140,343,31126,2,0,B|115:264|115:264|142:191,1,160,0|0,3:2|3:2,0:0:0:0:
198,123,32049,1,10,2:0:0:0:
263,64,32357,6,0,P|283:97|285:137,1,80,0|10,3:2|2:0,0:0:0:0:
332,212,32972,2,0,P|364:176|369:133,1,80,0|10,3:2|2:0,0:0:0:0:
418,72,33587,2,0,B|461:131|461:131|444:233,1,160,2|10,3:2|2:3,0:0:0:0:
333,352,34818,6,0,P|231:342|209:341,1,120,6|10,3:2|2:0,0:0:0:0:
81,350,35741,1,10,2:0:0:0:
47,268,36049,2,0,P|39:209|81:159,1,120,2|10,3:2|2:0,0:0:0:0:
205,170,36972,1,0,3:2:0:0:
252,244,37280,6,0,P|302:257|367:222,1,120,6|10,3:2|2:0,0:0:0:0:
477,166,38203,1,10,2:0:0:0:
413,104,38510,2,0,P|406:64|464:19,2,120,2|10|2,3:2|2:0|3:2,0:0:0:0:
325,115,39741,6,0,P|260:120|197:115,1,120,6|10,3:2|2:0,0:0:0:0:
96,41,40664,1,10,2:0:0:0:
37,106,40972,2,0,B|16:164|16:164|28:221,1,120,2|10,3:2|2:0,0:0:0:0:
137,296,41895,1,0,3:2:0:0:
216,334,42203,2,0,P|282:335|347:363,2,120,6|10|10,3:2|2:0|2:0,0:0:0:0:
222,245,43433,6,0,P|225:129|230:72,1,160,8|0,2:0|3:2,0:0:0:0:
304,39,44357,1,2,3:2:0:0:
380,82,44664,2,0,P|385:161|386:241,2,160,4|14|6,3:2|2:0|3:2,0:0:0:0:
283,244,47126,6,0,P|243:245|207:229,2,80,6|10|0,3:2|2:0|3:2,0:0:0:0:
356,194,48049,1,8,2:0:0:0:
416,130,48357,2,0,L|431:44,1,80,2|10,3:2|2:0,0:0:0:0:
343,34,48972,2,0,L|327:116,1,80,2|10,3:2|2:0,0:0:0:0:
263,173,49587,6,0,P|200:181|141:113,1,160,2|2,3:2|3:2,0:0:0:0:
64,73,50510,1,10,2:0:0:0:
51,160,50818,2,0,L|56:249,1,80,2|8,3:2|2:0,0:0:0:0:
49,327,51433,2,0,P|90:322|129:292,1,80,2|10,3:2|2:0,0:0:0:0:
209,305,52049,6,0,P|245:319|272:349,2,80,4|8|2,3:2|2:0|3:2,0:0:0:0:
171,225,52972,1,10,2:0:0:0:
258,215,53280,2,0,L|347:212,1,80,0|8,3:2|2:0,0:0:0:0:
395,145,53895,2,0,P|410:109|405:57,1,80,2|10,3:2|2:0,0:0:0:0:
324,39,54510,5,2,3:2:0:0:
285,118,54818,1,14,2:0:0:0:
200,92,55126,2,0,P|150:82|114:88,1,80,2|14,3:2|2:0,0:0:0:0:
47,38,55741,2,0,P|34:98|61:156,1,120,14|12,2:0|2:0,0:0:0:0:
116,268,56664,1,8,2:0:0:0:
172,335,56972,6,0,P|198:297|203:252,1,80,6|10,3:2|2:0,0:0:0:0:
283,225,57587,2,0,L|366:229,1,80,0|8,3:2|2:0,0:0:0:0:
378,315,58203,2,0,B|447:269|447:269|438:180,1,160,2|2,3:2|3:2,0:0:0:0:
394,116,59126,1,10,2:0:0:0:
342,45,59433,6,0,P|381:30|429:34,2,80,2|10|2,3:2|2:0|3:2,0:0:0:0:
273,100,60357,1,10,2:0:0:0:
184,105,60664,2,0,L|96:93,1,80,2|8,3:2|2:0,0:0:0:0:
59,170,61280,2,0,L|152:184,1,80,2|10,3:2|2:0,0:0:0:0:
220,213,61895,6,0,P|307:193|383:210,1,160,4|2,3:2|3:2,0:0:0:0:
435,270,62818,1,10,2:0:0:0:
379,338,63126,2,0,P|302:357|223:344,1,160,0|0,3:2|3:2,0:0:0:0:
163,280,64049,1,10,2:0:0:0:
77,302,64357,6,0,P|79:249|92:226,1,80,6|10,3:2|2:0,0:0:0:0:
173,192,64972,2,0,P|171:139|158:116,1,80,10|10,2:0|2:0,0:0:0:0:
111,41,65587,2,0,B|175:31|175:31|279:56,1,160,10|2,2:0|3:2,0:0:0:0:
349,85,66510,1,2,3:2:0:0:
401,155,66818,6,0,P|384:264|383:320,1,160,6|2,3:2|3:2,0:0:0:0:
212,356,68049,2,0,P|177:374|137:375,2,80,14|2|2,2:0|3:2|3:2,0:0:0:0:
155,288,68972,1,2,3:2:0:0:
91,227,69280,6,0,P|47:226|5:232,2,80,6|2|2,3:2|3:2|3:2,0:0:0:0:
149,161,70203,1,0,3:2:0:0:
216,104,70510,2,0,P|276:83|376:91,1,160,2|10,3:2|2:0,0:0:0:0:
452,125,71433,1,2,3:2:0:0:
414,204,71741,6,0,L|427:298,1,80,6|0,3:2|3:2,0:0:0:0:
346,323,72357,2,0,L|335:243,1,80,2|0,3:2|3:2,0:0:0:0:
247,249,72972,2,0,P|207:272|99:233,1,160,6|2,3:2|3:2,0:0:0:0:
48,172,73895,1,2,3:2:0:0:
256,192,74203,12,0,75433,2:0:0:0:
256,235,76664,6,0,B|308:233|336:203|336:203|382:210|421:190,1,160,6|0,3:2|3:2,0:0:0:0:
485,157,77587,1,8,2:0:0:0:
406,114,77895,2,0,B|381:100|336:107|336:107|307:77|255:75,1,160,0|2,3:2|3:2,0:0:0:0:
168,69,78818,1,10,2:0:0:0:
132,150,79126,6,0,P|105:206|112:235,1,80,2|8,3:2|2:0,0:0:0:0:
72,302,79741,2,0,P|133:309|158:293,1,80,0|8,3:2|2:0,0:0:0:0:
222,254,80357,2,0,P|235:303|227:349,2,80,0|8|2,3:2|2:0|3:2,0:0:0:0:
226,166,81280,1,10,2:0:0:0:
313,176,81587,6,0,P|387:191|452:114,1,160,4|0,3:2|3:2,0:0:0:0:
467,54,82510,1,8,2:0:0:0:
378,50,82818,2,0,P|348:39|293:46,1,80,0|8,3:2|2:0,0:0:0:0:
233,99,83433,2,0,L|142:89,1,80,2|8,3:2|2:0,0:0:0:0:
94,155,84049,6,0,P|72:113|71:66,2,80,12|12|12,2:0|2:0|2:0,0:0:0:0:
140,230,84972,1,12,2:0:0:0:
221,263,85280,2,0,P|194:304|154:328,2,80,4|0|0,3:2|3:2|3:2,0:0:0:0:
309,270,86203,1,8,2:3:0:0:
383,224,86510,6,0,B|384:146|384:146|327:64|327:64|423:103|500:44,1,360,4|0,3:2|2:0,0:0:0:0:
