osu file format v14

[General]
AudioFilename: audio.mp3
AudioLeadIn: 0
PreviewTime: 60124
Countdown: 0
SampleSet: Soft
StackLeniency: 0.9
Mode: 0
LetterboxInBreaks: 0
WidescreenStoryboard: 1

[Editor]
DistanceSpacing: 1.4
BeatDivisor: 4
GridSize: 4
TimelineZoom: 2.9

[Metadata]
Title:Kore Seishun Understand feat. sana
TitleUnicode:これ青春アンダースタンド feat. sana
Artist:CHiCO with HoneyWorks
ArtistUnicode:CHiCO with HoneyWorks
Creator:kanor
Version:Hard
Source:
Tags:yugu lobelia sandrew 告白実行委員会〜恋愛シリーズ〜 kokuhaku ハニワ ハルヨシ
BeatmapID:1702168
BeatmapSetID:808621

[Difficulty]
HPDrainRate:5
CircleSize:4
OverallDifficulty:7
ApproachRate:8
SliderMultiplier:1.4
SliderTickRate:1

[Events]
//Background and Video events
0,0,"chico.jpg",0,0
//Break Periods
2,85315,89365
2,98172,105794
2,239172,240390
//Storyboard Layer 0 (Background)
//Storyboard Layer 1 (Fail)
//Storyboard Layer 2 (Pass)
//Storyboard Layer 3 (Foreground)
//Storyboard Sound Samples

[TimingPoints]
830,357.142857142857,4,2,1,60,1,0
830,-133.333333333333,4,2,1,60,0,0
6544,-100,4,2,1,70,0,0
19043,-100,4,2,1,5,0,0
19401,-133.333333333333,4,2,1,70,0,0
30829,-100,4,2,1,70,0,0
42258,-100,4,2,2,70,0,0
53151,-100,4,2,1,70,0,0
120829,-100,4,2,2,70,0,0
131722,-100,4,2,1,70,0,0
163687,500,4,2,3,60,1,0
189687,357.142857142857,4,2,1,60,1,0
233972,-133.333333333333,4,2,1,60,0,0
240222,340.909090909091,4,2,1,100,1,0
241140,340.909090909091,4,2,1,100,1,0
242887,306.122448979592,4,2,1,100,1,0
243193,294.117647058824,4,2,1,100,1,0
243487,472.44094488189,4,2,1,100,1,0
243959,571.428571428571,4,2,1,100,1,0
244530,740.740740740741,4,2,1,100,1,0
246505,821.917808219178,4,2,1,100,1,0
246710,571.428571428571,4,2,1,100,1,0

[Colours]
Combo1 : 192,64,192
Combo2 : 255,64,64
Combo3 : 255,128,64
Combo4 : 255,255,96
Combo5 : 96,255,64
Combo6 : 0,128,255

[HitObjects]
102,44,830,6,0,P|146:40|178:12,2,78.7500030040742,0|0|8,0:0|0:0|0:0,0:0:0:0:
38,81,1544,2,0,L|30:178,1,78.7500030040742,0|0,0:0|0:0,0:0:0:0:
27,269,2079,2,8,L|33:224,1,26.2500010013581
63,226,2258,6,0,L|133:235,1,52.5000020027161,8|8,0:0|0:0,0:0:0:0:
101,305,2615,2,0,L|171:314,1,52.5000020027161,8|8,0:0|0:0,0:0:0:0:
224,293,2972,2,0,P|224:323|210:358,3,52.5000020027161,0|4|0|0,0:0|0:3|0:0|0:0,0:0:0:0:
291,353,3687,6,0,P|297:307|292:270,2,78.7500030040742,0|0|8,0:0|0:0|0:0,0:0:0:0:
362,369,4401,2,0,L|459:361,1,78.7500030040742,0|0,0:0|0:0,0:0:0:0:
489,263,4937,2,8,L|495:218,1,26.2500010013581
492,199,5115,6,0,L|422:190,1,52.5000020027161,8|0,0:0|0:0,0:0:0:0:
454,120,5472,2,0,L|384:111,1,52.5000020027161,8|0,0:0|0:0,0:0:0:0:
329,127,5829,2,0,P|329:97|343:62,3,52.5000020027161,0|0|0|0,0:0|0:0|0:0|0:0,0:0:0:0:
414,21,6544,6,0,B|370:33|370:33|257:24,1,140,4|8,0:0|0:0,0:0:0:0:
187,43,7079,1,2,0:0:0:0:
187,43,7258,2,0,P|203:94|187:142,1,105,0|0,0:0|0:0,0:0:0:0:
187,141,7615,2,0,L|113:133,1,70,8|2,0:0|0:0,0:0:0:0:
35,173,7972,6,0,P|19:224|35:272,1,105,0|0,0:0|0:0,0:0:0:0:
35,271,8329,2,0,L|109:263,1,70,8|2,0:0|0:0,0:0:0:0:
165,331,8687,1,4,0:0:0:0:
165,331,9044,1,4,0:0:0:0:
165,331,9401,6,0,B|205:313|205:313|320:348,1,140,4|8,0:0|0:0,0:0:0:0:
386,355,9937,1,2,0:0:0:0:
386,355,10115,2,0,B|455:353|455:353|491:322,1,105,0|0,0:0|0:0,0:0:0:0:
481,330,10472,2,0,L|469:250,1,70,8|2,0:0|0:0,0:0:0:0:
382,235,10829,6,0,B|312:233|312:233|277:202,1,105,0|0,0:0|0:0,0:0:0:0:
287,210,11187,2,0,L|299:130,1,70,8|2,0:0|0:0,0:0:0:0:
363,78,11544,1,0,0:0:0:0:
453,89,11722,1,8,0:1:0:0:
453,89,11901,1,8,0:1:0:0:
297,140,12258,6,0,B|211:164|244:112|152:135,1,140,4|8,0:0|0:0,0:0:0:0:
180,208,12794,1,2,0:0:0:0:
188,204,12972,2,0,B|196:260|196:260|180:320,1,105,0|0,0:0|0:0,0:0:0:0:
183,306,13329,2,0,P|147:314|99:298,1,70,8|2,0:0|0:0,0:0:0:0:
26,285,13687,6,0,B|18:229|18:229|34:169,1,105,0|0,0:0|0:0,0:0:0:0:
31,183,14044,2,0,P|67:175|115:191,1,70,8|2,0:0|0:0,0:0:0:0:
158,112,14401,1,4,0:0:0:0:
158,112,14758,1,4,0:0:0:0:
158,112,15115,6,0,B|240:91|207:143|293:119,1,140,4|8,0:0|0:0,0:0:0:0:
268,48,15651,1,2,0:0:0:0:
268,48,15829,2,0,B|320:36|320:36|384:44,1,105,0|0,0:0|0:0,0:0:0:0:
371,42,16187,2,0,B|411:50|411:50|459:34,1,70,8|2,0:0|0:0,0:0:0:0:
502,105,16544,5,0,0:0:0:0:
443,174,16722,2,0,L|442:238,2,35,0|0|0,0:3|0:3|0:0,0:0:0:0:
500,264,17079,2,0,L|500:298,2,35,0|0|0,0:0|0:0|0:0,0:0:0:0:
436,352,17437,1,8,0:0:0:0:
436,352,17615,1,8,0:0:0:0:
256,192,17972,12,0,19044,0:0:0:0:
216,350,19401,6,0,L|92:358,1,105.000004005432,4|8,0:0|0:0,0:0:0:0:
44,328,19937,1,2,0:0:0:0:
44,328,20115,2,0,P|24:276|48:220,1,105.000004005432,0|8,0:0|0:0,0:0:0:0:
90,178,20651,1,2,0:0:0:0:
90,178,20829,6,0,P|110:126|86:70,1,105.000004005432,0|8,0:0|0:0,0:0:0:0:
88,8,21365,1,2,0:0:0:0:
88,8,21544,2,0,L|153:19,1,52.5000020027161,0|2,0:0|0:0,0:0:0:0:
202,55,21901,2,0,L|267:44,1,52.5000020027161,8|2,0:0|0:0,0:0:0:0:
400,16,22258,6,0,L|384:132,1,105.000004005432,0|8,0:0|0:0,0:0:0:0:
472,44,22794,1,2,0:0:0:0:
472,44,22972,2,0,L|456:160,1,105.000004005432,0|8,0:0|0:0,0:0:0:0:
504,216,23508,1,2,0:0:0:0:
504,216,23687,6,0,P|512:252|504:288,1,52.5000020027161,0|2,0:0|0:0,0:0:0:0:
444,300,24044,2,0,P|436:264|444:228,1,52.5000020027161,8|2,0:0|0:0,0:0:0:0:
384,197,24401,2,0,P|370:219|364:244,2,52.5000020027161,0|2|8,0:0|0:0|0:0,0:0:0:0:
335,335,25115,6,0,P|293:306|231:313,1,105.000004005432,0|8,0:0|0:0,0:0:0:0:
270,376,25651,1,2,0:0:0:0:
270,376,25829,2,0,B|218:383|218:383|146:359,1,105.000004005432,0|8,0:0|0:0,0:0:0:0:
88,364,26365,1,2,0:0:0:0:
88,364,26544,6,0,B|104:314|104:314|97:262,1,105.000004005432,0|8,0:0|0:0,0:0:0:0:
28,232,27079,1,2,0:0:0:0:
28,232,27258,2,0,L|44:172,1,52.5000020027161,0|2,0:0|0:0,0:0:0:0:
8,112,27615,2,0,L|24:52,1,52.5000020027161,8|2,0:0|0:0,0:0:0:0:
144,48,27972,6,0,B|127:102|127:102|144:164,1,105.000004005432,0|8,0:0|0:0,0:0:0:0:
208,172,28508,1,2,0:0:0:0:
208,172,28687,2,0,P|264:156|324:180,1,105.000004005432,0|8,0:0|0:0,0:0:0:0:
380,204,29222,1,2,0:0:0:0:
504,136,29401,5,0,0:0:0:0:
432,112,29579,2,0,L|436:72,2,26.2500010013581,2|0|0,0:0|0:0|0:0,0:0:0:0:
380,204,29937,2,0,L|384:164,2,26.2500010013581,2|0|0,0:0|0:0|0:0,0:0:0:0:
320,288,30294,1,2,0:0:0:0:
320,288,30383,1,0,0:0:0:0:
320,288,30472,2,0,L|324:248,3,26.2500010013581,10|8|10|8,0:0|0:0|0:0|0:0,0:0:0:0:
340,312,30829,6,0,B|428:292|428:292|480:312,1,140,4|8,0:0|0:0,0:0:0:0:
420,368,31365,1,2,0:0:0:0:
420,368,31544,2,0,B|332:388|332:388|280:368,1,140,0|8,0:0|0:0,0:0:0:0:
228,316,32079,1,2,0:0:0:0:
228,316,32258,6,0,P|152:340|100:308,1,140,0|8,0:0|0:0,0:0:0:0:
32,328,32794,1,2,0:0:0:0:
32,328,32972,2,0,P|30:289|52:260,1,70,0|2,0:0|0:0,0:0:0:0:
12,200,33329,2,0,P|49:188|85:203,1,70,8|2,0:0|0:0,0:0:0:0:
208,132,33687,6,0,L|376:112,1,140,0|8,0:0|0:0,0:0:0:0:
356,40,34222,1,2,0:0:0:0:
356,40,34401,2,0,L|216:56,1,140,0|8,0:0|0:0,0:0:0:0:
208,132,34937,1,2,0:0:0:0:
208,132,35115,6,0,P|206:171|228:200,1,70,0|2,0:0|0:0,0:0:0:0:
188,260,35472,2,0,P|225:271|261:256,1,70,8|2,0:0|0:0,0:0:0:0:
316,296,35829,2,0,P|327:258|312:222,2,70,0|2|8,0:0|0:0|0:0,0:0:0:0:
464,352,36544,6,0,P|436:280|472:220,1,140,0|8,0:0|0:0,0:0:0:0:
512,288,37079,1,2,0:0:0:0:
512,288,37258,2,0,P|484:216|520:156,1,140,0|8,0:0|0:0,0:0:0:0:
496,96,37794,1,2,0:0:0:0:
496,96,37972,6,0,P|488:64|496:24,1,70,0|2,0:0|0:0,0:0:0:0:
424,0,38329,2,0,P|400:22|361:36,1,70,8|2,0:0|0:0,0:0:0:0:
368,112,38687,2,0,P|399:121|430:148,1,70,0|2,0:0|0:0,0:0:0:0:
368,188,39044,1,8,0:0:0:0:
368,188,39222,1,2,0:0:0:0:
292,72,39401,6,0,B|212:44|236:100|140:56,1,140,0|8,0:0|0:0,0:0:0:0:
84,32,39937,1,2,0:0:0:0:
84,32,40115,2,0,P|48:24|4:32,1,70,0|2,0:0|0:0,0:0:0:0:
44,100,40472,2,0,P|19:127|4:169,1,70,8|2,0:0|0:0,0:0:0:0:
28,232,40829,5,0,0:0:0:0:
84,172,41008,1,10,0:0:0:0:
84,172,41097,1,8,0:0:0:0:
84,172,41187,2,0,L|176:168,1,70,8|2,0:0|0:0,0:0:0:0:
216,216,41544,1,0,0:0:0:0:
168,280,41722,2,0,L|168:328,2,35,2|0|2,0:0|0:0|0:0,0:0:0:0:
216,216,42079,1,0,0:0:0:0:
228,360,42258,6,0,P|263:370|299:358,1,70,4|0,0:0|0:0,0:0:0:0:
376,308,42615,2,0,L|372:260,3,35,0|0|0|0,0:0|0:0|0:0|0:0,0:0:0:0:
400,248,42972,1,0,0:0:0:0:
400,248,43062,2,0,P|435:238|471:250,1,70,0|0,0:0|0:0,0:0:0:0:
488,256,43329,2,0,L|496:164,1,70,10|0,0:0|0:0,0:0:0:0:
488,72,43687,6,0,L|484:112,2,35,4|0|0,0:0|0:0|0:0,0:0:0:0:
344,20,44044,2,0,L|392:16,3,35,0|0|0|0,0:0|0:0|0:0|0:0,0:0:0:0:
320,32,44401,1,0,0:0:0:0:
319,52,44490,1,0,0:0:0:0:
318,73,44579,1,2,0:0:0:0:
317,94,44669,1,0,0:0:0:0:
316,116,44758,2,0,P|264:116|236:100,1,70,10|0,0:0|0:0,0:0:0:0:
120,40,45115,6,0,B|40:24|40:24|40:64,1,105,4|0,0:0|0:0,0:0:0:0:
40,47,45472,2,0,B|28:84|28:84|36:131,1,70,0|8,0:0|0:0,0:0:0:0:
16,188,45829,1,0,0:0:0:0:
16,188,46187,1,10,0:0:0:0:
24,268,46365,1,0,0:0:0:0:
24,268,46454,1,0,0:0:0:0:
24,268,46544,6,0,L|108:264,1,70,0|4,0:0|0:3,0:0:0:0:
160,320,46901,2,0,L|244:324,1,70,8|4,0:0|0:3,0:0:0:0:
316,256,47258,2,0,L|400:252,1,70,0|4,0:0|0:3,0:0:0:0:
460,360,47615,1,10,0:0:0:0:
508,296,47794,1,10,0:0:0:0:
508,296,47883,1,8,0:0:0:0:
508,296,47972,6,0,P|516:256|504:220,1,70,4|0,0:0|0:0,0:0:0:0:
468,156,48329,2,0,L|470:121,3,35,0|0|0|0,0:0|0:0|0:0|0:0,0:0:0:0:
468,96,48687,2,0,B|424:104|424:104|380:88,1,70,0|0,0:0|0:0,0:0:0:0:
344,40,49044,2,0,B|300:32|300:32|256:48,1,70,10|0,0:0|0:0,0:0:0:0:
160,120,49401,6,0,L|148:228,1,105,4|0,0:0|0:0,0:0:0:0:
144,248,49758,1,0,0:0:0:0:
72,280,49937,2,0,L|24:288,2,35,0|0|0,0:0|0:0|0:0,0:0:0:0:
64,356,50294,2,0,L|98:361,1,35,2|0,0:0|0:0,0:0:0:0:
128,368,50472,2,0,B|180:372|180:372|220:352,1,70,10|0,0:0|0:0,0:0:0:0:
264,248,50829,6,0,L|256:340,1,70,4|0,0:0|0:0,0:0:0:0:
316,368,51187,2,0,B|331:375|331:375|383:371,1,70,0|8,0:0|0:0,0:0:0:0:
444,328,51544,1,0,0:0:0:0:
508,376,51722,1,2,0:0:0:0:
444,328,51901,2,0,L|436:236,1,70,8|0,0:0|0:0,0:0:0:0:
480,144,52258,6,0,P|492:112|486:74,1,70,0|4,0:0|0:3,0:0:0:0:
492,4,52615,2,0,P|458:9|428:33,1,70,8|4,0:0|0:3,0:0:0:0:
416,104,52972,2,0,L|346:97,1,70,0|8,0:0|0:0,0:0:0:0:
328,76,53240,1,8,0:0:0:0:
328,76,53329,2,0,L|332:20,2,35,8|8|8,0:0|0:0|0:0,0:0:0:0:
272,208,53687,6,0,B|274:252|274:252|256:292,1,70,4|0,0:0|0:0,0:0:0:0:
200,200,54044,2,0,B|202:244|202:244|184:284,1,70,8|2,0:0|0:0,0:0:0:0:
128,188,54401,2,0,B|130:232|130:232|112:272,1,70,0|2,0:0|0:0,0:0:0:0:
144,328,54758,1,8,0:0:0:0:
144,328,54937,1,2,0:0:0:0:
47,243,55115,6,0,B|57:219|57:219|55:175,1,70,0|2,0:0|0:0,0:0:0:0:
119,255,55472,2,0,B|129:231|129:231|127:187,1,70,8|2,0:0|0:0,0:0:0:0:
191,263,55829,2,0,B|201:239|201:239|199:195,1,70,0|0,0:0|0:0,0:0:0:0:
232,128,56187,2,0,P|260:136|304:132,1,70,8|2,0:0|0:0,0:0:0:0:
416,56,56544,6,0,P|444:48|488:52,1,70,0|2,0:0|0:0,0:0:0:0:
480,140,56901,2,0,P|445:143|411:134,1,70,8|2,0:0|0:0,0:0:0:0:
356,192,57258,2,0,L|356:284,1,70,0|0,0:0|0:0,0:0:0:0:
376,332,57615,2,0,L|432:328,3,35,8|8|8|8,0:0|0:0|0:0|0:0,0:0:0:0:
348,344,57972,1,4,0:0:0:0:
256,192,58062,12,2,60115,0:3:0:0:
8,72,60829,6,0,B|89:29|57:99|156:37,1,140,4|8,0:0|0:0,0:0:0:0:
212,8,61365,1,2,0:0:0:0:
212,8,61544,2,0,B|220:56|220:56|208:92|208:92|214:144,1,140,0|8,0:0|0:0,0:0:0:0:
272,192,62079,1,2,0:0:0:0:
272,192,62258,6,0,P|308:200|356:184,1,70,0|2,0:0|0:0,0:0:0:0:
408,156,62615,2,0,P|416:120|400:72,1,70,8|2,0:0|0:0,0:0:0:0:
440,24,62972,2,0,P|406:18|373:26,2,70,0|0|8,0:0|0:0|0:0,0:0:0:0:
488,160,63687,6,0,B|480:208|480:208|508:308,2,140,0|8|0,0:0|0:0|0:0,0:0:0:0:
420,276,64758,1,8,0:0:0:0:
292,232,65115,6,0,P|280:280|296:336,1,105,8|0,0:0|0:0,0:0:0:0:
304,352,65472,2,0,L|224:340,1,70,8|0,0:0|0:0,0:0:0:0:
156,352,65829,2,0,L|76:340,3,70,2|0|0|0,0:0|0:0|0:0|0:0,0:0:0:0:
8,240,66544,6,0,P|80:256|140:208,1,140,4|8,0:0|0:0,0:0:0:0:
168,156,67079,1,2,0:0:0:0:
168,156,67258,2,0,P|240:140|300:188,1,140,0|8,0:0|0:0,0:0:0:0:
224,216,67794,1,2,0:0:0:0:
224,216,67972,6,0,L|232:296,1,70,0|2,0:0|0:0,0:0:0:0:
308,256,68329,2,0,L|316:336,1,70,8|2,0:0|0:0,0:0:0:0:
392,296,68687,2,0,L|400:376,2,70,0|0|8,0:0|0:0|0:0,0:0:0:0:
504,156,69401,6,0,B|456:164|456:164|356:136,2,140,0|8|0,0:0|0:0|0:0,0:0:0:0:
420,12,70472,1,8,0:0:0:0:
364,64,70651,1,2,0:0:0:0:
300,112,70829,6,0,P|264:120|220:104,1,70,0|8,0:0|0:0,0:0:0:0:
208,96,71097,1,8,0:0:0:0:
208,96,71187,1,8,0:0:0:0:
160,36,71365,1,0,0:0:0:0:
96,84,71544,1,0,0:0:0:0:
24,48,71722,1,8,0:1:0:0:
24,48,71901,1,8,0:1:0:0:
32,216,72258,6,0,L|44:320,1,105,0|8,0:0|0:0,0:0:0:0:
52,344,72615,2,0,P|88:356|128:332,1,70,8|0,0:0|0:0,0:0:0:0:
180,304,72972,2,0,L|192:199,1,105,2|8,0:0|0:0,0:0:0:0:
200,176,73329,2,0,P|236:164|276:188,1,70,10|0,0:0|0:0,0:0:0:0:
320,228,73687,6,0,L|332:332,1,105,2|8,0:0|0:0,0:0:0:0:
340,356,74044,2,0,P|376:368|416:344,1,70,10|0,0:0|0:0,0:0:0:0:
472,320,74401,2,0,L|484:236,1,70,2|8,0:0|0:0,0:0:0:0:
444,184,74758,2,0,L|424:92,1,70,2|8,0:0|0:0,0:0:0:0:
496,32,75115,6,0,B|476:64|476:64|416:80|416:80|356:56,1,140,2|10,0:0|0:0,0:0:0:0:
320,24,75651,1,0,0:0:0:0:
320,24,75829,2,0,B|300:56|300:56|240:72|240:72|180:48,1,140,2|10,0:0|0:0,0:0:0:0:
136,24,76365,1,0,0:0:0:0:
68,56,76544,6,0,L|52:108,3,35,8|8|8|8,0:0|0:0|0:0|0:0,0:0:0:0:
60,120,76901,2,0,L|76:172,3,35,8|8|8|8,0:0|0:0|0:0|0:0,0:0:0:0:
72,180,77258,2,0,L|56:232,3,35,8|8|8|8,0:0|0:0|0:0|0:0,0:0:0:0:
56,244,77615,1,8,0:0:0:0:
76,243,77704,1,8,0:0:0:0:
97,242,77794,1,8,0:0:0:0:
118,241,77883,1,8,0:0:0:0:
156,220,77972,6,0,L|140:308,1,70,4|8,0:0|0:0,0:0:0:0:
212,332,78329,2,0,L|224:263,1,70,0|8,0:0|0:0,0:0:0:0:
304,248,78687,2,0,L|288:336,1,70,0|8,0:0|0:0,0:0:0:0:
360,360,79044,2,0,L|372:291,1,70,0|8,0:0|0:0,0:0:0:0:
436,248,79401,6,0,L|524:264,1,70,0|8,0:0|0:0,0:0:0:0:
504,180,79758,2,0,L|435:167,1,70,0|8,0:0|0:0,0:0:0:0:
356,168,80115,1,0,0:0:0:0:
392,100,80294,1,8,0:0:0:0:
368,24,80472,1,0,0:0:0:0:
368,24,80651,1,8,0:0:0:0:
228,92,80829,6,0,B|184:100|184:100|100:80,1,105,0|8,0:0|0:0,0:0:0:0:
104,80,81187,2,0,B|56:68|56:68|20:76,1,70,8|0,0:0|0:0,0:0:0:0:
16,156,81544,2,0,B|60:148|60:148|144:168,1,105,0|8,0:0|0:0,0:0:0:0:
140,168,81901,2,0,B|188:180|188:180|224:172,1,70,8|0,0:0|0:0,0:0:0:0:
232,248,82258,6,0,B|176:256|176:256|80:232,2,140,4|4|4,0:0|0:0|0:0,0:0:0:0:
8,288,83687,5,0,0:0:0:0:
8,288,84044,1,0,0:0:0:0:
8,288,84401,2,8,L|20:368,1,70,8|8,0:0|0:0,0:0:0:0:
96,376,84758,1,8,0:0:0:0:
176,360,84937,1,8,0:0:0:0:
232,300,85115,1,4,0:0:0:0:
20,128,90115,5,8,0:0:0:0:
98,21,90472,5,0,0:0:0:0:
98,21,90651,1,0,0:0:0:0:
98,21,90829,2,0,B|142:33|142:33|255:24,1,140,4|8,0:0|0:0,0:0:0:0:
325,43,91365,1,2,0:0:0:0:
325,43,91544,2,0,P|309:94|325:142,1,105,0|0,0:0|0:0,0:0:0:0:
325,141,91901,2,0,L|399:133,1,70,8|2,0:0|0:0,0:0:0:0:
477,173,92258,6,0,P|493:224|477:272,1,105,0|0,0:0|0:0,0:0:0:0:
477,271,92615,2,0,L|403:263,1,70,8|2,0:0|0:0,0:0:0:0:
347,331,92972,1,4,0:0:0:0:
347,331,93329,1,4,0:0:0:0:
347,331,93687,6,0,B|307:313|307:313|192:348,1,140,4|8,0:0|0:0,0:0:0:0:
126,355,94222,1,2,0:0:0:0:
126,355,94401,2,0,B|57:353|57:353|21:322,1,105,0|0,0:0|0:0,0:0:0:0:
31,330,94758,2,0,L|43:250,1,70,8|2,0:0|0:0,0:0:0:0:
130,235,95115,6,0,B|200:233|200:233|235:202,1,105,0|0,0:0|0:0,0:0:0:0:
225,210,95472,2,0,L|213:130,1,70,0|0,0:0|0:0,0:0:0:0:
149,78,95829,1,0,0:0:0:0:
59,89,96008,1,8,0:0:0:0:
59,89,96187,1,8,0:0:0:0:
256,192,96365,12,0,97972,0:0:0:0:
256,192,106544,12,2,107972,0:3:0:0:
172,312,109401,6,0,B|84:292|84:292|32:312,1,140,4|8,0:0|0:0,0:0:0:0:
92,368,109937,1,2,0:0:0:0:
92,368,110115,2,0,B|180:388|180:388|232:368,1,140,0|8,0:0|0:0,0:0:0:0:
284,316,110651,1,2,0:0:0:0:
284,316,110829,6,0,P|360:340|412:308,1,140,0|8,0:0|0:0,0:0:0:0:
480,328,111365,1,2,0:0:0:0:
480,328,111544,2,0,P|482:289|460:260,1,70,0|2,0:0|0:0,0:0:0:0:
500,200,111901,2,0,P|463:188|427:203,1,70,8|2,0:0|0:0,0:0:0:0:
304,132,112258,6,0,L|136:112,1,140,0|8,0:0|0:0,0:0:0:0:
156,40,112794,1,2,0:0:0:0:
156,40,112972,2,0,L|296:56,1,140,0|8,0:0|0:0,0:0:0:0:
304,132,113508,1,2,0:0:0:0:
356,188,113687,5,8,0:0:0:0:
353,205,113776,1,8,0:0:0:0:
350,222,113865,1,8,0:0:0:0:
347,239,113954,1,8,0:0:0:0:
344,256,114044,1,8,0:0:0:0:
424,260,114222,1,2,0:0:0:0:
376,320,114401,2,0,P|338:331|302:316,2,70,0|0|0,0:0|0:0|0:0,0:0:0:0:
208,360,115115,6,0,P|236:288|200:228,1,140,4|8,0:0|0:0,0:0:0:0:
160,172,115651,1,2,0:0:0:0:
160,172,115829,2,0,P|132:244|168:304,1,140,0|8,0:0|0:0,0:0:0:0:
208,360,116365,1,2,0:0:0:0:
208,360,116544,6,0,P|179:376|136:376,1,70,0|2,0:0|0:0,0:0:0:0:
84,332,116901,2,0,P|49:333|18:349,1,70,8|2,0:0|0:0,0:0:0:0:
12,264,117258,2,0,L|16:168,1,70,0|2,0:0|0:0,0:0:0:0:
44,124,117615,1,8,0:0:0:0:
44,124,117794,1,2,0:0:0:0:
200,44,117972,6,0,B|280:16|256:72|352:28,1,140,0|8,0:0|0:0,0:0:0:0:
408,4,118508,1,2,0:0:0:0:
408,4,118687,2,0,P|444:-4|488:4,1,70,0|2,0:0|0:0,0:0:0:0:
448,68,119044,2,0,P|473:95|476:132,1,70,8|2,0:0|0:0,0:0:0:0:
392,204,119401,5,0,0:0:0:0:
408,128,119579,1,10,0:0:0:0:
408,128,119669,1,8,0:0:0:0:
408,128,119758,2,0,L|316:124,1,70,8|2,0:0|0:0,0:0:0:0:
272,164,120115,1,2,0:0:0:0:
204,128,120294,2,0,L|156:128,2,35,0|0|0,0:0|0:0|0:0,0:0:0:0:
272,164,120651,1,0,0:0:0:0:
224,224,120829,6,0,L|248:265,2,35,4|0|0,0:0|0:0|0:0,0:0:0:0:
156,260,121187,1,8,0:0:0:0:
148,332,121365,2,0,L|172:373,2,35
176,340,121633,2,0,P|216:332|256:344,1,70
316,324,121901,1,8,0:0:0:0:
335,317,121990,1,0,0:0:0:0:
356,316,122079,1,0,0:0:0:0:
377,319,122169,1,0,0:0:0:0:
404,332,122258,6,0,L|488:328,1,70,6|0,0:0|0:0,0:0:0:0:
496,208,122615,2,0,L|508:160,3,35,8|0|0|0,0:0|0:0|0:0|0:0,0:0:0:0:
500,136,122972,2,0,L|488:88,3,35,2|0|0|0,0:0|0:0|0:0|0:0,0:0:0:0:
488,68,123329,2,0,L|396:64,1,70,8|0,0:0|0:0,0:0:0:0:
292,120,123687,6,0,B|212:136|212:136|212:96,1,105,4|0,0:0|0:0,0:0:0:0:
212,113,124044,2,0,B|200:76|200:76|208:29,1,70,2|8,0:0|0:0,0:0:0:0:
120,0,124401,2,0,B|132:37|132:37|124:84,1,70,0|0,0:0|0:0,0:0:0:0:
56,44,124758,1,8,0:0:0:0:
64,124,124937,1,0,0:0:0:0:
64,124,125026,1,0,0:0:0:0:
64,124,125115,6,0,L|68:208,1,70,0|2,0:0|0:3,0:0:0:0:
156,188,125472,2,0,L|152:272,1,70,8|2,0:0|0:3,0:0:0:0:
60,288,125829,2,0,L|64:372,1,70,0|2,0:0|0:3,0:0:0:0:
140,384,126187,1,8,0:0:0:0:
212,336,126365,1,8,0:0:0:0:
212,336,126454,1,8,0:0:0:0:
212,336,126544,6,0,P|252:332|292:348,1,70,4|0,0:0|0:0,0:0:0:0:
356,360,126901,2,0,L|364:308,3,35,8|0|0|0,0:0|0:0|0:0|0:0,0:0:0:0:
380,376,127258,2,0,P|420:380|460:364,1,70,2|0,0:0|0:0,0:0:0:0:
472,344,127526,1,0,0:0:0:0:
472,344,127615,2,0,L|484:252,1,70,8|0,0:0|0:0,0:0:0:0:
480,144,127972,6,0,L|412:136,3,35,4|0|0|0,0:0|0:0|0:0|0:0,0:0:0:0:
416,152,128329,2,0,L|348:160,3,35,8|0|0|0,0:0|0:0|0:0|0:0,0:0:0:0:
352,140,128687,2,0,L|284:132,3,35,2|0|0|0,0:0|0:0|0:0|0:0,0:0:0:0:
280,128,129044,2,0,B|288:92|288:92|272:56,1,70,8|0,0:0|0:0,0:0:0:0:
212,172,129401,6,0,L|220:264,1,70,4|0,0:0|0:0,0:0:0:0:
248,312,129758,2,0,B|233:319|233:319|181:315,1,70,2|8,0:0|0:0,0:0:0:0:
100,312,130115,1,2,0:0:0:0:
36,360,130294,1,0,0:0:0:0:
100,312,130472,2,0,L|108:220,1,70,8|0,0:0|0:0,0:0:0:0:
28,140,130829,6,0,P|16:108|22:70,1,70,0|2,0:0|0:3,0:0:0:0:
16,0,131187,2,0,P|50:5|80:29,1,70,8|2,0:0|0:3,0:0:0:0:
92,100,131544,2,0,L|162:93,1,70,0|8,0:0|0:0,0:0:0:0:
180,72,131812,1,8,0:0:0:0:
180,72,131901,2,0,L|176:16,2,35,8|8|8,0:0|0:0|0:0,0:0:0:0:
300,52,132258,6,0,P|346:54|380:84,1,70,4|0,0:0|0:0,0:0:0:0:
404,4,132615,2,0,P|434:38|437:83,1,70,8|2,0:0|0:0,0:0:0:0:
512,44,132972,2,0,P|509:90|479:124,1,70,0|2,0:0|0:0,0:0:0:0:
420,136,133329,1,8,0:0:0:0:
420,136,133508,1,2,0:0:0:0:
497,109,133687,6,0,P|513:78|512:44,1,70,0|2,0:0|0:0,0:0:0:0:
440,60,134044,2,0,P|429:27|404:4,1,70,8|2,0:0|0:0,0:0:0:0:
365,66,134401,2,0,P|334:50|300:52,1,70,0|2,0:0|0:0,0:0:0:0:
320,124,134758,2,0,P|287:134|263:160,1,70,8|2,0:0|0:0,0:0:0:0:
240,276,135115,6,0,P|255:306|254:341,1,70,0|2,0:0|0:0,0:0:0:0:
182,325,135472,2,0,P|171:357|145:381,1,70,8|2,0:0|0:0,0:0:0:0:
111,315,135829,2,0,P|80:330|45:329,1,70,0|0,0:0|0:0,0:0:0:0:
66,257,136187,2,0,L|80:208,3,35,8|8|8|8,0:0|0:0|0:0|0:0,0:0:0:0:
40,256,136544,1,4,0:0:0:0:
256,192,136722,12,2,138687,0:3:0:0:
504,364,139401,6,0,B|423:321|455:391|356:329,1,140,4|8,0:0|0:0,0:0:0:0:
300,376,139937,1,2,0:0:0:0:
300,376,140115,2,0,B|292:328|292:328|304:292|304:292|298:240,1,140,0|8,0:0|0:0,0:0:0:0:
240,192,140651,1,2,0:0:0:0:
240,192,140829,6,0,P|204:184|156:200,1,70,0|2,0:0|0:0,0:0:0:0:
104,228,141187,2,0,P|96:264|112:312,1,70,8|2,0:0|0:0,0:0:0:0:
69,362,141544,2,0,P|103:368|136:360,2,70,0|0|8,0:0|0:0|0:0,0:0:0:0:
24,224,142258,6,0,B|32:176|32:176|4:76,2,140,0|8|0,0:0|0:0|0:0,0:0:0:0:
92,108,143329,1,8,0:0:0:0:
220,152,143687,2,0,P|232:104|216:48,1,105,8|0,0:0|0:0,0:0:0:0:
208,32,144044,2,0,L|288:44,1,70,8|0,0:0|0:0,0:0:0:0:
356,32,144401,2,0,L|436:44,3,70,2|0|0|0,0:0|0:0|0:0|0:0,0:0:0:0:
504,144,145115,6,0,P|432:128|372:176,1,140,4|8,0:0|0:0,0:0:0:0:
344,228,145651,1,2,0:0:0:0:
344,228,145829,2,0,P|272:244|212:196,1,140,0|8,0:0|0:0,0:0:0:0:
288,168,146365,1,2,0:0:0:0:
288,168,146544,6,0,L|280:88,1,70,0|2,0:0|0:0,0:0:0:0:
204,128,146901,2,0,L|196:48,1,70,8|2,0:0|0:0,0:0:0:0:
120,88,147258,2,0,L|112:8,2,70,0|0|8,0:0|0:0|0:0,0:0:0:0:
8,228,147972,6,0,B|56:220|56:220|156:248,2,140,0|8|0,0:0|0:0|0:0,0:0:0:0:
92,372,149044,1,8,0:0:0:0:
148,320,149222,1,2,0:0:0:0:
212,272,149401,2,0,P|248:264|292:280,1,70,0|8,0:0|0:0,0:0:0:0:
304,288,149669,1,8,0:0:0:0:
304,288,149758,1,8,0:0:0:0:
352,348,149937,1,0,0:0:0:0:
416,300,150115,1,2,0:0:0:0:
488,336,150294,1,8,0:1:0:0:
488,336,150472,1,8,0:1:0:0:
480,168,150829,6,0,P|460:112|480:56,1,105,4|8,0:0|0:0,0:0:0:0:
472,40,151187,2,0,L|396:52,1,70,8|0,0:0|0:0,0:0:0:0:
344,0,151544,2,0,P|324:56|344:112,1,105,0|8,0:0|0:0,0:0:0:0:
336,128,151901,2,0,L|260:116,1,70,8|0,0:0|0:0,0:0:0:0:
212,172,152258,6,0,P|192:116|212:60,1,105,2|8,0:0|0:0,0:0:0:0:
204,44,152615,2,0,L|128:56,1,70,10|0,0:0|0:0,0:0:0:0:
72,12,152972,2,0,P|60:52|68:96,1,70,2|8,0:0|0:0,0:0:0:0:
96,148,153329,2,0,P|108:188|100:232,1,70,2|8,0:0|0:0,0:0:0:0:
0,272,153687,6,0,B|52:272|52:272|80:296|80:296|140:296,1,140,2|10,0:0|0:0,0:0:0:0:
176,356,154222,1,0,0:0:0:0:
176,356,154401,2,0,B|228:356|228:356|256:332|256:332|316:332,1,140,2|10,0:0|0:0,0:0:0:0:
376,360,154937,1,0,0:0:0:0:
444,328,155115,6,0,L|460:276,3,35,8|8|8|8,0:0|0:0|0:0|0:0,0:0:0:0:
452,264,155472,2,0,L|436:212,3,35,8|8|8|8,0:0|0:0|0:0|0:0,0:0:0:0:
440,204,155829,2,0,L|456:152,3,35,8|8|8|8,0:0|0:0|0:0|0:0,0:0:0:0:
456,140,156187,1,8,0:0:0:0:
435,140,156276,1,8,0:0:0:0:
414,141,156365,1,8,0:0:0:0:
393,142,156454,1,8,0:0:0:0:
356,164,156544,6,0,L|372:76,1,70,4|8,0:0|0:0,0:0:0:0:
300,52,156901,2,0,L|287:120,1,70,0|8,0:0|0:0,0:0:0:0:
208,136,157258,2,0,L|224:48,1,70,0|8,0:0|0:0,0:0:0:0:
152,24,157615,2,0,L|139:92,1,70,0|8,0:0|0:0,0:0:0:0:
76,136,157972,6,0,L|-12:120,1,70,0|8,0:0|0:0,0:0:0:0:
8,204,158329,2,0,L|76:216,1,70,0|8,0:0|0:0,0:0:0:0:
156,216,158687,1,0,0:0:0:0:
120,284,158865,1,8,0:0:0:0:
144,360,159044,1,0,0:0:0:0:
144,360,159222,1,8,0:0:0:0:
284,292,159401,6,0,B|328:284|328:284|412:304,1,105,0|8,0:0|0:0,0:0:0:0:
408,304,159758,2,0,B|456:316|456:316|492:308,1,70,8|0,0:0|0:0,0:0:0:0:
496,228,160115,2,0,B|452:236|452:236|368:216,1,105,0|8,0:0|0:0,0:0:0:0:
372,216,160472,2,0,B|324:204|324:204|288:212,1,70,8|0,0:0|0:0,0:0:0:0:
280,136,160829,6,0,B|336:128|336:128|432:152,2,140,4|4|4,0:0|0:0|0:0,0:0:0:0:
504,96,162258,5,0,0:0:0:0:
504,96,162615,1,0,0:0:0:0:
504,96,162972,2,0,P|420:108|372:64,1,140,0|0,0:0|0:0,0:0:0:0:
379,77,163687,5,0,0:0:0:0:
379,77,164187,1,0,0:0:0:0:
379,77,164687,2,0,P|328:80|304:64,1,70,0|0,0:0|0:0,0:0:0:0:
248,36,165187,2,0,L|252:0,2,35,8|0|0,0:0|0:0|0:0,0:0:0:0:
200,164,165687,6,0,B|108:184|148:136|64:148,1,140,0|8,0:0|0:0,0:0:0:0:
80,220,166437,1,0,0:0:0:0:
80,220,166687,2,0,L|88:308,1,70,0|0,0:0|0:0,0:0:0:0:
8,248,167187,2,0,L|16:336,1,70,8|0,0:0|0:0,0:0:0:0:
148,340,167687,6,0,B|240:320|200:368|284:356,1,140,0|8,0:0|0:0,0:0:0:0:
268,284,168437,1,0,0:0:0:0:
268,284,168687,2,0,L|260:196,1,70,0|0,0:0|0:0,0:0:0:0:
340,256,169187,2,0,L|332:168,1,70,8|0,0:0|0:0,0:0:0:0:
440,120,169687,6,0,B|404:136|404:136|412:236,1,140,0|8,0:0|0:0,0:0:0:0:
480,272,170437,1,0,0:0:0:0:
480,272,170687,2,0,P|492:312|480:352,1,70,0|0,0:0|0:0,0:0:0:0:
416,312,171187,2,0,L|336:316,1,70,8|0,0:0|0:0,0:0:0:0:
276,352,171687,5,0,0:0:0:0:
208,312,171937,1,0,0:0:0:0:
140,352,172187,1,8,0:0:0:0:
140,352,172437,1,0,0:0:0:0:
60,336,172687,2,0,L|20:348,2,35,8|8|8,0:0|0:0|0:0,0:0:0:0:
136,232,173187,2,0,L|176:244,3,35,8|8|8|8,0:0|0:0|0:0|0:0,0:0:0:0:
100,228,173687,6,0,P|128:160|92:100,1,140,8|8,0:1|0:1,0:0:0:0:
52,164,174437,1,0,0:0:0:0:
52,164,174687,2,0,L|208:168,1,140,8|8,0:1|0:1,0:0:0:0:
248,116,175437,1,0,0:0:0:0:
248,116,175687,6,0,B|332:96|300:144|396:112,1,140,8|8,0:1|0:1,0:0:0:0:
432,56,176437,1,0,0:0:0:0:
432,56,176687,2,0,P|460:120|408:188,1,140,8|8,0:1|0:1,0:0:0:0:
380,232,177437,1,0,0:0:0:0:
380,232,177687,6,0,P|408:248|468:236,1,70,8|0,0:1|0:0,0:0:0:0:
512,276,178187,2,0,P|496:304|508:364,1,70,8|0,0:1|0:0,0:0:0:0:
424,360,178687,2,0,P|352:332|276:356,1,140,8|8,0:1|0:1,0:0:0:0:
220,360,179437,1,0,0:0:0:0:
220,360,179687,6,0,L|228:264,1,70,8|0,0:1|0:0,0:0:0:0:
268,224,180187,2,0,L|260:128,1,70,8|0,0:1|0:0,0:0:0:0:
256,72,180687,2,0,P|184:100|120:64,1,140,8|8,0:1|0:1,0:0:0:0:
16,216,181687,6,0,P|88:188|152:224,1,140,8|8,0:0|0:0,0:0:0:0:
196,264,182437,1,0,0:0:0:0:
196,264,182687,2,0,L|188:344,1,70,8|0,0:0|0:0,0:0:0:0:
268,300,183187,2,0,L|260:380,1,70,8|0,0:0|0:0,0:0:0:0:
344,348,183687,6,0,L|350:278,1,70,8|0,0:0|0:0,0:0:0:0:
416,384,184187,2,0,L|422:314,1,70,8|0,0:0|0:0,0:0:0:0:
492,352,184687,2,0,L|498:282,1,70,8|0,0:0|0:0,0:0:0:0:
456,216,185187,1,8,0:0:0:0:
456,216,185437,1,0,0:0:0:0:
412,88,185687,6,0,P|404:124|420:168,1,70,8|8,0:0|0:0,0:0:0:0:
480,124,186187,1,8,0:0:0:0:
480,124,186437,1,8,0:0:0:0:
444,24,186687,2,0,P|408:16|364:32,1,70,8|8,0:0|0:0,0:0:0:0:
312,72,187187,1,8,0:0:0:0:
312,72,187437,1,8,0:0:0:0:
256,192,187687,12,0,189687,0:0:0:0:
240,176,191115,6,0,B|238:132|238:132|256:92,1,70,4|0,0:0|0:0,0:0:0:0:
312,184,191472,2,0,B|310:140|310:140|328:100,1,70,8|2,0:0|0:0,0:0:0:0:
384,196,191829,2,0,B|382:152|382:152|400:112,1,70,0|2,0:0|0:0,0:0:0:0:
368,56,192187,1,8,0:0:0:0:
368,56,192365,1,2,0:0:0:0:
465,141,192544,6,0,B|455:165|455:165|457:209,1,70,0|2,0:0|0:0,0:0:0:0:
393,129,192901,2,0,B|383:153|383:153|385:197,1,70,8|0,0:0|0:0,0:0:0:0:
321,121,193258,2,0,B|311:145|311:145|313:189,1,70,0|0,0:0|0:0,0:0:0:0:
280,256,193615,2,0,P|252:248|208:252,1,70,8|2,0:0|0:0,0:0:0:0:
96,328,193972,6,0,P|68:336|24:332,1,70,0|2,0:0|0:0,0:0:0:0:
32,244,194329,2,0,P|67:241|101:250,1,70,8|2,0:0|0:0,0:0:0:0:
156,192,194687,2,0,L|156:100,1,70,0|0,0:0|0:0,0:0:0:0:
136,52,195044,2,0,L|80:56,3,35,8|8|8|8,0:0|0:0|0:0|0:0,0:0:0:0:
164,40,195401,1,4,0:0:0:0:
256,192,195490,12,2,197544,0:3:0:0:
8,72,198258,6,0,B|89:29|57:99|156:37,1,140,4|8,0:0|0:0,0:0:0:0:
212,8,198794,1,2,0:0:0:0:
212,8,198972,2,0,B|220:56|220:56|208:92|208:92|214:144,1,140,0|8,0:0|0:0,0:0:0:0:
248,212,199508,1,2,0:0:0:0:
248,212,199687,6,0,P|212:220|164:204,1,70,0|2,0:0|0:0,0:0:0:0:
112,176,200044,2,0,P|104:212|120:260,1,70,8|2,0:0|0:0,0:0:0:0:
144,312,200401,2,0,P|110:318|77:310,2,70,0|0|8,0:0|0:0|0:0,0:0:0:0:
336,352,201115,6,0,B|288:344|288:344|188:372,2,140,0|8|0,0:0|0:0|0:0,0:0:0:0:
476,300,202187,1,8,0:0:0:0:
436,152,202544,6,0,P|424:104|440:48,1,105
448,32,202901,2,0,L|368:44,1,70,8|0,0:0|0:0,0:0:0:0:
300,32,203258,2,0,L|220:44,3,70,8|0|0|0,0:0|0:0|0:0|0:0,0:0:0:0:
96,0,203972,6,0,P|80:72|128:132,1,140,4|8,0:0|0:0,0:0:0:0:
60,184,204508,1,2,0:0:0:0:
60,184,204687,2,0,P|132:200|192:152,1,140,0|8,0:0|0:0,0:0:0:0:
260,128,205222,1,2,0:0:0:0:
260,128,205401,6,0,P|272:172|264:208,1,70,0|2,0:0|0:0,0:0:0:0:
344,188,205758,2,0,P|332:232|307:259,1,70,8|2,0:0|0:0,0:0:0:0:
388,280,206115,2,0,P|355:312|320:323,2,70,0|0|8,0:0|0:0|0:0,0:0:0:0:
472,140,206829,6,0,B|496:52|496:52|488:4,2,140,0|8|0,0:0|0:0|0:0,0:0:0:0:
468,304,207901,1,8,0:0:0:0:
388,280,208079,1,2,0:0:0:0:
316,328,208258,6,0,P|280:336|236:320,1,70,0|8,0:0|0:0,0:0:0:0:
224,312,208526,1,8,0:0:0:0:
224,312,208615,1,8,0:0:0:0:
144,296,208794,1,0,0:0:0:0:
80,344,208972,1,0,0:0:0:0:
8,308,209151,1,8,0:1:0:0:
8,308,209329,1,8,0:1:0:0:
20,128,209687,6,0,B|91:136|91:136|132:112,1,105,4|8,0:0|0:0,0:0:0:0:
148,104,210044,2,0,L|228:112,1,70,8|0,0:0|0:0,0:0:0:0:
288,72,210401,2,0,B|359:80|359:80|400:56,1,105,2|8,0:0|0:0,0:0:0:0:
416,48,210758,2,0,L|496:56,1,70,10|0,0:0|0:0,0:0:0:0:
504,128,211115,6,0,P|520:176|500:232,1,105,2|8,0:0|0:0,0:0:0:0:
480,244,211472,2,0,L|403:238,1,70,10|0,0:0|0:0,0:0:0:0:
345,205,211829,2,0,P|335:238|344:272,1,70,2|8,0:0|0:0,0:0:0:0:
408,316,212187,2,0,P|417:349|409:382,1,70,2|8,0:0|0:0,0:0:0:0:
276,344,212544,6,0,B|232:316|232:316|120:344,1,140,2|10,0:0|0:0,0:0:0:0:
64,352,213079,1,0,0:0:0:0:
64,352,213258,2,0,B|36:308|36:308|64:196,1,140,2|10,0:0|0:0,0:0:0:0:
20,148,213794,1,0,0:0:0:0:
20,148,213972,6,0,L|72:132,3,35,8|8|8|8,0:0|0:0|0:0|0:0,0:0:0:0:
84,140,214329,2,0,L|136:156,3,35,8|8|8|8,0:0|0:0|0:0|0:0,0:0:0:0:
144,152,214687,2,0,L|196:136,3,35,8|8|8|8,0:0|0:0|0:0|0:0,0:0:0:0:
208,136,215044,1,8,0:0:0:0:
207,156,215133,1,8,0:0:0:0:
206,177,215222,1,8,0:0:0:0:
205,198,215312,1,8,0:0:0:0:
212,220,215401,6,0,P|250:227|296:208,1,70,4|8,0:0|0:0,0:0:0:0:
340,168,215758,2,0,P|378:160|424:180,1,70,0|8,0:0|0:0,0:0:0:0:
476,136,216115,2,0,P|483:174|464:220,1,70,0|8,0:0|0:0,0:0:0:0:
432,264,216472,2,0,P|423:297|431:331,1,70,0|8,0:0|0:0,0:0:0:0:
499,344,216829,6,0,L|430:331,1,70,0|8,0:0|0:0,0:0:0:0:
344,308,217187,2,0,L|275:321,1,70,0|8,0:0|0:0,0:0:0:0:
184,360,217544,1,0,0:0:0:0:
148,292,217722,1,8,0:0:0:0:
172,216,217901,1,0,0:0:0:0:
172,216,218079,1,8,0:0:0:0:
256,136,218258,6,0,B|212:144|212:144|128:124,1,105,0|8,0:0|0:0,0:0:0:0:
124,120,218615,2,0,B|120:84|120:36,1,70,8|0,0:0|0:0,0:0:0:0:
192,8,218972,2,0,B|236:0|236:0|320:20,1,105,0|8,0:0|0:0,0:0:0:0:
320,20,219329,2,0,B|324:56|324:104,1,70,8|0,0:0|0:0,0:0:0:0:
376,176,219687,6,0,B|400:116|400:116|396:16,2,140,4|4|4,0:0|0:0|0:0,0:0:0:0:
504,288,221115,5,0,0:0:0:0:
504,288,221472,1,0,0:0:0:0:
504,288,221829,2,0,L|492:368,1,70,0|0,0:0|0:0,0:0:0:0:
416,376,222187,1,0,0:0:0:0:
336,360,222365,1,0,0:0:0:0:
272,312,222544,6,0,B|260:268|260:268|269:155,1,140,4|0,0:0|0:0,0:0:0:0:
196,136,223079,1,8,0:0:0:0:
196,136,223258,2,0,P|145:152|97:136,1,105,0|0,0:0|0:0,0:0:0:0:
98,136,223615,2,0,L|106:62,1,70,0|8,0:0|0:0,0:0:0:0:
160,8,223972,6,0,P|211:-8|259:8,1,105,0|0,0:0|0:0,0:0:0:0:
258,8,224329,2,0,L|250:82,1,70,0|8,0:0|0:0,0:0:0:0:
328,116,224687,2,0,L|380:112,2,35,0|0|8,0:0|0:0|0:0,0:0:0:0:
432,72,225044,2,0,L|484:68,2,35,0|0|8,0:0|0:0|0:0,0:0:0:0:
504,192,225401,6,0,B|522:232|522:232|487:347,1,140,0|0,0:0|0:0,0:0:0:0:
424,364,225937,1,8,0:0:0:0:
424,364,226115,2,0,B|355:362|355:362|319:331,1,105,0|0,0:0|0:0,0:0:0:0:
329,339,226472,2,0,L|341:259,1,70,0|8,0:0|0:0,0:0:0:0:
280,208,226829,6,0,B|210:210|210:210|175:241,1,105,0|0,0:0|0:0,0:0:0:0:
185,233,227187,2,0,L|197:313,1,70,0|8,0:0|0:0,0:0:0:0:
136,360,227544,2,0,L|88:356,2,35,0|0|8,0:0|0:0|0:0,0:0:0:0:
40,304,227901,2,0,L|-8:300,2,35,0|0|8,0:0|0:0|0:0,0:0:0:0:
140,168,228258,6,0,B|226:144|193:196|285:173,1,140,4|0,0:0|0:0,0:0:0:0:
249,104,228794,1,8,0:0:0:0:
249,104,228972,2,0,B|241:48|241:48|257:-12,1,105,0|0,0:0|0:0,0:0:0:0:
254,2,229329,2,0,P|290:-6|338:10,1,70,0|8,0:0|0:0,0:0:0:0:
384,44,229687,6,0,B|376:100|376:100|392:160,1,105,0|0,0:0|0:0,0:0:0:0:
389,146,230044,2,0,P|425:154|473:138,1,70,0|8,0:0|0:0,0:0:0:0:
504,88,230401,2,0,L|512:44,2,35,0|0|8,0:0|0:0|0:0,0:0:0:0:
504,208,230758,2,0,L|512:252,2,35,0|0|8,0:0|0:0|0:0,0:0:0:0:
379,304,231115,6,0,B|297:325|330:273|244:297,1,140
282,372,231651,1,8,0:0:0:0:
282,372,231829,2,0,B|230:384|230:384|166:376,1,105,0|0,0:0|0:0,0:0:0:0:
179,378,232187,2,0,B|139:370|139:370|91:386,1,70,0|8,0:0|0:0,0:0:0:0:
32,348,232544,6,0,B|20:296|20:296|28:232,1,105,0|0,0:0|0:0,0:0:0:0:
26,245,232901,2,0,B|34:205|34:205|18:157,1,70,0|8,0:0|0:0,0:0:0:0:
40,104,233258,2,0,L|24:56,3,35,8|8|8|8,0:0|0:0|0:0|0:0,0:0:0:0:
64,108,233615,1,8,0:0:0:0:
83,101,233704,1,8,0:0:0:0:
104,100,233794,1,8,0:0:0:0:
125,105,233883,1,8,0:0:0:0:
148,108,233972,6,0,L|240:92,2,78.7500030040742,0|0|8,0:0|0:0|0:0,0:0:0:0:
168,184,234686,2,0,L|260:168,1,78.7500030040742,0|0,0:0|0:0,0:0:0:0:
364,96,235222,2,0,L|370:51,1,26.2500010013581,0|0,0:0|0:0,0:0:0:0:
372,32,235401,6,0,L|442:41,1,52.5000020027161,8|8,0:0|0:0,0:0:0:0:
440,116,235758,2,0,L|510:125,1,52.5000020027161,8|8,0:0|0:0,0:0:0:0:
508,204,236115,2,0,P|508:234|492:264,3,52.5000020027161,0|2|0|0,0:0|0:0|0:0|0:0,0:0:0:0:
432,216,236829,6,0,L|349:215,2,78.7500030040742,0|0|8,0:0|0:0|0:0,0:0:0:0:
416,292,237544,2,0,L|336:292,1,78.7500030040742,0|0,0:0|0:0,0:0:0:0:
212,244,238079,2,0,L|208:270,1,26.2500010013581,0|0,0:0|0:0,0:0:0:0:
204,304,238258,6,0,P|168:308|134:295,1,52.5000020027161,8|0,0:0|0:0,0:0:0:0:
88,268,238615,2,0,P|52:264|18:277,1,52.5000020027161,8|8,0:0|0:0,0:0:0:0:
0,336,238972,1,12,0:0:0:0:
256,192,241140,12,0,246852,0:0:0:0:
