osu file format v14

[General]
AudioFilename: audio.mp3
AudioLeadIn: 0
PreviewTime: 69311
Countdown: 0
SampleSet: Soft
StackLeniency: 0.7
Mode: 0
LetterboxInBreaks: 0
WidescreenStoryboard: 0

[Editor]
DistanceSpacing: 0.5
BeatDivisor: 4
GridSize: 32
TimelineZoom: 3.799999

[Metadata]
Title:Koiiro ni Sake
TitleUnicode:恋色に咲け
Artist:CHiCO with HoneyWorks
ArtistUnicode:CHiCO with HoneyWorks
Creator:litoluna
Version:Extra
Source:
Tags:
BeatmapID:967015
BeatmapSetID:435021

[Difficulty]
HPDrainRate:6
CircleSize:3.8
OverallDifficulty:8
ApproachRate:9
SliderMultiplier:1.7
SliderTickRate:2

[Events]
//Background and Video events
0,0,"BG_koiiro.jpg",0,0
//Break Periods
2,20295,29873
2,85160,94738
2,160403,169982
//Storyboard Layer 0 (Background)
//Storyboard Layer 1 (Fail)
//Storyboard Layer 2 (Pass)
//Storyboard Layer 3 (Foreground)
//Storyboard Sound Samples

[TimingPoints]
4528,324.324324324324,4,2,1,60,1,0
30473,-125,4,2,1,60,0,0
35663,-111.111111111111,4,2,1,60,0,0
39555,-100,4,2,1,60,0,0
51230,-125,4,2,1,60,0,0
56419,-100,4,2,1,60,0,0
64203,-166.666666666667,4,2,1,60,0,0
66798,-125,4,2,1,60,0,0
69068,-100,4,2,1,60,0,0
79771,-125,4,2,1,60,0,0
82365,-100,4,2,1,60,0,0
95338,-142.857142857143,4,2,1,60,0,0
100527,-111.111111111111,4,2,1,60,0,0
105717,-100,4,2,1,60,0,0
116095,-125,4,2,1,60,0,0
121284,-100,4,2,1,60,0,0
129068,-166.666666666667,4,2,1,60,0,0
131663,-125,4,2,1,60,0,0
133933,-100,4,2,1,60,0,0
144636,-125,4,2,1,60,0,0
147230,-100,4,2,1,60,0,0
149825,-111.111111111111,4,2,1,60,0,0
180960,-100,4,2,1,60,0,0
188744,-90.9090909090909,4,2,1,60,0,0
190690,-100,4,2,1,60,0,0
209500,-166.666666666667,4,2,1,60,0,0
212095,-100,4,2,1,60,0,0
225068,-125,4,2,1,60,0,0
227663,-100,4,2,1,60,0,0
230257,-111.111111111111,4,2,1,60,0,0
232852,-90.9090909090909,4,2,1,60,0,0
236744,-100,4,2,1,60,0,0

[HitObjects]
239,78,4527,5,0,0:0:0:0:
239,78,4852,1,0,0:0:0:0:
137,214,5176,2,0,P|206:255|292:243,1,170
368,162,5663,1,0,0:0:0:0:
441,266,5825,5,0,0:0:0:0:
471,77,5987,1,0,0:0:0:0:
471,77,6068,1,0,0:0:0:0:
471,77,6149,1,0,0:0:0:0:
279,146,6311,1,0,0:0:0:0:
279,146,6392,1,0,0:0:0:0:
279,146,6473,1,0,0:0:0:0:
457,178,6636,2,0,L|499:175,2,42.5
282,299,6960,5,0,0:0:0:0:
282,299,7041,1,0,0:0:0:0:
282,299,7122,2,0,P|235:302|190:288,1,85
361,251,7446,1,0,0:0:0:0:
184,374,7609,2,0,P|125:317|154:221,1,170
272,83,8095,2,0,L|366:71,1,85
445,261,8419,6,0,L|351:249,1,85
317,244,8663,1,0,0:0:0:0:
317,244,8744,1,0,0:0:0:0:
174,50,8906,2,0,L|180:110,1,42.5
188,202,9068,1,0,0:0:0:0:
77,57,9230,2,0,L|83:117,1,42.5
91,209,9392,1,0,0:0:0:0:
360,250,9555,2,0,L|294:242,1,42.5
91,209,9717,6,0,P|170:194|208:105,1,170
71,14,10203,2,0,L|83:120,1,85
209,295,10527,1,0,0:0:0:0:
296,177,10690,1,0,0:0:0:0:
91,209,10852,1,0,0:0:0:0:
312,270,11014,6,0,L|396:261,1,85
220,101,11338,1,0,0:0:0:0:
285,349,11500,1,0,0:0:0:0:
362,134,11663,2,0,L|371:57,2,56.6666666666667
215,238,11987,2,0,L|206:315,2,56.6666666666667
95,105,12311,6,0,L|197:87,1,85
28,219,12636,2,0,L|130:201,1,85
411,217,12960,2,0,L|309:199,1,85
478,331,13285,2,0,L|376:313,1,85
181,169,13609,5,0,0:0:0:0:
181,169,13717,2,0,L|193:249,1,56.6666666666667
294,64,13933,1,0,0:0:0:0:
294,64,14041,2,0,L|282:144,1,56.6666666666667
248,311,14257,2,0,P|276:305|316:304,2,56.6666666666667
163,346,14582,1,0,0:0:0:0:
75,327,14690,1,0,0:0:0:0:
25,251,14798,1,0,0:0:0:0:
39,161,14906,6,0,B|67:121|111:121|111:121|153:121|184:85,1,170
112,41,15392,1,0,0:0:0:0:
112,203,15555,2,0,B|192:234|192:234|241:246|280:211,1,170
362,129,16041,1,0,0:0:0:0:
444,239,16203,6,0,L|360:230,1,85
185,87,16527,2,0,L|269:78,1,85
300,77,16771,1,0,0:0:0:0:
300,77,16852,1,0,0:0:0:0:
103,176,17014,2,0,L|55:171,2,42.5
239,182,17338,1,0,0:0:0:0:
151,356,17500,6,0,P|137:309|144:265,1,85
239,182,17825,1,0,0:0:0:0:
341,307,17987,1,0,0:0:0:0:
341,307,18068,1,0,0:0:0:0:
341,307,18149,1,0,0:0:0:0:
389,62,18311,1,0,0:0:0:0:
239,182,18473,1,0,0:0:0:0:
448,225,18636,5,0,0:0:0:0:
448,225,18717,1,0,0:0:0:0:
448,225,18798,1,0,0:0:0:0:
211,95,18960,1,0,0:0:0:0:
187,271,19122,1,0,0:0:0:0:
187,271,19203,1,0,0:0:0:0:
187,271,19284,1,0,0:0:0:0:
352,204,19446,5,0,0:0:0:0:
117,159,19609,1,0,0:0:0:0:
333,322,19771,1,0,0:0:0:0:
371,86,19933,1,0,0:0:0:0:
93,251,20095,1,0,0:0:0:0:
190,165,30473,6,0,P|223:155|266:153,1,68
221,277,30798,2,0,L|70:255,1,136
325,222,31446,2,0,L|407:212,1,68
493,234,31771,5,0,0:0:0:0:
459,137,31933,1,0,0:0:0:0:
368,293,32095,2,0,P|311:304|250:250,1,136
223,116,32582,1,0,0:0:0:0:
166,276,32744,1,0,0:0:0:0:
232,92,32906,1,0,0:0:0:0:
166,276,33068,5,0,0:0:0:0:
233,344,33230,1,0,0:0:0:0:
327,330,33392,2,0,P|361:322|401:320,1,68
233,344,33717,5,0,0:0:0:0:
166,276,33879,1,0,0:0:0:0:
168,181,34041,2,0,P|176:145|175:113,1,68
78,227,34365,2,0,B|80:308|80:308|90:337|117:351,1,136
387,221,35014,5,0,0:0:0:0:
350,52,35176,1,0,0:0:0:0:
387,221,35338,1,0,0:0:0:0:
453,118,35500,1,0,0:0:0:0:
283,155,35663,6,0,P|269:235|295:304,1,152.999995330811
458,244,36149,2,0,P|423:227|354:224,1,76.4999976654053
224,359,36473,1,0,0:0:0:0:
393,306,36636,1,0,0:0:0:0:
181,278,36798,5,0,0:0:0:0:
181,278,36879,1,0,0:0:0:0:
181,278,36960,2,0,B|163:177|163:177|166:147|179:127,1,152.999995330811
268,190,37446,1,0,0:0:0:0:
83,59,37609,1,0,0:0:0:0:
216,23,37771,1,0,0:0:0:0:
91,197,37933,1,0,0:0:0:0:
291,95,38095,5,0,0:0:0:0:
291,95,38176,1,0,0:0:0:0:
291,95,38257,2,0,P|353:145|350:243,1,152.999995330811
248,342,38744,2,0,P|238:306|239:265,1,76.4999976654053
61,266,39068,2,0,P|70:229|91:194,1,76.4999976654053
322,295,39392,5,0,0:0:0:0:
322,295,39473,1,0,0:0:0:0:
322,295,39555,2,0,B|446:281|446:281|492:295,1,170
248,342,40041,2,0,P|202:341|164:326,1,85
58,60,40365,6,0,L|67:107,1,42.5
90,196,40527,1,0,0:0:0:0:
0,325,40690,6,0,L|25:291,1,42.5
90,196,40852,2,0,P|132:183|178:183,1,85
320,248,41176,1,0,0:0:0:0:
285,126,41338,1,0,0:0:0:0:
212,317,41500,2,0,L|115:303,1,85
320,248,41825,1,0,0:0:0:0:
420,295,41987,6,0,P|429:251|419:205,1,85
285,126,42311,1,0,0:0:0:0:
201,198,42473,2,0,L|111:189,1,85
82,186,42717,1,0,0:0:0:0:
82,186,42798,1,0,0:0:0:0:
315,38,42960,5,0,0:0:0:0:
285,126,43122,1,0,0:0:0:0:
308,217,43284,1,0,0:0:0:0:
386,268,43446,6,0,P|430:280|490:265,1,85
502,265,43690,1,0,0:0:0:0:
502,265,43771,1,0,0:0:0:0:
376,155,43933,1,0,0:0:0:0:
245,279,44095,6,0,L|262:363,1,85
376,155,44419,1,0,0:0:0:0:
285,126,44582,1,0,0:0:0:0:
204,176,44744,6,0,B|140:219|80:180|80:180|59:143,1,170
229,46,45230,2,0,P|272:34|321:32,1,85
476,161,45555,5,0,0:0:0:0:
285,126,45717,1,0,0:0:0:0:
398,49,45879,1,0,0:0:0:0:
364,240,46041,6,0,P|360:285|364:334,1,85
285,126,46365,2,0,P|241:130|192:150,1,85
97,255,46690,1,0,0:0:0:0:
200,300,46852,1,0,0:0:0:0:
88,145,47014,1,0,0:0:0:0:
11,319,47176,1,0,0:0:0:0:
200,300,47338,6,0,B|239:300|269:287|269:287|314:317|365:309,1,170
421,113,47825,1,0,0:0:0:0:
454,235,47987,1,0,0:0:0:0:
367,32,48149,5,0,0:0:0:0:
334,154,48311,1,0,0:0:0:0:
233,217,48473,1,0,0:0:0:0:
119,180,48636,6,0,B|61:151|45:93|45:93|70:84|107:87,1,170
334,154,49122,2,0,L|391:151,2,42.5
150,263,49446,2,0,L|54:258,2,85
325,307,49933,5,0,0:0:0:0:
233,217,50095,1,0,0:0:0:0:
153,354,50257,1,0,0:0:0:0:
210,132,50419,1,0,0:0:0:0:
401,262,50582,2,0,P|433:264|461:255,2,56.6666666666667
422,165,50906,2,0,P|450:150|470:128,2,56.6666666666667
327,197,51230,6,0,B|275:197|233:173|233:173|193:182,1,136
102,290,51717,2,0,L|172:276,1,68
326,197,52041,2,0,P|321:262|367:309,1,136
402,311,52446,1,0,0:0:0:0:
436,309,52527,6,0,P|461:293|477:259,1,68
441,149,52852,1,0,0:0:0:0:
332,110,53014,2,0,L|261:105,1,68
122,231,53338,2,0,P|146:167|109:116,1,136
76,178,53744,1,0,0:0:0:0:
62,205,53825,6,0,B|60:258|79:292|79:292|118:335,1,136
328,273,54311,2,0,P|269:240|195:240,1,136
187,368,54798,2,0,L|264:356,1,68
419,310,55122,6,0,P|375:260|377:188,1,136
450,71,55609,2,0,P|456:107|464:143,1,68
339,21,55933,2,0,P|338:58|332:94,1,68
274,203,56257,1,0,0:0:0:0:
113,109,56419,6,0,L|199:96,1,85
228,91,56663,1,0,0:0:0:0:
228,91,56744,1,0,0:0:0:0:
67,202,56906,2,0,L|1:193,2,42.5
258,329,57230,1,0,0:0:0:0:
258,329,57311,1,0,0:0:0:0:
258,329,57392,2,0,P|270:280|258:243,1,85
191,285,57636,5,0,0:0:0:0:
191,285,57717,2,0,B|320:269|320:269|368:290,2,170
402,350,58527,2,0,P|430:312|436:291,1,42.5
407,207,58690,2,0,P|401:159|410:113,1,85
463,44,58933,1,0,0:0:0:0:
485,32,59014,5,0,0:0:0:0:
309,151,59176,1,0,0:0:0:0:
309,151,59257,1,0,0:0:0:0:
309,151,59338,1,0,0:0:0:0:
493,256,59500,1,0,0:0:0:0:
493,256,59582,1,0,0:0:0:0:
493,256,59663,1,0,0:0:0:0:
301,346,59825,1,0,0:0:0:0:
301,346,59906,1,0,0:0:0:0:
301,346,59987,2,0,P|291:301|292:254,1,85
174,65,60311,6,0,P|173:107|163:148,1,85
58,221,60636,1,0,0:0:0:0:
264,168,60798,1,0,0:0:0:0:
264,168,60879,1,0,0:0:0:0:
264,168,60960,1,0,0:0:0:0:
78,65,61122,1,0,0:0:0:0:
159,306,61284,1,0,0:0:0:0:
264,168,61446,1,0,0:0:0:0:
357,227,61609,6,0,P|400:230|452:212,1,85
388,121,61933,1,0,0:0:0:0:
255,256,62095,2,0,P|230:291|220:345,1,85
331,335,62419,1,0,0:0:0:0:
357,227,62582,1,0,0:0:0:0:
264,168,62744,6,0,L|171:160,1,85
68,254,63068,1,0,0:0:0:0:
7,104,63230,2,0,L|100:96,1,85
255,256,63554,1,0,0:0:0:0:
255,256,63663,2,0,P|257:286|267:328,1,56.6666666666667
357,227,63879,1,0,0:0:0:0:
357,227,63987,2,0,P|359:257|369:299,1,56.6666666666667
459,198,64203,6,0,P|361:209|313:126,2,203.999993774414
405,124,65825,1,0,0:0:0:0:
248,196,66149,2,0,B|193:218|138:191|138:191|105:171|105:171|83:189,1,178.499994552612
113,262,66798,6,0,P|144:276|188:280,1,68
329,160,67122,1,0,0:0:0:0:
382,247,67284,1,0,0:0:0:0:
197,120,67446,5,0,0:0:0:0:
280,330,67609,1,0,0:0:0:0:
421,154,67771,1,0,0:0:0:0:
197,120,67933,1,0,0:0:0:0:
415,323,68095,5,0,0:0:0:0:
315,71,68258,1,0,0:0:0:0:
146,282,68420,1,0,0:0:0:0:
415,323,68582,1,0,0:0:0:0:
133,171,68744,6,0,P|117:117|140:61,1,102
201,44,69068,2,0,L|238:49,7,21.25
270,105,69392,6,0,P|316:105|355:89,1,85
510,155,69717,2,0,P|464:155|425:171,1,85
227,325,70041,1,0,0:0:0:0:
263,204,70203,1,0,0:0:0:0:
338,307,70365,1,0,0:0:0:0:
160,238,70527,1,0,0:0:0:0:
372,203,70690,6,0,L|480:226,1,85
291,83,71014,2,0,P|245:81|194:101,1,85
72,181,71338,1,0,0:0:0:0:
135,42,71500,1,0,0:0:0:0:
159,271,71663,1,0,0:0:0:0:
30,118,71825,5,0,0:0:0:0:
30,118,71906,1,0,0:0:0:0:
30,118,71987,2,0,P|75:109|118:121,1,85
315,205,72311,1,0,0:0:0:0:
159,271,72473,1,0,0:0:0:0:
355,184,72636,2,0,L|346:276,1,85
166,343,72960,6,0,P|220:310|210:222,1,127.5
166,163,73284,2,0,P|159:119|165:79,1,85
268,120,73609,1,0,0:0:0:0:
159,271,73771,1,0,0:0:0:0:
159,271,73852,1,0,0:0:0:0:
159,271,73933,1,0,0:0:0:0:
65,110,74095,1,0,0:0:0:0:
227,250,74257,1,0,0:0:0:0:
322,42,74419,5,0,0:0:0:0:
322,42,74500,1,0,0:0:0:0:
322,42,74582,2,0,L|412:58,1,85
510,195,74906,2,0,P|463:196|421:178,1,85
186,110,75230,2,0,P|233:109|275:127,1,85
313,332,75555,6,0,B|301:287|301:287|320:198,1,127.5
374,125,75879,2,0,P|416:108|466:115,1,85
512,194,76203,1,0,0:0:0:0:
329,45,76365,1,0,0:0:0:0:
329,45,76446,1,0,0:0:0:0:
329,45,76527,1,0,0:0:0:0:
221,230,76690,1,0,0:0:0:0:
374,125,76852,1,0,0:0:0:0:
399,310,77014,5,0,0:0:0:0:
399,310,77095,1,0,0:0:0:0:
399,310,77176,2,0,L|309:299,1,85
66,211,77500,2,0,L|150:221,1,85
458,114,77825,2,0,L|348:127,1,85
38,354,78149,2,0,L|147:340,1,85
286,187,78473,6,0,L|292:117,2,56.6666666666667
223,260,78798,2,0,L|229:330,2,56.6666666666667
197,172,79122,1,0,0:0:0:0:
197,172,79230,2,0,L|135:155,1,56.6666666666667
223,260,79446,1,0,0:0:0:0:
312,279,79555,1,0,0:0:0:0:
373,212,79663,1,0,0:0:0:0:
348,125,79771,6,0,P|334:60|359:-2,1,136
432,147,80257,1,0,0:0:0:0:
286,187,80419,2,0,B|193:176|193:176|151:186,1,136
60,212,80906,1,0,0:0:0:0:
119,342,81068,2,0,P|132:308|132:266,1,68
104,61,81392,2,0,P|91:95|91:137,1,68
267,302,81717,5,0,0:0:0:0:
170,112,81879,1,0,0:0:0:0:
56,292,82041,2,0,L|175:270,1,102
267,302,82365,6,0,P|309:305|349:288,1,85
401,138,82690,1,0,0:0:0:0:
460,231,82852,1,0,0:0:0:0:
460,231,82933,1,0,0:0:0:0:
460,231,83014,1,0,0:0:0:0:
299,175,83176,1,0,0:0:0:0:
427,63,83338,1,0,0:0:0:0:
347,288,83500,5,0,0:0:0:0:
347,288,83582,1,0,0:0:0:0:
347,288,83663,1,0,0:0:0:0:
258,86,83825,1,0,0:0:0:0:
401,138,83987,1,0,0:0:0:0:
154,229,84149,1,0,0:0:0:0:
164,116,84311,5,0,0:0:0:0:
144,330,84473,1,0,0:0:0:0:
38,214,84636,1,0,0:0:0:0:
299,175,84798,1,0,0:0:0:0:
33,326,84960,1,0,0:0:0:0:
207,179,95338,6,0,L|273:165,1,59.4999981842042
402,266,95663,2,0,P|343:263|286:238,1,118.999996368408
137,17,96311,5,0,0:0:0:0:
125,118,96473,1,0,0:0:0:0:
219,78,96636,1,0,0:0:0:0:
137,17,96798,1,0,0:0:0:0:
113,219,96960,5,0,0:0:0:0:
207,179,97123,1,0,0:0:0:0:
125,118,97284,1,0,0:0:0:0:
195,280,97446,5,0,0:0:0:0:
219,78,97609,1,0,0:0:0:0:
113,219,97771,1,0,0:0:0:0:
301,139,97933,6,0,P|317:111|321:69,1,59.4999981842042
219,78,98257,1,0,0:0:0:0:
125,118,98419,1,0,0:0:0:0:
289,240,98582,6,0,P|321:239|359:222,1,59.4999981842042
301,139,98906,1,0,0:0:0:0:
219,78,99068,1,0,0:0:0:0:
195,280,99230,6,0,P|211:307|245:332,1,59.4999981842042
301,139,99555,2,0,P|317:111|321:69,1,59.4999981842042
125,118,99879,1,0,0:0:0:0:
307,353,100041,1,0,0:0:0:0:
420,78,100203,1,0,0:0:0:0:
289,240,100365,1,0,0:0:0:0:
125,118,100527,5,0,0:0:0:0:
382,200,100690,1,0,0:0:0:0:
382,200,100771,1,0,0:0:0:0:
382,200,100852,1,0,0:0:0:0:
220,80,101014,1,0,0:0:0:0:
220,80,101095,1,0,0:0:0:0:
220,80,101176,1,0,0:0:0:0:
195,280,101338,5,0,0:0:0:0:
210,302,101419,1,0,0:0:0:0:
233,314,101500,1,0,0:0:0:0:
259,318,101582,1,0,0:0:0:0:
284,311,101663,1,0,0:0:0:0:
307,297,101744,1,0,0:0:0:0:
322,275,101825,5,0,0:0:0:0:
136,116,101987,1,0,0:0:0:0:
136,116,102068,1,0,0:0:0:0:
136,116,102149,1,0,0:0:0:0:
83,284,102311,1,0,0:0:0:0:
83,284,102392,1,0,0:0:0:0:
83,284,102473,1,0,0:0:0:0:
256,246,102636,5,0,0:0:0:0:
256,246,102717,1,0,0:0:0:0:
256,246,102798,2,0,P|263:225|264:203,1,38.2499988327027
194,48,102960,2,0,P|208:64|227:76,1,38.2499988327027
396,97,103122,2,0,P|374:101|354:111,1,38.2499988327027
192,215,103284,1,0,0:0:0:0:
153,218,103365,1,0,0:0:0:0:
116,207,103446,1,0,0:0:0:0:
93,176,103527,1,0,0:0:0:0:
78,139,103609,1,0,0:0:0:0:
88,102,103690,1,0,0:0:0:0:
107,69,103771,1,0,0:0:0:0:
400,168,103933,5,0,0:0:0:0:
398,194,104014,1,0,0:0:0:0:
397,220,104095,1,0,0:0:0:0:
394,246,104176,1,0,0:0:0:0:
393,272,104257,1,0,0:0:0:0:
391,298,104338,1,0,0:0:0:0:
389,324,104419,1,0,0:0:0:0:
501,257,104582,1,0,0:0:0:0:
315,167,104744,1,0,0:0:0:0:
197,336,104906,5,0,0:0:0:0:
197,336,104987,1,0,0:0:0:0:
197,336,105068,1,0,0:0:0:0:
311,305,105230,1,0,0:0:0:0:
191,137,105392,1,0,0:0:0:0:
119,233,105555,1,0,0:0:0:0:
311,305,105717,6,0,P|349:306|396:285,1,85
330,201,106041,1,0,0:0:0:0:
197,336,106203,1,0,0:0:0:0:
417,213,106365,2,0,L|420:128,1,85
311,61,106690,1,0,0:0:0:0:
494,172,106852,5,0,0:0:0:0:
330,201,107014,1,0,0:0:0:0:
464,47,107176,1,0,0:0:0:0:
488,249,107338,1,0,0:0:0:0:
254,135,107500,5,0,0:0:0:0:
254,135,107582,1,0,0:0:0:0:
254,135,107663,1,0,0:0:0:0:
299,295,107825,1,0,0:0:0:0:
330,201,107987,1,0,0:0:0:0:
254,135,108149,1,0,0:0:0:0:
156,140,108311,6,0,P|114:138|73:118,1,85
212,44,108555,1,0,0:0:0:0:
239,32,108636,2,0,P|279:33|323:56,1,85
330,201,108960,2,0,L|321:299,1,85
215,234,109284,1,0,0:0:0:0:
416,142,109446,1,0,0:0:0:0:
395,362,109609,6,0,P|356:374|284:379,1,85
56,267,109933,2,0,P|95:255|167:250,1,85
248,327,110257,1,0,0:0:0:0:
297,92,110419,5,0,0:0:0:0:
191,147,110582,1,0,0:0:0:0:
393,254,110744,1,0,0:0:0:0:
159,133,110906,2,0,L|68:125,1,85
249,10,111230,2,0,L|340:2,1,85
423,138,111555,1,0,0:0:0:0:
319,313,111717,6,0,P|303:274|310:212,1,85
393,254,112041,1,0,0:0:0:0:
242,352,112203,2,0,P|161:325|70:323,1,170
0,209,112690,1,0,0:0:0:0:
116,139,112852,2,0,L|100:231,1,85
42,46,113176,2,0,P|80:24|133:21,1,85
268,58,113500,5,0,0:0:0:0:
116,139,113663,1,0,0:0:0:0:
396,245,113825,1,0,0:0:0:0:
222,366,113987,2,0,P|214:318|220:278,1,85
328,152,114311,5,0,0:0:0:0:
120,20,114473,1,0,0:0:0:0:
110,266,114636,1,0,0:0:0:0:
186,146,114798,6,0,P|157:129|128:121,2,56.6666666666667
280,166,115122,2,0,P|280:132|272:103,2,56.6666666666667
310,256,115446,2,0,P|339:239|360:218,2,56.6666666666667
247,329,115771,2,0,P|276:345|305:354,2,56.6666666666667
153,313,116095,6,0,P|90:292|23:303,1,136
214,237,116582,2,0,P|220:203|219:162,1,68
338,78,116906,2,0,P|337:111|343:145,1,68
429,101,117230,1,0,0:0:0:0:
251,76,117392,6,0,B|216:85|184:70|184:70|152:88|120:85,1,136
29,187,117879,2,0,P|63:209|100:217,1,68
190,150,118203,1,0,0:0:0:0:
132,280,118365,1,0,0:0:0:0:
243,370,118527,5,0,0:0:0:0:
243,370,118609,1,0,0:0:0:0:
243,370,118690,2,0,P|275:313|269:241,1,136
195,82,119176,2,0,P|189:116|190:150,1,68
89,230,119500,2,0,P|114:251|144:268,1,68
282,156,119825,1,0,0:0:0:0:
343,274,119987,6,0,P|292:317|213:301,1,136
362,193,120473,2,0,P|398:193|434:186,1,68
385,37,120798,2,0,P|349:37|313:44,2,68
282,156,121284,6,0,L|198:142,1,85
34,214,121609,2,0,L|118:228,1,85
286,287,121933,2,0,P|239:290|200:310,1,85
391,323,122257,1,0,0:0:0:0:
358,114,122419,5,0,0:0:0:0:
358,114,122500,1,0,0:0:0:0:
358,114,122582,1,0,0:0:0:0:
323,210,122744,1,0,0:0:0:0:
441,197,122906,2,0,P|466:158|472:115,1,85
276,34,123230,2,0,P|251:73|245:116,1,85
300,186,123473,1,0,0:0:0:0:
323,210,123555,1,0,0:0:0:0:
399,11,123717,5,0,0:0:0:0:
399,11,123798,1,0,0:0:0:0:
399,11,123879,1,0,0:0:0:0:
441,197,124041,1,0,0:0:0:0:
244,110,124203,2,0,L|152:103,1,85
28,230,124527,2,0,P|72:234|108:217,1,85
197,30,124852,1,0,0:0:0:0:
77,69,125014,1,0,0:0:0:0:
206,227,125176,5,0,0:0:0:0:
197,30,125338,1,0,0:0:0:0:
144,292,125500,1,0,0:0:0:0:
398,207,125663,2,0,P|398:159|379:116,1,85
242,311,125987,1,0,0:0:0:0:
277,335,126068,1,0,0:0:0:0:
319,337,126149,1,0,0:0:0:0:
445,73,126311,1,0,0:0:0:0:
410,49,126392,1,0,0:0:0:0:
368,47,126473,6,0,P|326:58|278:54,1,85
97,158,126798,1,0,0:0:0:0:
160,238,126960,2,0,P|188:203|197:155,1,85
55,257,127284,2,0,P|37:298|40:346,1,85
349,261,127609,6,0,L|261:245,1,85
289,362,127933,1,0,0:0:0:0:
438,279,128095,2,0,L|429:194,1,85
297,63,128419,5,0,0:0:0:0:
297,63,128527,2,0,P|262:71|228:72,1,56.6666666666667
347,160,128744,1,0,0:0:0:0:
347,160,128852,2,0,P|312:168|278:169,1,56.6666666666667
182,145,129068,6,0,P|221:160|239:304,2,203.999993774414
167,240,130690,1,0,0:0:0:0:
124,83,131014,2,0,B|174:55|222:75|222:75|262:94|301:92,1,178.499994552612
380,74,131663,6,0,P|377:109|357:150,1,68
224,278,131987,1,0,0:0:0:0:
466,170,132149,1,0,0:0:0:0:
183,144,132311,1,0,0:0:0:0:
402,293,132473,1,0,0:0:0:0:
247,85,132636,5,0,0:0:0:0:
218,66,132717,1,0,0:0:0:0:
184,59,132798,1,0,0:0:0:0:
150,64,132879,1,0,0:0:0:0:
123,85,132960,1,0,0:0:0:0:
241,332,133122,1,0,0:0:0:0:
304,164,133284,1,0,0:0:0:0:
81,221,133446,1,0,0:0:0:0:
403,293,133609,5,0,0:0:0:0:
81,221,133933,2,0,L|47:226,7,21.25
27,229,134257,6,0,P|88:240|154:197,1,127.5
204,132,134582,2,0,P|244:119|303:128,1,85
291,330,134906,2,0,L|265:236,1,85
407,115,135230,2,0,L|381:209,1,85
187,290,135555,5,0,0:0:0:0:
286,122,135717,1,0,0:0:0:0:
379,293,135879,2,0,P|422:282|459:256,1,85
196,208,136203,2,0,L|107:224,1,85
172,372,136527,1,0,0:0:0:0:
384,196,136690,5,0,0:0:0:0:
384,196,136771,1,0,0:0:0:0:
384,196,136852,2,0,P|392:147|385:100,1,85
228,0,137176,2,0,P|220:49|227:96,1,85
428,25,137500,2,0,L|342:36,1,85
49,170,137825,6,0,P|115:165|174:192,1,127.5
240,258,138149,2,0,P|285:267|342:247,1,85
390,112,138473,1,0,0:0:0:0:
283,185,138636,1,0,0:0:0:0:
283,185,138717,1,0,0:0:0:0:
283,185,138798,1,0,0:0:0:0:
423,266,138960,1,0,0:0:0:0:
300,94,139122,1,0,0:0:0:0:
151,269,139284,5,0,0:0:0:0:
151,269,139365,1,0,0:0:0:0:
151,269,139446,2,0,L|164:355,1,85
69,181,139771,2,0,P|43:217|34:260,1,85
223,132,140095,2,0,L|200:43,1,85
151,269,140419,6,0,P|220:278|279:245,1,127.5
324,170,140744,2,0,P|367:155|412:164,1,85
512,258,141068,1,0,0:0:0:0:
388,347,141230,1,0,0:0:0:0:
388,347,141311,1,0,0:0:0:0:
388,347,141392,2,0,L|374:252,1,85
490,104,141717,1,0,0:0:0:0:
234,165,141879,5,0,0:0:0:0:
234,165,141960,1,0,0:0:0:0:
234,165,142041,2,0,L|151:151,1,85
325,184,142365,2,0,L|408:170,1,85
187,277,142690,2,0,L|104:263,1,85
345,67,143014,2,0,L|428:53,1,85
255,237,143338,5,0,0:0:0:0:
255,237,143446,2,0,L|264:306,1,56.6666666666667
195,140,143663,1,0,0:0:0:0:
195,140,143771,2,0,L|186:209,1,56.6666666666667
176,50,143987,2,0,P|157:57|121:86,2,56.6666666666667
263,78,144311,2,0,P|266:58|259:12,2,56.6666666666667
195,140,144636,6,0,B|163:152|130:136|130:136|98:120|63:128,1,136
88,213,145122,1,0,0:0:0:0:
174,53,145284,2,0,P|242:61|293:136,1,136
285,218,145771,1,0,0:0:0:0:
218,303,145933,2,0,L|294:294,1,68
418,170,146257,2,0,L|342:161,1,68
195,140,146582,5,0,0:0:0:0:
398,276,146744,1,0,0:0:0:0:
438,35,146906,2,0,P|393:40|347:75,1,102
279,149,147230,6,0,L|191:139,1,85
85,302,147555,1,0,0:0:0:0:
26,189,147717,1,0,0:0:0:0:
26,189,147798,1,0,0:0:0:0:
26,189,147879,2,0,P|66:175|111:174,1,85
256,325,148203,2,0,P|266:284|268:229,1,85
184,55,148527,6,0,P|186:100|199:144,1,85
381,263,148852,1,0,0:0:0:0:
188,216,149014,1,0,0:0:0:0:
385,97,149176,5,0,0:0:0:0:
335,329,149338,1,0,0:0:0:0:
86,98,149500,5,0,0:0:0:0:
393,179,149663,1,0,0:0:0:0:
48,323,149825,2,0,P|27:273|29:244,1,76.4999976654053
86,98,150149,1,0,0:0:0:0:
133,178,150311,2,0,P|179:116|162:46,1,152.999995330811
0,60,150798,2,0,P|-7:101|11:163,1,76.4999976654053
108,267,151122,6,0,B|218:249|218:249|239:260|257:260,1,152.999995330811
420,175,151609,2,0,B|310:193|310:193|289:182|271:182,1,152.999995330811
247,341,152095,2,0,P|288:336|334:296,1,76.4999976654053
405,101,152419,6,0,L|322:114,2,76.4999976654053
270,181,152906,2,0,P|245:137|246:90,1,76.4999976654053
293,34,153230,1,0,0:0:0:0:
420,175,153392,2,0,L|408:265,1,76.4999976654053
190,214,153717,6,0,B|149:197|115:214|115:214|79:233|38:213,1,152.999995330811
107,85,154203,2,0,P|153:77|186:80,1,76.4999976654053
276,260,154527,5,0,0:0:0:0:
339,216,154690,1,0,0:0:0:0:
270,181,154852,1,0,0:0:0:0:
270,181,154933,1,0,0:0:0:0:
270,181,155014,1,0,0:0:0:0:
346,293,155176,5,0,0:0:0:0:
336,140,155338,1,0,0:0:0:0:
209,226,155500,2,0,L|121:221,1,76.4999976654053
132,221,155825,1,0,0:0:0:0:
336,140,155987,6,0,L|424:135,1,76.4999976654053
213,297,156311,1,0,0:0:0:0:
271,106,156473,2,0,P|276:56|268:15,1,76.4999976654053
213,297,156798,6,0,L|221:375,1,76.4999976654053
406,249,157122,1,0,0:0:0:0:
201,152,157284,2,0,L|113:147,1,76.4999976654053
21,287,157609,6,0,P|97:282|132:217,1,152.999995330811
54,217,158095,1,0,0:0:0:0:
184,337,158257,5,0,0:0:0:0:
49,134,158419,1,0,0:0:0:0:
184,337,158582,5,0,0:0:0:0:
98,73,158744,1,0,0:0:0:0:
184,337,158906,6,0,P|219:352|280:341,1,76.4999976654053
373,294,159230,1,0,0:0:0:0:
256,133,159392,2,0,L|268:229,1,76.4999976654053
336,45,159717,5,0,0:0:0:0:
121,204,159879,1,0,0:0:0:0:
373,294,160041,1,0,0:0:0:0:
373,294,160122,1,0,0:0:0:0:
373,294,160203,1,0,0:0:0:0:
159,155,170582,6,0,L|240:141,1,76.4999976654053
283,254,170906,2,0,L|358:267,1,76.4999976654053
296,70,171230,2,0,L|215:56,1,76.4999976654053
190,245,171554,2,0,L|114:258,1,76.4999976654053
35,273,171798,1,0,0:0:0:0:
21,278,171879,6,0,P|39:245|42:198,1,76.4999976654053
156,3,172203,2,0,P|138:36|135:83,1,76.4999976654053
248,303,172527,2,0,P|266:270|269:223,1,76.4999976654053
220,56,172852,1,0,0:0:0:0:
119,181,173014,5,0,0:0:0:0:
119,181,173095,1,0,0:0:0:0:
119,181,173176,2,0,L|194:167,1,76.4999976654053
383,84,173500,2,0,L|307:70,1,76.4999976654053
323,332,173825,2,0,P|341:299|344:252,1,76.4999976654053
262,133,174149,1,0,0:0:0:0:
142,282,174311,5,0,0:0:0:0:
142,282,174392,1,0,0:0:0:0:
142,282,174473,2,0,L|48:276,1,76.4999976654053
286,122,174798,2,0,L|380:128,1,76.4999976654053
202,200,175122,2,0,P|169:133|204:49,1,152.999995330811
404,201,175609,5,0,0:0:0:0:
404,201,175690,1,0,0:0:0:0:
404,201,175771,2,0,L|397:285,1,76.4999976654053
286,122,176095,2,0,P|303:84|348:54,1,76.4999976654053
436,70,176419,1,0,0:0:0:0:
294,232,176582,1,0,0:0:0:0:
126,23,176744,1,0,0:0:0:0:
13,148,176906,5,0,0:0:0:0:
13,148,176987,1,0,0:0:0:0:
13,148,177068,2,0,L|89:134,1,76.4999976654053
214,279,177392,2,0,L|138:265,1,76.4999976654053
254,156,177717,2,0,P|290:145|328:150,1,76.4999976654053
301,324,178041,1,0,0:0:0:0:
169,160,178203,5,0,0:0:0:0:
169,160,178284,1,0,0:0:0:0:
169,160,178365,2,0,L|181:71,1,76.4999976654053
301,224,178690,1,0,0:0:0:0:
119,241,178852,2,0,P|89:208|82:174,1,76.4999976654053
289,47,179176,5,0,0:0:0:0:
214,279,179338,1,0,0:0:0:0:
50,98,179500,1,0,0:0:0:0:
50,98,179582,1,0,0:0:0:0:
50,98,179663,6,0,L|137:86,1,76.4999976654053
301,224,179987,2,0,P|259:220|228:199,1,76.4999976654053
151,17,180311,1,0,0:0:0:0:
101,241,180473,1,0,0:0:0:0:
285,144,180636,1,0,0:0:0:0:
29,189,180798,1,0,0:0:0:0:
215,359,180960,6,0,P|251:283|232:203,2,170
114,313,181771,1,0,0:0:0:0:
205,127,181933,2,0,P|249:125|297:156,1,85
355,298,182257,6,0,P|336:260|338:218,1,85
459,74,182582,1,0,0:0:0:0:
231,202,182744,1,0,0:0:0:0:
414,243,182906,2,0,L|419:149,1,85
329,4,183230,2,0,L|334:98,1,85
486,256,183555,6,0,P|457:183|366:187,1,170
269,291,184041,1,0,0:0:0:0:
206,222,184203,2,0,P|245:199|293:199,1,85
332,359,184527,2,0,P|296:381|254:384,1,85
96,153,184852,6,0,B|104:244|104:244|108:285|148:308,1,170
346,253,185338,1,0,0:0:0:0:
346,253,185419,1,0,0:0:0:0:
346,253,185500,1,0,0:0:0:0:
185,89,185663,1,0,0:0:0:0:
206,222,185825,1,0,0:0:0:0:
417,137,185987,1,0,0:0:0:0:
417,137,186068,1,0,0:0:0:0:
417,137,186149,6,0,P|481:128|443:197,1,170
321,122,186636,1,0,0:0:0:0:
206,222,186798,2,0,L|216:308,1,85
377,66,187122,6,0,P|318:43|260:73,1,127.5
207,134,187446,2,0,P|166:143|120:135,1,85
369,199,187771,2,0,P|410:190|456:198,1,85
345,306,188095,1,0,0:0:0:0:
134,61,188257,1,0,0:0:0:0:
129,44,188338,1,0,0:0:0:0:
138,29,188419,1,0,0:0:0:0:
155,25,188500,1,0,0:0:0:0:
169,34,188581,1,0,0:0:0:0:
173,51,188662,1,0,0:0:0:0:
164,66,188744,6,0,L|69:60,1,93.5000028533936
331,152,189068,2,0,L|426:146,1,93.5000028533936
121,241,189392,2,0,L|26:235,1,93.5000028533936
350,330,189716,2,0,L|445:324,1,93.5000028533936
199,334,190041,5,0,0:0:0:0:
301,252,190203,1,0,0:0:0:0:
197,158,190365,1,0,0:0:0:0:
288,77,190527,1,0,0:0:0:0:
288,77,190609,1,0,0:0:0:0:
288,77,190690,6,0,P|344:59|432:64,1,127.5
380,130,191014,2,0,P|354:131|335:138,3,42.5
285,187,191338,6,0,P|363:154|466:168,1,170
512,250,191825,1,0,0:0:0:0:
387,323,191987,2,0,P|391:276|392:237,1,85
215,48,192311,2,0,P|211:95|210:134,1,85
308,272,192636,1,0,0:0:0:0:
308,272,192798,1,0,0:0:0:0:
219,338,192960,2,0,L|118:328,1,85
97,121,193284,5,0,0:0:0:0:
216,242,193446,1,0,0:0:0:0:
324,27,193609,2,0,P|278:21|231:33,1,85
52,182,193933,6,0,P|122:192|171:117,1,170
43,35,194419,1,0,0:0:0:0:
60,272,194582,2,0,P|103:277|148:268,1,85
257,384,194906,2,0,P|282:349|297:305,1,85
240,28,195230,5,0,0:0:0:0:
97,121,195392,1,0,0:0:0:0:
375,90,195555,2,0,L|372:189,1,85
296,310,195879,6,0,P|290:279|277:251,2,56.6666666666667
220,305,196203,2,0,P|206:276|186:252,2,56.6666666666667
144,316,196527,1,0,0:0:0:0:
290,82,199122,1,0,0:0:0:0:
134,39,200419,2,0,P|94:18|43:19,1,85
73,98,200744,2,0,P|34:122|10:166,1,85
95,180,201068,2,0,P|96:225|123:268,1,85
178,202,201392,2,0,P|217:222|269:221,1,85
238,141,201717,6,0,P|276:116|300:72,1,85
154,122,202041,2,0,P|115:146|91:190,1,85
382,104,202365,2,0,P|379:58|353:15,1,85
154,122,202690,5,0,0:0:0:0:
238,141,202852,1,0,0:0:0:0:
210,59,203014,2,0,L|127:39,1,85
272,224,203338,2,0,L|355:204,1,85
78,99,203663,2,0,P|79:141|102:185,1,85
291,75,203987,1,0,0:0:0:0:
388,274,204149,5,0,0:0:0:0:
388,274,204230,1,0,0:0:0:0:
388,274,204311,2,0,L|381:358,1,85
183,198,204636,2,0,L|190:282,1,85
337,15,204960,2,0,L|330:99,1,85
195,365,205284,5,0,0:0:0:0:
178,110,205446,1,0,0:0:0:0:
395,193,205609,1,0,0:0:0:0:
256,234,205771,1,0,0:0:0:0:
425,67,205933,1,0,0:0:0:0:
483,298,206095,5,0,0:0:0:0:
483,298,206176,1,0,0:0:0:0:
483,298,206257,1,0,0:0:0:0:
462,335,206338,1,0,0:0:0:0:
422,349,206419,1,0,0:0:0:0:
380,343,206500,1,0,0:0:0:0:
347,318,206581,1,0,0:0:0:0:
315,293,206663,1,0,0:0:0:0:
273,287,206744,1,0,0:0:0:0:
233,301,206825,1,0,0:0:0:0:
204,332,206906,6,0,P|164:342|113:332,1,85
27,155,207230,1,0,0:0:0:0:
147,112,207392,2,0,L|140:199,1,85
87,36,207717,2,0,P|129:17|182:20,1,85
382,155,208041,5,0,0:0:0:0:
235,196,208203,1,0,0:0:0:0:
348,47,208365,1,0,0:0:0:0:
315,293,208527,2,0,L|223:281,1,85
416,263,208852,6,0,L|493:273,2,56.6666666666667
382,155,209176,2,0,L|459:165,2,56.6666666666667
348,47,209500,6,0,P|298:35|247:40,1,101.999996887207
58,194,210149,2,0,P|108:198|157:186,1,101.999996887207
231,130,210636,1,0,0:0:0:0:
297,193,210798,2,0,L|292:296,1,101.999996887207
102,110,211446,1,0,0:0:0:0:
348,47,211771,1,0,0:0:0:0:
184,292,212095,6,0,P|139:291|97:280,1,85
305,115,212419,2,0,P|350:116|392:127,1,85
122,186,212744,5,0,0:0:0:0:
390,198,212906,1,0,0:0:0:0:
188,154,213068,1,0,0:0:0:0:
324,230,213230,1,0,0:0:0:0:
229,93,213392,1,0,0:0:0:0:
283,291,213555,1,0,0:0:0:0:
234,20,213717,1,0,0:0:0:0:
278,364,213879,1,0,0:0:0:0:
49,180,214041,6,0,L|137:167,1,85
463,204,214365,2,0,L|440:199,7,21.25
354,209,214690,6,0,L|260:190,1,85
111,273,215014,2,0,P|152:276|191:261,1,85
255,49,215338,1,0,0:0:0:0:
133,167,215500,1,0,0:0:0:0:
286,24,215663,2,0,L|278:126,1,85
48,221,215987,6,0,P|33:175|47:124,1,85
273,194,216311,1,0,0:0:0:0:
217,345,216473,1,0,0:0:0:0:
110,75,216636,2,0,L|204:62,1,85
436,145,216960,2,0,P|392:145|347:158,1,85
470,300,217284,6,0,P|481:259|502:222,1,85
317,251,217609,2,0,P|346:281|367:317,1,85
429,70,217933,2,0,P|385:70|340:83,1,85
171,242,218257,6,0,B|181:159|181:159|151:124,1,127.5
96,211,218582,2,0,P|93:257|117:307,1,85
317,251,218906,1,0,0:0:0:0:
73,131,219068,1,0,0:0:0:0:
73,131,219149,1,0,0:0:0:0:
73,131,219230,1,0,0:0:0:0:
182,323,219392,1,0,0:0:0:0:
256,42,219555,1,0,0:0:0:0:
398,118,219717,5,0,0:0:0:0:
398,118,219798,1,0,0:0:0:0:
398,118,219879,2,0,L|387:203,1,85
175,95,220203,2,0,P|162:54|164:10,1,85
310,174,220527,2,0,L|228:202,1,85
12,157,220852,6,0,P|72:140|131:164,1,127.5
157,246,221176,2,0,L|150:331,1,85
70,223,221500,1,0,0:0:0:0:
257,103,221663,1,0,0:0:0:0:
257,103,221744,1,0,0:0:0:0:
257,103,221825,1,0,0:0:0:0:
257,281,221987,1,0,0:0:0:0:
164,53,222149,1,0,0:0:0:0:
360,172,222311,2,0,P|337:189|324:200,1,42.5
174,306,222473,6,0,P|180:264|181:221,1,85
331,11,222798,2,0,P|325:53|324:96,1,85
102,259,223122,2,0,L|17:252,1,85
408,57,223446,2,0,L|493:64,1,85
206,123,223771,6,0,P|194:93|191:50,2,56.6666666666667
232,204,224095,2,0,P|212:229|176:253,2,56.6666666666667
290,141,224419,1,0,0:0:0:0:
290,141,224527,2,0,P|321:145|360:164,1,56.6666666666667
471,220,224744,1,0,0:0:0:0:
471,220,224852,2,0,P|439:224|400:243,1,56.6666666666667
322,318,225068,6,0,P|258:341|194:322,1,136
103,197,225555,1,0,0:0:0:0:
176,163,225717,2,0,P|180:223|169:246,1,68
24,185,226041,2,0,P|35:153|58:128,1,68
249,133,226365,5,0,0:0:0:0:
103,197,226527,1,0,0:0:0:0:
278,120,226690,2,0,L|270:205,1,68
111,74,227014,5,0,0:0:0:0:
360,164,227176,1,0,0:0:0:0:
165,353,227338,2,0,P|156:314|163:284,1,68
239,316,227582,1,0,0:0:0:0:
259,322,227663,6,0,L|350:316,1,85
185,202,227987,2,0,L|94:196,1,85
21,194,228230,1,0,0:0:0:0:
3,193,228311,1,0,0:0:0:0:
210,117,228473,1,0,0:0:0:0:
75,282,228636,1,0,0:0:0:0:
305,210,228798,5,0,0:0:0:0:
325,216,228879,1,0,0:0:0:0:
344,223,228960,1,0,0:0:0:0:
124,113,229122,1,0,0:0:0:0:
363,230,229284,5,0,0:0:0:0:
52,144,229446,1,0,0:0:0:0:
383,235,229609,6,0,L|451:227,2,56.6666666666667
284,203,229933,2,0,L|216:211,2,56.6666666666667
370,140,230257,6,0,P|389:67|355:-2,1,152.999995330811
189,17,230744,1,0,0:0:0:0:
172,117,230906,2,0,L|246:100,1,76.4999976654053
98,55,231230,2,0,L|72:142,1,76.4999976654053
138,313,231555,5,0,0:0:0:0:
225,269,231717,2,0,P|191:235|151:221,1,76.4999976654053
215,360,232041,1,0,0:0:0:0:
215,360,232122,1,0,0:0:0:0:
215,360,232203,2,0,L|311:346,1,76.4999976654053
376,331,232446,1,0,0:0:0:0:
396,337,232527,2,0,P|422:290|404:233,1,114.749996498108
333,172,232852,6,0,P|317:126|322:82,1,93.5000028533936
408,114,233176,1,0,0:0:0:0:
249,234,233338,1,0,0:0:0:0:
249,234,233419,1,0,0:0:0:0:
249,234,233500,2,0,P|200:231|156:233,1,93.5000028533936
346,279,233825,1,0,0:0:0:0:
166,105,233987,5,0,0:0:0:0:
166,105,234068,1,0,0:0:0:0:
166,105,234149,1,0,0:0:0:0:
415,225,234311,1,0,0:0:0:0:
97,159,234473,1,0,0:0:0:0:
497,212,234636,1,0,0:0:0:0:
15,172,234798,6,0,P|19:137|31:100,2,62.3333352355958
66,235,235122,2,0,P|62:270|50:307,2,62.3333352355958
97,159,235446,1,0,0:0:0:0:
256,192,235527,12,0,236744,0:0:0:0:
386,108,237068,5,0,0:0:0:0:
290,270,237392,2,0,P|213:235|127:245,1,170
230,349,237879,1,0,0:0:0:0:
378,310,238041,2,0,P|384:260|367:205,1,85
291,68,238365,2,0,P|285:118|302:173,1,85
454,43,238690,6,0,L|369:33,1,85
98,127,239014,1,0,0:0:0:0:
184,163,239176,1,0,0:0:0:0:
217,250,239338,6,0,L|211:340,1,85
14,171,239663,2,0,P|5:115|27:63,1,85
184,163,239987,2,0,B|308:184|308:184|346:163,1,170
289,89,240473,1,0,0:0:0:0:
380,260,240636,2,0,P|429:224|449:186,1,85
208,81,240960,2,0,L|125:98,1,85
229,324,241284,5,0,0:0:0:0:
287,251,241446,1,0,0:0:0:0:
380,260,241609,2,0,L|375:345,1,85
136,315,241933,6,0,P|120:276|119:232,1,85
208,81,242257,2,0,B|270:102|316:76|316:76|347:70|377:84,1,170
459,166,242744,1,0,0:0:0:0:
287,251,242906,2,0,P|280:207|271:158,1,85
134,26,243230,6,0,P|127:70|118:119,1,85
43,213,243555,1,0,0:0:0:0:
186,161,243717,1,0,0:0:0:0:
287,251,243879,6,0,P|326:243|374:243,1,85
297,70,244203,2,0,P|258:62|210:62,1,85
193,272,244527,6,0,P|247:339|340:341,2,170
300,165,245500,2,0,L|289:252,1,85
