osu file format v14

[General]
AudioFilename: audio.mp3
AudioLeadIn: 0
PreviewTime: 134380
Countdown: 0
SampleSet: Soft
StackLeniency: 0.7
Mode: 0
LetterboxInBreaks: 0
WidescreenStoryboard: 1

[Editor]
DistanceSpacing: 1.4
BeatDivisor: 4
GridSize: 32
TimelineZoom: 1.6

[Metadata]
Title:Koiiro ni Sake
TitleUnicode:恋色に咲け
Artist:CHiCO with HoneyWorks
ArtistUnicode:CHiCO with HoneyWorks
Creator:Shunao
Version:Gaia's Confession
Source:ずっと前から好きでした。~告白実行委員会~
Tags:Confession Executive Committee ~Love Series~ Kokuhaku Jikkou Iinkai Renai Series Zutto Mae Kara Suki Deshita. ~Kokuhaku Jikkō Iinkai~ anime movie op opening full version ver japanese pop jpop j-pop shogunmoon mentai gaia
BeatmapID:1102305
BeatmapSetID:494646

[Difficulty]
HPDrainRate:7
CircleSize:4.2
OverallDifficulty:8
ApproachRate:9.6
SliderMultiplier:2.1
SliderTickRate:2

[Events]
//Background and Video events
Video,0,"video (2).avi"
0,0,"1.jpg",0,0
//Break Periods
2,160526,170196
2,196850,198736
//Storyboard Layer 0 (Background)
//Storyboard Layer 1 (Fail)
//Storyboard Layer 2 (Pass)
//Storyboard Layer 3 (Foreground)
//Storyboard Layer 4 (Overlay)
//Storyboard Sound Samples

[TimingPoints]
759,324.324324324324,4,2,21,60,1,0
15029,-166.666666666667,4,2,21,60,0,0
16975,-100,4,2,21,60,0,0
30596,-166.666666666667,4,2,21,40,0,0
35461,-200,4,2,21,40,0,0
35786,-142.857142857143,4,2,21,50,0,0
39678,-125,4,2,21,50,0,0
40975,-100,4,2,21,50,0,0
51353,-166.666666666667,4,2,20,40,0,0
56542,-100,4,2,21,40,0,0
64326,-142.857142857143,4,2,20,40,0,0
66921,-100,4,2,21,40,0,0
69515,-90.9090909090909,4,2,21,80,0,1
79894,-166.666666666667,4,2,21,60,0,0
81840,-71.4285714285714,4,2,21,60,0,0
82488,-100,4,2,21,60,0,0
95461,-100,4,2,20,40,0,0
99678,-142.857142857143,4,2,20,40,0,0
100650,-100,4,2,21,50,0,0
116218,-166.666666666667,4,2,20,40,0,0
121407,-142.857142857143,4,2,21,40,0,0
126596,-100,4,2,21,50,0,0
129191,-142.857142857143,4,2,20,40,0,0
131786,-100,4,2,21,50,0,0
134380,-90.9090909090909,4,2,21,80,0,1
144759,-142.857142857143,4,2,21,60,0,0
146705,-71.4285714285714,4,2,21,60,0,0
147353,-100,4,2,21,60,0,0
149948,-166.666666666667,4,2,21,50,0,0
160326,-166.666666666667,4,2,21,30,0,0
170705,-133.333333333333,4,2,21,50,0,0
179786,-125,4,2,21,50,0,0
181083,-100,4,2,21,60,0,0
196650,-142.857142857143,4,2,20,40,0,0
201840,-142.857142857143,4,2,21,50,0,0
207029,-100,4,2,21,60,0,0
209623,-142.857142857143,4,2,20,40,0,0
212218,-100,4,2,21,50,0,0
213515,-100,4,2,21,60,0,0
214164,-166.666666666667,4,2,20,40,0,0
214488,-200,4,2,20,40,0,0
214813,-90.9090909090909,4,2,21,60,0,1
225191,-142.857142857143,4,2,21,60,0,0
227137,-71.4285714285714,4,2,21,60,0,0
227786,-100,4,2,21,60,0,0
230380,-125,4,2,21,60,0,0
232326,-90.9090909090909,4,2,21,60,0,0
232975,-100,4,2,21,60,0,0
235650,-100,4,2,21,30,0,0
236867,-100,4,2,21,60,0,0
244650,-100,4,2,20,40,0,0

[Colours]
Combo1 : 234,74,22
Combo2 : 175,41,91
Combo3 : 137,61,56
Combo4 : 251,236,132

[HitObjects]
180,29,4650,6,0,P|187:84|193:145,1,105,6|0,0:0|0:0,0:0:0:0:
49,351,4975,2,0,P|49:319|57:247,1,105,2|0,0:0|0:0,0:0:0:0:
288,278,5299,2,0,P|251:270|152:250,1,105,2|0,0:0|0:0,0:0:0:0:
453,165,5623,2,0,P|403:177|343:185,1,105,2|0,0:0|0:0,0:0:0:0:
53,136,5948,5,6,0:0:0:0:
275,36,6110,1,8,0:3:0:0:
275,36,6191,1,8,0:3:0:0:
275,36,6272,1,8,0:3:0:0:
174,232,6434,1,8,0:3:0:0:
174,232,6515,1,8,0:3:0:0:
174,232,6596,1,8,0:3:0:0:
347,133,6759,1,8,0:3:0:0:
347,133,6840,1,8,0:3:0:0:
347,133,6921,1,8,0:3:0:0:
153,74,7083,2,8,P|163:105|174:139,1,52.5,8|8,0:3|0:3,0:3:0:0:
221,258,7245,6,0,B|360:223|360:223|406:263|407:293,1,210,6|2,0:0|0:0,0:0:0:0:
150,357,7732,2,0,B|90:349|90:349|74:187,1,210,6|2,0:0|0:0,0:0:0:0:
223,20,8218,2,0,B|253:53|253:53|236:179,1,157.5,6|0,0:0|0:0,0:0:0:0:
221,258,8542,5,6,0:0:0:0:
342,69,8705,1,8,0:3:0:0:
342,69,8786,1,8,0:3:0:0:
342,69,8867,1,8,0:3:0:0:
441,211,9029,1,8,0:3:0:0:
441,211,9110,1,8,0:3:0:0:
441,211,9191,1,8,0:3:0:0:
224,132,9353,1,8,0:3:0:0:
224,132,9434,1,8,0:3:0:0:
224,132,9515,1,8,0:3:0:0:
499,109,9678,2,8,P|508:154|510:177,1,52.5,8|8,0:3|0:3,0:3:0:0:
429,316,9840,6,0,P|390:278|270:282,1,157.5,6|0,0:0|0:0,0:0:0:0:
240,336,10164,1,10,0:0:0:0:
316,177,10326,1,10,0:0:0:0:
108,265,10488,1,10,0:0:0:0:
338,180,10650,1,10,0:0:0:0:
148,61,10813,1,10,0:0:0:0:
361,184,10975,1,10,0:0:0:0:
63,154,11137,5,10,0:0:0:0:
341,49,11299,1,10,0:0:0:0:
246,344,11461,1,10,0:0:0:0:
177,41,11623,1,10,0:0:0:0:
204,239,11786,6,0,P|178:231|118:222,1,70,10|10,0:0|0:0,0:0:0:0:
63,154,12002,1,10,0:0:0:0:
316,177,12110,6,0,L|403:163,1,70,10|10,0:0|0:0,0:0:0:0:
480,148,12326,1,10,0:0:0:0:
236,23,12434,6,0,P|195:71|272:158,1,157.5,6|0,0:0|0:0,0:0:0:0:
316,178,12759,1,8,0:0:0:0:
104,148,12921,1,2,0:0:0:0:
347,135,13083,1,8,0:0:0:0:
50,213,13245,1,2,0:0:0:0:
353,81,13407,1,8,0:0:0:0:
58,291,13569,1,0,0:0:0:0:
234,101,13732,6,0,P|228:77|211:23,2,70,2|8|8,0:0|0:0|0:0,0:0:0:0:
251,241,14056,2,0,P|221:233|158:210,2,70,2|8|8,0:0|0:0|0:0,0:0:0:0:
385,165,14380,2,0,P|420:156|470:145,2,70,8|8|8,0:3|0:3|0:3,0:0:0:0:
75,151,14705,2,0,P|52:184|72:253,2,70,8|8|8,0:3|0:3|0:3,0:0:0:0:
314,303,15029,6,0,P|345:252|254:163,1,188.999994232178,6|2,0:0|0:0,0:0:0:0:
194,54,15678,2,0,B|183:194|183:194|116:225,1,188.999994232178,8|0,0:0|0:0,0:0:0:0:
33,149,16326,5,2,0:0:0:0:
254,245,16488,2,0,P|305:234|380:213,1,125.999996154785,8|2,0:0|0:0,0:0:0:0:
485,157,16894,1,2,0:0:0:0:
485,157,16975,6,0,P|476:215|470:280,1,105,6|2,0:0|0:0,0:0:0:0:
384,125,17218,1,2,0:0:0:0:
384,125,17299,2,0,P|375:66|369:2,1,105,6|0,0:0|0:0,0:0:0:0:
122,118,17623,6,0,P|176:104|252:99,1,105,6|2,0:0|0:0,0:0:0:0:
225,363,17948,2,0,L|208:242,1,105,8|8,0:0|0:3,0:0:0:0:
194,180,18191,1,8,0:3:0:0:
194,180,18272,1,8,0:3:0:0:
307,338,18434,1,2,0:0:0:0:
101,246,18596,1,2,0:0:0:0:
342,145,18759,1,2,0:0:0:0:
342,145,18840,1,2,0:0:0:0:
342,145,18921,5,14,0:0:0:0:
210,259,19083,1,8,0:0:0:0:
253,62,19245,1,8,0:0:0:0:
318,291,19407,1,8,0:0:0:0:
419,64,19569,1,8,0:0:0:0:
168,103,19732,1,8,0:0:0:0:
416,229,19894,1,8,0:0:0:0:
87,222,20056,1,8,0:0:0:0:
467,147,20218,5,4,0:0:0:0:
286,205,20380,1,8,0:0:0:0:
286,205,20461,1,8,0:0:0:0:
286,205,20542,2,0,L|211:194,3,52.5,10|2|8|8,0:0|0:0|0:0|0:0,0:0:0:0:
186,88,20867,2,8,L|112:112,3,52.5,10|2|8|8,0:0|0:0|0:0|0:0,0:0:0:0:
68,185,21191,2,8,P|41:178|-12:159,1,52.5,10|2,0:0|0:0,0:0:0:0:
0,257,21353,2,8,P|25:264|50:271,1,52.5
134,328,21515,5,10,0:0:0:0:
167,294,21596,1,2,0:0:0:0:
210,274,21678,1,8,0:0:0:0:
256,281,21759,1,8,0:0:0:0:
299,298,21840,1,10,0:0:0:0:
331,331,21921,1,2,0:0:0:0:
366,362,22002,1,8,0:0:0:0:
410,377,22083,1,8,0:0:0:0:
450,353,22164,6,0,L|469:283,1,52.5,10|2,0:0|0:0,0:0:0:0:
496,136,22326,2,0,L|417:159,1,52.5,8|8,0:0|0:0,0:0:0:0:
258,205,22488,2,0,P|296:215|323:239,1,52.5,10|2,0:0|0:0,0:0:0:0:
349,85,22650,2,0,P|343:62|334:22,1,52.5,8|8,0:0|0:0,0:0:0:0:
211,109,22813,6,0,P|184:127|152:142,3,52.5,10|2|8|8,0:0|0:0|0:0|0:0,0:0:0:0:
72,59,23137,2,0,L|52:-5,3,52.5,10|2|8|8,0:0|0:0|0:0|0:0,0:0:0:0:
13,177,23461,2,0,L|-2:258,3,52.5,10|2|8|8,0:0|0:0|0:0|0:0,0:0:0:0:
128,286,23786,2,0,P|152:272|207:261,1,52.5,10|2,0:0|0:0,0:0:0:0:
438,311,23948,2,8,L|337:295,1,52.5
299,364,24110,5,10,0:0:0:0:
275,323,24191,1,2,0:0:0:0:
275,275,24272,1,8,0:0:0:0:
296,232,24353,1,8,0:0:0:0:
337,210,24434,1,10,0:0:0:0:
381,226,24515,1,2,0:0:0:0:
411,262,24596,1,8,0:0:0:0:
387,303,24678,1,8,0:0:0:0:
346,279,24759,6,0,L|341:214,1,52.5,10|2,0:0|0:0,0:0:0:0:
296,59,24921,2,8,L|277:125,1,52.5
176,246,25083,2,0,L|99:230,1,52.5,10|2,0:0|0:0,0:0:0:0:
6,134,25245,2,8,L|97:116,1,52.5
212,15,25407,6,0,L|197:82,3,52.5,10|2|8|8,0:0|0:0|0:0|0:0,0:0:0:0:
390,113,25732,2,0,P|415:101|447:96,3,52.5,10|2|8|8,0:0|0:0|0:0|0:0,0:0:0:0:
266,223,26056,2,0,L|277:293,3,52.5,10|2|8|8,0:0|0:0|0:0|0:0,0:0:0:0:
65,202,26380,2,0,P|97:212|116:213,1,52.5,10|2,0:0|0:0,0:0:0:0:
273,80,26542,2,8,P|240:84|187:97,1,52.5
191,286,26705,5,10,0:0:0:0:
208,329,26786,1,2,0:0:0:0:
247,354,26867,1,8,0:0:0:0:
294,356,26948,1,8,0:0:0:0:
334,332,27029,1,10,0:0:0:0:
365,296,27110,1,2,0:0:0:0:
411,289,27191,1,8,0:0:0:0:
454,307,27272,1,8,0:0:0:0:
474,349,27353,6,10,P|500:343|530:335,1,52.5,10|2,0:0|0:0,0:0:0:0:
446,170,27515,2,0,P|456:205|463:239,1,52.5,8|8,0:0|0:0,0:0:0:0:
271,238,27678,2,10,L|343:218,1,52.5,10|2,0:0|0:0,0:0:0:0:
254,68,27840,2,8,L|270:135,1,52.5
125,277,28002,6,8,P|129:247|146:191,3,52.5,10|2|8|8,0:0|0:0|0:0|0:0,0:0:0:0:
44,129,28326,2,8,P|34:108|27:64,3,52.5,10|2|8|8,0:0|0:0|0:0|0:0,0:0:0:0:
215,156,28650,2,8,L|293:142,3,52.5,10|2|8|8,0:0|0:0|0:0|0:0,0:0:0:0:
388,42,28975,2,10,P|409:80|422:125,1,52.5,10|2,0:0|0:0,0:0:0:0:
352,322,29137,2,8,P|330:283|318:239,1,52.5
445,198,29299,6,8,P|485:190|524:183,2,70
206,173,29623,2,8,P|165:165|127:158,2,70
364,31,29948,6,8,P|362:65|353:99,1,70
316,202,30164,1,8,0:0:0:0:
250,363,30272,6,8,P|251:328|260:294,1,70
316,202,30488,1,8,0:0:0:0:
180,257,30596,6,0,P|156:251|109:240,1,62.9999980773926,6|0,0:0|0:0,0:0:0:0:
36,167,30921,1,2,0:0:0:0:
43,151,31245,1,2,0:0:0:0:
51,137,31569,1,2,0:0:0:0:
178,29,31894,5,2,0:0:0:0:
183,42,32218,1,2,0:0:0:0:
186,55,32542,1,2,0:0:0:0:
84,228,32705,1,12,0:0:0:0:
189,67,32867,1,2,0:0:0:0:
293,271,33029,1,12,0:0:0:0:
198,191,33191,5,2,0:0:0:0:
221,184,33515,1,2,0:0:0:0:
246,178,33840,1,2,0:0:0:0:
271,173,34164,1,2,0:0:0:0:
461,107,34488,5,2,0:0:0:0:
432,97,34813,1,2,0:0:0:0:
400,87,35137,1,2,0:0:0:0:
371,79,35461,2,0,P|326:82|287:97,1,78.75,2|0,0:0|0:0,0:0:0:0:
276,105,35786,6,0,P|216:102|121:87,1,146.999995513916,6|2,0:0|0:0,0:0:0:0:
15,30,36272,1,8,0:3:0:0:
39,185,36434,2,0,P|82:177|135:167,1,73.4999977569581,2|2,0:0|0:0,0:0:0:0:
293,207,36759,2,0,P|286:253|276:296,1,73.4999977569581,2|8,0:0|0:0,0:0:0:0:
226,341,37002,1,8,0:0:0:0:
226,341,37083,6,0,P|278:317|397:338,1,146.999995513916,6|2,0:0|0:0,0:0:0:0:
486,247,37569,1,8,0:3:0:0:
212,227,37732,2,0,P|176:223|123:215,1,73.4999977569581,2|2,0:0|0:0,0:0:0:0:
17,73,38056,1,8,0:0:0:0:
106,230,38218,1,8,0:0:0:0:
193,45,38380,6,0,B|228:75|228:75|353:56,1,146.999995513916,6|2,0:0|0:0,0:0:0:0:
486,171,38867,1,12,0:0:0:0:
412,2,39029,1,2,0:0:0:0:
482,213,39191,1,12,0:0:0:0:
284,142,39353,1,2,0:0:0:0:
477,263,39515,2,8,L|465:311,1,36.749998878479
371,355,39678,6,0,P|323:308|371:260,1,126,6|0,0:0|0:0,0:0:0:0:
374,258,40002,1,8,0:0:0:0:
217,343,40164,1,8,0:0:0:0:
144,136,40326,1,8,0:0:0:0:
269,242,40488,1,8,0:0:0:0:
269,242,40569,1,8,0:0:0:0:
269,242,40650,1,8,0:0:0:0:
53,198,40813,2,8,L|2:191,1,42
177,114,40975,6,0,L|337:94,1,157.5,6|0,0:0|0:0,0:0:0:0:
392,27,41299,2,0,P|423:75|416:129,1,105,8|0,0:0|0:0,0:0:0:0:
282,334,41623,2,0,L|260:174,1,157.5,2|0,0:0|0:0,0:0:0:0:
257,149,41948,1,8,0:0:0:0:
367,269,42110,1,0,0:0:0:0:
92,266,42272,6,0,P|150:273|200:282,1,105,2|0,0:0|0:0,0:0:0:0:
377,170,42596,2,0,P|386:226|361:273,1,105,8|0,0:0|0:0,0:0:0:0:
282,334,42840,1,0,0:0:0:0:
282,334,42921,2,0,B|390:302|390:302|460:329,1,157.5,2|0,0:0|0:0,0:0:0:0:
475,337,43245,2,0,P|471:300|464:213,1,105,8|0,0:0|0:0,0:0:0:0:
335,20,43569,6,0,P|314:87|345:131,1,105,2|0,0:0|0:0,0:0:0:0:
243,247,43894,2,0,P|218:239|130:220,1,105,8|0,0:0|0:0,0:0:0:0:
3,153,44218,1,2,0:0:0:0:
190,85,44380,1,0,0:0:0:0:
117,236,44542,2,0,P|129:293|134:343,1,105,8|0,0:0|0:0,0:0:0:0:
337,257,44867,6,0,P|360:186|309:101,1,157.5,2|0,0:0|0:0,0:0:0:0:
218,64,45191,2,0,P|273:45|318:17,1,105,8|0,0:0|0:0,0:0:0:0:
196,174,45515,2,0,P|153:163|86:139,1,105,2|0,0:0|0:0,0:0:0:0:
326,114,45840,1,12,0:0:0:0:
218,271,46002,1,0,0:0:0:0:
55,77,46164,6,0,B|66:195|66:195|116:252,1,157.5,6|0,0:0|0:0,0:0:0:0:
116,302,46488,2,0,P|86:295|2:281,1,105,8|2,0:0|0:0,0:0:0:0:
322,256,46813,2,0,P|276:261|189:275,1,105,8|2,0:0|0:0,0:0:0:0:
512,327,47137,2,0,P|457:320|402:308,1,105,8|2,0:0|0:0,0:0:0:0:
212,141,47461,6,0,P|246:87|358:122,1,157.5,8|0,0:0|0:0,0:0:0:0:
418,66,47786,2,0,L|397:180,1,105,8|2,0:0|0:0,0:0:0:0:
318,349,48110,1,8,0:0:0:0:
233,170,48272,1,2,0:0:0:0:
481,136,48434,2,0,L|475:255,1,105,8|2,0:0|0:0,0:0:0:0:
360,7,48759,5,12,0:0:0:0:
337,216,48921,1,2,0:0:0:0:
212,141,49083,1,2,0:0:0:0:
397,10,49245,5,12,0:0:0:0:
308,191,49407,1,2,0:0:0:0:
466,148,49569,1,2,0:0:0:0:
241,40,49732,2,0,P|185:50|126:67,1,105,12|0,0:0|0:0,0:0:0:0:
27,206,50056,5,2,0:0:0:0:
113,49,50218,1,2,0:0:0:0:
213,168,50380,2,0,P|200:226|192:278,1,105,12|0,0:0|0:0,0:0:0:0:
332,109,50705,6,8,P|326:84|303:37,2,70
415,199,51029,2,8,P|436:176|461:131,2,70
443,307,51353,6,0,P|388:277|314:283,1,125.999996154785,6|0,0:0|0:0,0:0:0:0:
247,230,51840,2,0,P|237:269|231:303,1,62.9999980773926,2|0,0:0|0:0,0:0:0:0:
155,360,52164,2,0,P|146:315|131:228,1,125.999996154785,2|0,0:0|0:0,0:0:0:0:
199,156,52650,6,0,P|142:131|66:153,1,125.999996154785,2|0,0:0|0:0,0:0:0:0:
9,226,53137,2,0,L|2:163,1,62.9999980773926,2|0,0:0|0:0,0:0:0:0:
0,32,53461,2,0,P|67:45|128:50,1,125.999996154785,2|0,0:0|0:0,0:0:0:0:
159,32,53867,1,0,0:0:0:0:
159,32,53948,6,0,L|301:17,1,125.999996154785,2|0,0:0|0:0,0:0:0:0:
396,43,54434,2,0,P|423:97|376:161,1,125.999996154785,2|0,0:0|0:0,0:0:0:0:
295,102,54921,2,0,P|281:150|292:176,1,62.9999980773926,2|0,0:0|0:0,0:0:0:0:
354,248,55245,6,0,B|443:234|443:234|483:255,1,125.999996154785,2|0,0:0|0:0,0:0:0:0:
385,350,55732,2,0,B|296:364|296:364|264:347,1,125.999996154785,2|2,0:0|0:0,0:0:0:0:
186,268,56218,2,0,P|183:308|156:333,1,62.9999980773926,2|0,0:0|0:0,0:0:0:0:
134,330,56461,1,0,0:0:0:0:
134,330,56542,5,2,0:0:0:0:
58,172,56705,1,2,0:0:0:0:
58,172,56786,1,2,0:0:0:0:
58,172,56867,2,0,P|87:166|125:156,3,52.5,2|2|2|2,0:0|0:0|0:0|0:0,0:0:0:0:
119,66,57191,2,0,L|196:81,3,52.5,2|2|2|2,0:0|0:0|0:0|0:0,0:0:0:0:
245,128,57515,2,0,P|276:121|309:119,3,52.5,2|2|2|2,0:0|0:0|0:0|0:0,0:0:0:0:
381,55,57840,6,0,P|389:88|394:120,3,52.5,2|2|2|2,0:0|0:0|0:0|0:0,0:0:0:0:
474,126,58164,2,0,P|456:159|439:183,3,52.5,2|2|2|2,0:0|0:0|0:0|0:0,0:0:0:0:
501,242,58488,2,0,P|471:253|432:263,3,52.5,2|2|2|2,0:0|0:0|0:0|0:0,0:0:0:0:
444,348,58813,2,0,P|421:341|394:327,3,52.5,2|2|2|2,0:0|0:0|0:0|0:0,0:0:0:0:
351,233,59137,5,2,0:0:0:0:
242,323,59299,1,2,0:0:0:0:
242,323,59380,1,2,0:0:0:0:
242,323,59461,2,0,L|235:378,3,52.5,2|0|2|2,0:0|0:0|0:0|0:0,0:0:0:0:
318,213,59786,1,2,0:0:0:0:
132,235,59948,1,2,0:0:0:0:
125,272,60029,1,2,0:0:0:0:
118,306,60110,1,2,0:0:0:0:
17,171,60272,2,8,P|11:153|4:107,1,52.5,8|8,0:3|0:3,0:3:0:0:
44,50,60434,5,2,0:0:0:0:
116,123,60596,1,2,0:0:0:0:
191,17,60759,1,10,0:0:0:0:
214,183,60921,1,10,0:0:0:0:
323,1,61083,5,10,0:0:0:0:
309,231,61245,1,10,0:0:0:0:
457,11,61407,1,10,0:0:0:0:
409,289,61569,1,10,0:0:0:0:
274,125,61732,6,0,L|441:107,1,157.5,6|0,0:0|0:0,0:0:0:0:
461,125,62056,2,0,P|481:185|466:226,1,105,8|2,0:0|0:0,0:0:0:0:
373,41,62380,1,8,0:0:0:0:
294,217,62542,1,2,0:0:0:0:
147,78,62705,1,8,0:0:0:0:
364,148,62867,1,2,0:0:0:0:
256,323,63029,5,8,0:0:0:0:
179,175,63191,1,2,0:0:0:0:
452,252,63353,2,0,P|425:248|337:240,1,105,6|0,0:0|0:0,0:0:0:0:
155,204,63678,6,8,P|171:247|182:300,2,70,8|8|8,0:3|0:3|0:3,0:3:0:0:
256,113,64002,2,8,P|269:91|277:32,2,70,8|8|8,0:3|0:3|0:3,0:3:0:0:
50,107,64326,6,0,P|97:63|202:67,1,146.999995513916,4|0,0:0|0:0,0:0:0:0:
401,23,64975,2,0,P|383:98|371:181,1,146.999995513916,2|0,0:0|0:0,0:0:0:0:
230,339,65623,6,0,B|201:313|201:313|179:180,1,146.999995513916,2|0,0:0|0:0,0:0:0:0:
429,285,66272,2,0,P|389:255|272:262,1,146.999995513916,2|0,0:0|0:0,0:0:0:0:
26,157,66921,6,0,P|122:155|169:77,1,157.5,12|0,0:0|0:0,0:0:0:0:
172,22,67245,1,8,0:0:0:0:
253,219,67407,1,2,0:0:0:0:
76,77,67569,1,10,0:0:0:0:
340,49,67732,1,10,0:0:0:0:
225,254,67894,1,10,0:0:0:0:
195,40,68056,1,10,0:0:0:0:
455,164,68218,5,10,0:0:0:0:
83,94,68380,1,10,0:0:0:0:
376,27,68542,1,10,0:0:0:0:
246,338,68705,1,10,0:0:0:0:
196,247,69515,6,0,P|137:234|12:223,1,173.250005287171,6|0,0:0|0:0,0:0:0:0:
152,157,69840,2,0,P|214:147|264:133,1,115.50000352478,8|0,0:0|0:0,0:0:0:0:
78,70,70164,1,2,0:0:0:0:
102,267,70326,1,0,0:0:0:0:
346,103,70488,2,0,P|331:162|318:233,1,115.50000352478,8|0,0:0|0:0,0:0:0:0:
420,377,70813,6,0,P|498:334|453:254,1,173.250005287171,2|0,0:0|0:0,0:0:0:0:
422,135,71137,2,0,P|407:194|394:265,1,115.50000352478,8|0,0:0|0:0,0:0:0:0:
204,330,71461,2,0,P|128:317|31:298,1,173.250005287171,2|0,0:0|0:0,0:0:0:0:
0,226,71786,2,0,P|58:215|117:208,1,115.50000352478,8|0,0:0|0:0,0:0:0:0:
277,27,72110,6,0,P|157:29|148:143,1,231.000007049561,2|8,0:0|0:0,0:0:0:0:
311,140,72596,1,0,0:0:0:0:
47,91,72759,2,0,P|61:153|76:223,1,115.50000352478,2|0,0:0|0:0,0:0:0:0:
210,362,73083,2,0,P|223:316|233:239,1,115.50000352478,8|0,0:0|0:0,0:0:0:0:
406,109,73407,6,0,B|287:92|287:92|317:154,1,173.250005287171,2|0,0:0|0:0,0:0:0:0:
365,219,73732,1,8,0:0:0:0:
446,35,73894,1,0,0:0:0:0:
200,33,74056,2,0,P|212:106|218:149,1,115.50000352478,2|0,0:0|0:0,0:0:0:0:
135,354,74380,1,8,0:0:0:0:
116,148,74542,1,0,0:0:0:0:
289,278,74705,6,0,B|226:240|177:297|104:241,1,173.250005287171,6|0,0:0|0:0,0:0:0:0:
33,180,75029,2,0,P|9:244|41:316,1,115.50000352478,8|0,0:0|0:0,0:0:0:0:
133,75,75353,2,0,P|94:60|21:37,1,115.50000352478,2|0,0:0|0:0,0:0:0:0:
331,127,75678,2,0,P|269:137|206:151,1,115.50000352478,8|0,0:0|0:0,0:0:0:0:
442,47,76002,6,0,B|428:182|428:182|378:233,1,173.250005287171,2|0,0:0|0:0,0:0:0:0:
353,310,76326,2,0,P|409:328|452:291,1,115.50000352478,8|0,0:0|0:0,0:0:0:0:
242,235,76650,2,0,P|250:305|253:353,1,115.50000352478,2|0,0:0|0:0,0:0:0:0:
46,310,76975,2,0,P|90:280|163:290,1,115.50000352478,8|0,0:0|0:0,0:0:0:0:
284,102,77299,6,0,P|246:182|156:172,1,173.250005287171,6|0,0:0|0:0,0:0:0:0:
111,112,77623,1,8,0:0:0:0:
376,218,77786,1,2,0:0:0:0:
65,121,77948,1,8,0:0:0:0:
423,46,78110,1,2,0:0:0:0:
21,130,78272,1,8,0:0:0:0:
492,153,78434,1,2,0:0:0:0:
211,35,78596,6,8,P|201:80|218:138,2,77.0000023498536
301,349,78921,2,8,P|311:304|294:246,2,77.0000023498536
77,250,79245,6,8,P|117:243|169:226,1,77.0000023498536,8|8,0:3|0:3,0:3:0:0:
254,186,79461,1,8,0:3:0:0:
431,122,79569,6,8,P|391:128|339:146,1,77.0000023498536,8|8,0:3|0:3,0:3:0:0:
254,186,79785,1,8,0:3:0:0:
425,44,79894,6,0,B|402:198|402:198|429:247,1,188.999994232178,6|2,0:0|0:0,0:0:0:0:
271,342,80542,2,0,B|226:317|238:223|238:223|274:247|308:241,1,188.999994232178,12|0,0:0|0:0,0:0:0:0:
431,122,81191,5,2,0:0:0:0:
169,189,81353,2,0,L|22:166,1,125.999996154785,8|8,0:0|0:0,0:0:0:0:
242,11,81840,6,0,B|265:33|267:64|267:64|237:113|232:162,1,146.999995513916,14|0,0:0|0:0,0:0:0:0:
284,375,82164,2,0,B|261:353|259:322|259:322|288:272|294:224,1,146.999995513916,14|0,0:0|0:0,0:0:0:0:
146,57,82488,5,6,0:0:0:0:
385,160,82650,1,2,0:0:0:0:
184,314,82813,1,8,0:0:0:0:
309,60,82975,1,8,0:3:0:0:
309,60,83056,1,8,0:3:0:0:
309,60,83137,1,2,0:0:0:0:
113,203,83299,1,2,0:0:0:0:
406,278,83461,1,8,0:0:0:0:
243,158,83623,1,2,0:0:0:0:
243,158,83705,1,2,0:0:0:0:
243,158,83786,5,6,0:0:0:0:
301,338,83948,1,8,0:0:0:0:
408,148,84110,1,8,0:0:0:0:
173,50,84272,1,8,0:0:0:0:
221,268,84434,1,8,0:0:0:0:
438,169,84596,1,8,0:0:0:0:
65,155,84759,1,8,0:0:0:0:
473,193,84921,1,8,0:0:0:0:
28,171,85083,6,0,P|3:227|40:288,1,105,6|8,0:0|0:0,0:0:0:0:
74,323,85326,1,8,0:0:0:0:
74,323,85407,2,0,L|135:312,3,52.5,10|2|8|8,0:0|0:0|0:0|0:0,0:0:0:0:
237,200,85732,2,0,P|276:213|315:234,3,52.5,10|2|8|8,0:0|0:0|0:0|0:0,0:0:0:0:
130,101,86056,2,8,P|138:71|167:28,1,52.5,10|2,0:0|0:0,0:0:0:0:
323,0,86218,2,8,L|339:67,1,52.5
431,87,86380,5,10,0:0:0:0:
398,120,86461,1,2,0:0:0:0:
378,162,86542,1,8,0:0:0:0:
370,208,86623,1,8,0:0:0:0:
373,255,86705,1,10,0:0:0:0:
387,299,86786,1,2,0:0:0:0:
412,339,86867,1,8,0:0:0:0:
452,363,86948,1,8,0:0:0:0:
493,340,87029,6,0,P|490:320|479:270,1,52.5,10|2,0:0|0:0,0:0:0:0:
398,120,87191,2,8,P|386:143|376:172,1,52.5
261,302,87353,2,0,P|247:297|192:288,1,52.5,10|2,0:0|0:0,0:0:0:0:
61,208,87515,2,8,L|-5:230,1,52.5
191,91,87678,6,8,L|180:160,3,52.5,10|10|8|8,0:0|0:0|0:0|0:0,0:0:0:0:
345,28,88002,2,8,P|377:44|407:53,3,52.5,10|10|8|8,0:0|0:0|0:0|0:0,0:0:0:0:
94,119,88326,2,8,P|58:127|14:135,3,52.5,10|10|8|8,0:0|0:0|0:0|0:0,0:0:0:0:
297,138,88650,2,0,P|312:177|317:207,1,52.5,10|2,0:0|0:0,0:0:0:0:
132,309,88813,2,8,P|135:282|145:240,1,52.5
261,302,88975,5,10,0:0:0:0:
301,326,89056,1,2,0:0:0:0:
348,329,89137,1,8,0:0:0:0:
392,312,89218,1,8,0:0:0:0:
430,284,89299,1,10,0:0:0:0:
448,240,89380,1,2,0:0:0:0:
447,192,89461,1,8,0:0:0:0:
421,152,89542,1,8,0:0:0:0:
389,117,89623,6,8,L|399:56,1,52.5,10|2,0:0|0:0,0:0:0:0:
222,16,89786,2,8,P|225:61|230:96,1,52.5
311,215,89948,2,0,P|282:212|250:203,1,52.5,10|2,0:0|0:0,0:0:0:0:
39,144,90110,2,8,P|73:136|104:131,1,52.5
121,300,90272,6,8,P|124:278|133:239,3,52.5,10|2|8|8,0:0|0:0|0:0|0:0,0:0:0:0:
206,106,90596,2,8,L|185:43,3,52.5,10|2|8|8,0:0|0:0|0:0|0:0,0:0:0:0:
342,237,90921,2,8,P|371:230|418:215,3,52.5,10|2|8|8,0:0|0:0|0:0|0:0,0:0:0:0:
259,206,91245,2,0,P|248:250|246:283,1,52.5,10|2,0:0|0:0,0:0:0:0:
337,119,91407,2,8,P|332:93|325:67,1,52.5
196,119,91569,5,10,0:0:0:0:
157,91,91650,1,2,0:0:0:0:
110,79,91732,1,8,0:0:0:0:
63,86,91813,1,8,0:0:0:0:
29,119,91894,1,10,0:0:0:0:
12,163,91975,1,2,0:0:0:0:
24,208,92056,1,8,0:0:0:0:
63,233,92137,1,8,0:0:0:0:
88,272,92218,6,0,L|64:357,1,52.5,10|2,0:0|0:0,0:0:0:0:
151,185,92380,2,0,P|131:176|67:155,1,52.5,8|8,0:0|0:0,0:0:0:0:
280,261,92542,2,0,L|358:246,1,52.5,10|2,0:0|0:0,0:0:0:0:
298,59,92705,2,8,P|284:93|279:135,1,52.5
433,201,92867,6,8,P|443:237|448:274,3,52.5,10|2|8|8,0:0|0:0|0:0|0:0,0:0:0:0:
396,35,93191,2,8,P|421:42|445:51,3,52.5,10|2|8|8,0:0|0:0|0:0|0:0,0:0:0:0:
281,186,93515,2,8,P|249:193|193:197,3,52.5,10|2|8|8,0:0|0:0|0:0|0:0,0:0:0:0:
134,109,93840,2,0,P|144:146|152:181,1,52.5,10|2,0:0|0:0,0:0:0:0:
31,321,94002,2,8,L|38:257,1,52.5
174,291,94164,5,10,0:0:0:0:
208,323,94245,1,2,0:0:0:0:
253,334,94326,1,8,0:0:0:0:
299,344,94407,1,8,0:0:0:0:
345,336,94488,1,10,0:0:0:0:
388,316,94569,1,2,0:0:0:0:
422,283,94650,1,8,0:0:0:0:
435,237,94732,1,8,0:0:0:0:
401,203,94813,6,8,P|371:209|337:223,1,52.5,10|2,0:0|0:0,0:0:0:0:
201,110,94975,2,8,P|215:147|227:177,1,52.5
122,335,95137,2,0,L|128:271,1,52.5,10|2,0:0|0:0,0:0:0:0:
9,188,95299,2,8,L|68:173,1,52.5
109,50,95461,5,6,0:0:0:0:
109,50,96759,1,2,0:0:0:0:
109,50,98056,5,2,0:0:0:0:
109,50,99353,1,2,0:0:0:0:
217,28,99678,2,0,P|212:63|203:108,1,73.4999977569581,2|0,0:0|0:0,0:0:0:0:
123,149,100002,2,0,P|138:189|145:222,1,73.4999977569581,2|0,0:0|0:0,0:0:0:0:
175,313,100326,1,2,0:0:0:0:
175,313,100650,5,12,0:0:0:0:
308,197,100813,2,8,L|297:138,1,52.5
279,54,100975,1,8,0:0:0:0:
416,236,101137,2,8,L|405:177,1,52.5
387,93,101299,1,8,0:0:0:0:
135,23,101461,5,8,0:0:0:0:
130,54,101542,1,8,0:0:0:0:
124,84,101623,1,8,0:0:0:0:
118,115,101705,1,8,0:0:0:0:
112,145,101786,1,8,0:0:0:0:
106,176,101867,1,8,0:0:0:0:
100,207,101948,5,8,0:0:0:0:
292,317,102110,2,8,P|322:306|361:299,1,52.5
464,297,102272,1,8,0:0:0:0:
203,220,102434,2,8,P|233:209|272:202,1,52.5
375,200,102596,1,8,0:0:0:0:
442,27,102759,5,8,0:0:0:0:
421,50,102840,1,8,0:0:0:0:
392,63,102921,1,8,0:0:0:0:
361,69,103002,1,8,0:0:0:0:
329,66,103083,1,8,0:0:0:0:
300,53,103164,1,8,0:0:0:0:
277,31,103245,6,0,L|194:17,1,52.5,8|0,0:0|0:0,0:0:0:0:
89,58,103407,2,8,P|106:93|131:122,1,52.5,8|0,0:0|0:0,0:0:0:0:
253,204,103569,1,8,0:0:0:0:
224,189,103650,1,8,0:0:0:0:
192,186,103732,1,8,0:0:0:0:
160,189,103813,1,8,0:0:0:0:
133,206,103894,1,8,0:0:0:0:
16,328,104056,5,8,0:0:0:0:
47,325,104137,1,8,0:0:0:0:
78,322,104218,1,8,0:0:0:0:
109,319,104299,1,8,0:0:0:0:
140,316,104380,1,8,0:0:0:0:
171,313,104461,1,8,0:0:0:0:
202,310,104542,5,8,0:0:0:0:
387,186,104705,1,8,0:0:0:0:
203,31,104867,1,8,0:0:0:0:
243,224,105029,2,8,L|320:205,1,52.5
387,186,105191,1,8,0:0:0:0:
58,122,105353,5,14,0:0:0:0:
491,119,105515,2,0,B|473:241|473:241|425:279,1,157.5,14|0,0:0|0:0,0:0:0:0:
355,295,105840,6,0,P|426:301|503:353,1,157.5,6|0,0:0|0:0,0:0:0:0:
446,262,106164,2,0,L|420:148,1,105,8|0,0:0|0:0,0:0:0:0:
279,23,106488,1,2,0:0:0:0:
244,220,106650,1,0,0:0:0:0:
411,79,106813,1,8,0:0:0:0:
196,31,106975,1,0,0:0:0:0:
127,220,107137,6,0,P|200:230|236:238,1,105,2|0,0:0|0:0,0:0:0:0:
411,79,107461,2,0,P|339:84|298:162,1,157.5,8|0,0:0|0:0,0:0:0:0:
340,223,107786,1,2,0:0:0:0:
216,29,107948,1,8,0:0:0:0:
477,158,108110,1,2,0:0:0:0:
129,109,108272,1,8,0:0:0:0:
297,151,108434,6,0,P|282:277|274:323,1,157.5,2|0,0:0|0:0,0:0:0:0:
250,339,108759,2,0,P|237:281|230:235,1,105,8|0,0:0|0:0,0:0:0:0:
249,15,109083,1,2,0:0:0:0:
386,159,109245,1,0,0:0:0:0:
149,215,109407,1,8,0:0:0:0:
301,106,109569,1,0,0:0:0:0:
61,142,109732,6,0,P|33:213|77:299,1,157.5,2|0,0:0|0:0,0:0:0:0:
148,328,110056,2,0,P|211:305|293:307,1,105,8|0,0:0|0:0,0:0:0:0:
454,218,110380,2,0,L|348:194,1,105,2|0,0:0|0:0,0:0:0:0:
203,75,110705,1,8,0:0:0:0:
328,276,110867,1,0,0:0:0:0:
403,73,111029,6,0,P|355:29|253:45,1,157.5,6|0,0:0|0:0,0:0:0:0:
203,75,111353,2,0,L|81:54,1,105,8|2,0:0|0:0,0:0:0:0:
287,156,111678,2,0,P|239:170|167:184,1,105,8|2,0:0|0:0,0:0:0:0:
403,73,112002,2,0,P|442:131|437:182,1,105,8|2,0:0|0:0,0:0:0:0:
263,300,112326,6,0,P|250:222|299:145,1,157.5,8|0,0:0|0:0,0:0:0:0:
361,197,112650,2,0,P|364:260|327:313,1,105,8|2,0:0|0:0,0:0:0:0:
231,89,112975,1,8,0:0:0:0:
416,113,113137,1,2,0:0:0:0:
219,222,113299,2,0,P|203:215|91:190,1,105,8|2,0:0|0:0,0:0:0:0:
355,39,113623,5,14,0:0:0:0:
180,133,113786,1,2,0:0:0:0:
294,237,113948,1,2,0:0:0:0:
453,18,114110,5,14,0:0:0:0:
336,225,114272,1,2,0:0:0:0:
268,84,114434,1,2,0:0:0:0:
411,193,114596,2,0,P|354:187|221:173,1,157.5,14|0,0:0|0:0,0:0:0:0:
176,105,114921,6,8,P|185:72|195:18,2,70
76,158,115245,2,8,P|60:129|45:80,2,70
36,272,115569,6,8,P|76:258|124:250,1,70,8|8,0:3|0:3,0:3:0:0:
206,222,115786,1,8,0:3:0:0:
264,310,115894,6,8,P|307:318|355:318,1,70,8|8,0:3|0:3,0:3:0:0:
428,254,116110,1,8,0:3:0:0:
488,161,116218,6,0,P|409:138|356:169,1,125.999996154785,6|0,0:0|0:0,0:0:0:0:
300,230,116705,2,0,L|286:141,1,62.9999980773926,2|0,0:0|0:0,0:0:0:0:
332,62,117029,2,0,P|248:97|204:75,1,125.999996154785,2|0,0:0|0:0,0:0:0:0:
111,15,117515,6,0,L|136:163,1,125.999996154785,2|0,0:0|0:0,0:0:0:0:
66,211,118002,2,0,P|48:202|-15:182,1,62.9999980773926,2|0,0:0|0:0,0:0:0:0:
33,311,118326,2,0,P|103:301|166:290,1,125.999996154785,2|0,0:0|0:0,0:0:0:0:
205,203,118813,6,0,P|275:213|338:224,1,125.999996154785,2|0,0:0|0:0,0:0:0:0:
442,290,119299,2,0,P|405:329|330:300,1,125.999996154785,2|0,0:0|0:0,0:0:0:0:
275,176,119786,2,0,P|281:146|288:98,1,62.9999980773926,2|0,0:0|0:0,0:0:0:0:
385,13,120110,6,0,L|401:144,1,125.999996154785,2|0,0:0|0:0,0:0:0:0:
478,211,120596,2,0,P|488:176|504:138,1,62.9999980773926,2|0,0:0|0:0,0:0:0:0:
376,155,120921,2,0,P|351:150|229:135,1,125.999996154785,2|0,0:0|0:0,0:0:0:0:
163,56,121407,6,0,P|145:96|132:148,1,73.4999977569581,2|0,0:0|0:0,0:0:0:0:
23,164,121732,2,0,L|41:242,1,73.4999977569581,2|0,0:0|0:0,0:0:0:0:
148,322,122056,2,0,L|160:249,1,73.4999977569581,2|0,0:0|0:0,0:0:0:0:
280,208,122380,2,0,L|267:280,1,73.4999977569581,2|8,0:0|0:3,0:0:0:0:
288,313,122623,1,8,0:3:0:0:
288,313,122705,6,0,P|328:305|372:301,1,73.4999977569581,2|0,0:0|0:0,0:0:0:0:
378,174,123029,2,0,P|425:185|454:193,1,73.4999977569581,2|0,0:0|0:0,0:0:0:0:
288,46,123353,2,0,P|297:87|303:143,1,73.4999977569581,2|2,0:0|0:0,0:0:0:0:
278,141,123596,1,2,0:0:0:0:
278,141,123678,2,0,P|246:138|205:122,1,73.4999977569581,2|2,0:0|0:0,0:0:0:0:
169,108,123921,1,2,0:0:0:0:
169,108,124003,6,0,P|137:111|96:127,1,73.4999977569581,2|0,0:0|0:0,0:0:0:0:
14,224,124326,2,0,P|27:260|42:312,1,73.4999977569581,2|0,0:0|0:0,0:0:0:0:
151,376,124650,2,0,P|154:339|162:291,1,73.4999977569581,2|0,0:0|0:0,0:0:0:0:
226,194,124975,2,0,L|207:121,1,73.4999977569581,2|0,0:0|0:0,0:0:0:0:
270,5,125299,5,2,0:0:0:0:
169,108,125461,1,2,0:0:0:0:
421,139,125623,2,0,P|454:128|503:113,1,73.4999977569581,12|0,0:0|0:0,0:0:0:0:
279,34,125948,1,2,0:0:0:0:
305,282,126110,1,8,0:0:0:0:
317,252,126191,1,8,0:0:0:0:
341,231,126272,1,8,0:0:0:0:
371,219,126353,1,8,0:0:0:0:
403,213,126434,1,8,0:0:0:0:
434,223,126515,1,8,0:0:0:0:
456,256,126596,6,0,P|373:239|299:216,1,157.5,6|0,0:0|0:0,0:0:0:0:
208,154,126921,2,0,P|216:201|226:258,1,105,8|2,0:0|0:0,0:0:0:0:
298,76,127245,1,8,0:0:0:0:
128,24,127407,1,2,0:0:0:0:
150,226,127569,1,8,0:0:0:0:
251,80,127732,1,2,0:0:0:0:
11,132,127894,5,8,0:0:0:0:
177,244,128056,1,2,0:0:0:0:
355,78,128218,2,0,P|326:75|233:83,1,105,12|0,0:0|0:0,0:0:0:0:
104,36,128542,2,8,P|115:82|127:124,2,70
217,159,128867,2,8,P|211:193|200:237,2,70
14,286,129191,6,0,P|72:326|151:281,1,146.999995513916,2|0,0:0|0:0,0:0:0:0:
416,238,129840,2,0,P|358:198|279:243,1,146.999995513916,2|0,0:0|0:0,0:0:0:0:
105,64,130488,6,0,P|123:177|129:222,1,146.999995513916,2|0,0:0|0:0,0:0:0:0:
437,316,131137,2,0,P|447:243|459:170,1,146.999995513916,2|0,0:0|0:0,0:0:0:0:
192,45,131786,6,0,B|268:76|268:19|377:55,1,157.5,6|0,0:0|0:0,0:0:0:0:
369,66,132110,1,10,0:0:0:0:
313,263,132272,1,10,0:0:0:0:
168,122,132434,1,10,0:0:0:0:
392,147,132596,1,10,0:0:0:0:
264,20,132759,1,10,0:0:0:0:
144,156,132921,1,10,0:0:0:0:
420,123,133083,5,10,0:0:0:0:
134,35,133245,1,10,0:0:0:0:
243,311,133407,1,10,0:0:0:0:
359,13,133569,1,10,0:0:0:0:
218,95,134380,6,0,P|169:157|212:268,1,173.250005287171,6|0,0:0|0:0,0:0:0:0:
308,328,134705,2,0,P|311:286|321:200,1,115.50000352478,8|0,0:0|0:0,0:0:0:0:
382,20,135029,1,2,0:0:0:0:
249,178,135191,1,0,0:0:0:0:
449,270,135353,2,0,P|436:223|424:153,1,115.50000352478,8|0,0:0|0:0,0:0:0:0:
267,6,135678,6,0,P|256:94|249:190,1,173.250005287171,2|0,0:0|0:0,0:0:0:0:
173,256,136002,2,0,P|131:230|60:215,1,115.50000352478,8|0,0:0|0:0,0:0:0:0:
278,358,136326,2,0,B|400:343|400:343|430:303,1,173.250005287171,2|0,0:0|0:0,0:0:0:0:
507,233,136650,2,0,L|393:205,1,115.50000352478,8|0,0:0|0:0,0:0:0:0:
128,118,136975,6,0,B|162:111|191:98|191:98|253:135|253:135|293:127|342:107,1,231.000007049561,2|8,0:0|0:0,0:0:0:0:
471,27,137461,1,0,0:0:0:0:
256,169,137623,2,0,P|266:231|283:287,1,115.50000352478,2|0,0:0|0:0,0:0:0:0:
47,165,137948,2,0,P|51:117|68:39,1,115.50000352478,8|0,0:0|0:0,0:0:0:0:
343,211,138272,6,0,B|303:198|221:179|221:179|164:200,1,173.250005287171,2|0,0:0|0:0,0:0:0:0:
123,271,138596,1,8,0:0:0:0:
326,103,138759,1,0,0:0:0:0:
155,1,138921,2,0,P|162:67|173:128,1,115.50000352478,2|0,0:0|0:0,0:0:0:0:
251,315,139245,1,8,0:0:0:0:
300,116,139407,1,0,0:0:0:0:
47,201,139569,6,0,P|121:183|219:214,1,173.250005287171,6|0,0:0|0:0,0:0:0:0:
275,303,139894,2,0,P|338:290|401:270,1,115.50000352478,8|0,0:0|0:0,0:0:0:0:
333,49,140218,2,0,P|320:114|315:174,1,115.50000352478,2|0,0:0|0:0,0:0:0:0:
61,72,140542,2,0,P|129:92|211:102,1,115.50000352478,8|0,0:0|0:0,0:0:0:0:
512,157,140867,6,0,B|396:184|396:184|431:193|463:218,1,173.250005287171,2|0,0:0|0:0,0:0:0:0:
479,288,141191,1,8,0:0:0:0:
446,80,141353,1,0,0:0:0:0:
290,241,141515,2,0,L|270:127,1,115.50000352478,2|0,0:0|0:0,0:0:0:0:
31,48,141840,2,0,L|50:161,1,115.50000352478,8|0,0:0|0:0,0:0:0:0:
202,286,142164,5,12,0:0:0:0:
296,142,142326,1,2,0:0:0:0:
103,303,142488,1,8,0:0:0:0:
371,81,142650,1,2,0:0:0:0:
28,261,142813,1,8,0:0:0:0:
467,90,142975,1,2,0:0:0:0:
11,174,143137,1,8,0:0:0:0:
508,173,143299,1,2,0:0:0:0:
189,239,143461,6,8,L|112:217,2,77.0000023498536
322,146,143786,2,8,L|399:124,2,77.0000023498536
201,123,144110,6,8,P|193:98|189:33,1,77.0000023498536,8|8,0:3|0:3,0:3:0:0:
256,193,144326,1,8,0:3:0:0:
311,263,144434,6,8,P|318:287|323:353,1,77.0000023498536,8|8,0:3|0:3,0:3:0:0:
256,193,144650,1,8,0:3:0:0:
194,307,144759,6,0,B|133:328|133:328|65:279|65:279|-13:271,1,220.499993270874,6|2,0:0|0:0,0:0:0:0:
349,90,145407,6,0,B|389:100|389:100|433:85|433:85|478:129|444:180|444:180|409:164,1,220.499993270874,12|0,0:0|0:0,0:0:0:0:
200,112,146056,5,2,0:0:0:0:
366,235,146218,2,0,P|448:222|513:215,1,146.999995513916,8|2,0:0|0:0,0:0:0:0:
211,289,146705,6,0,B|229:331|229:331|123:287,1,146.999995513916,12|0,0:0|0:0,0:0:0:0:
308,107,147029,2,0,B|401:68|401:68|383:110,1,146.999995513916,12|0,0:0|0:0,0:0:0:0:
112,41,147353,6,0,L|126:144,1,105,6|0,0:0|0:0,0:0:0:0:
41,328,147678,1,8,0:0:0:0:
210,200,147840,1,8,0:3:0:0:
210,200,147921,1,8,0:3:0:0:
210,200,148002,1,2,0:0:0:0:
39,122,148164,1,2,0:0:0:0:
252,221,148326,2,0,P|301:215|361:203,1,105,8|0,0:0|0:0,0:0:0:0:
177,40,148650,5,10,0:0:0:0:
209,301,148813,1,10,0:0:0:0:
345,112,148975,1,10,0:0:0:0:
106,115,149137,1,10,0:0:0:0:
401,230,149299,5,10,0:0:0:0:
23,285,149461,1,10,0:0:0:0:
440,109,149623,1,10,0:0:0:0:
12,41,149786,1,10,0:0:0:0:
275,159,149948,6,0,P|266:227|257:285,1,125.999996154785,6|2,0:0|0:0,0:0:0:0:
149,198,150434,2,0,P|97:184|41:237,1,125.999996154785
90,323,150921,2,0,P|128:316|169:290,1,62.9999980773926,2|0,0:0|0:0,0:0:0:0:
133,140,151245,6,0,P|81:126|25:179,1,125.999996154785,2|2,0:0|0:0,0:0:0:0:
230,179,151732,2,0,P|222:148|209:45,1,125.999996154785
329,11,152218,2,0,P|318:50|309:87,1,62.9999980773926,2|0,0:0|0:0,0:0:0:0:
330,173,152542,6,0,P|376:191|438:144,1,125.999996154785,2|2,0:0|0:0,0:0:0:0:
299,91,153029,1,0,0:0:0:0:
248,197,153191,2,0,P|261:241|269:276,1,62.9999980773926,2|0,0:0|0:0,0:0:0:0:
210,351,153515,2,0,P|182:360|143:365,1,62.9999980773926,2|0,0:0|0:0,0:0:0:0:
15,257,153840,6,0,P|86:268|156:276,1,125.999996154785,2|2,0:0|0:0,0:0:0:0:
189,132,154326,2,0,P|128:129|93:185,1,125.999996154785
3,119,154813,2,0,P|4:91|19:50,1,62.9999980773926,2|0,0:0|0:0,0:0:0:0:
39,42,155056,1,0,0:0:0:0:
64,30,155137,6,0,P|155:42|201:39,2,125.999996154785,2|2|2,0:0|0:0|0:0,0:0:0:0:
286,26,156110,2,0,P|276:65|269:100,1,62.9999980773926,2|0,0:0|0:0,0:0:0:0:
238,166,156434,6,0,P|297:126|359:147,1,125.999996154785,2|2,0:0|0:0,0:0:0:0:
434,93,156921,2,0,P|420:165|408:226,1,125.999996154785
309,216,157407,2,0,P|318:256|325:303,1,62.9999980773926,2|0,0:0|0:0,0:0:0:0:
383,353,157732,5,2,0:0:0:0:
106,315,158056,2,0,P|121:293|152:258,1,62.9999980773926,2|0,0:0|0:0,0:0:0:0:
214,180,158380,2,0,P|187:178|141:168,1,62.9999980773926,2|0,0:0|0:0,0:0:0:0:
41,148,158705,2,0,P|52:171|67:216,1,62.9999980773926,2|0,0:0|0:0,0:0:0:0:
166,39,159029,6,0,P|157:112|143:183,1,125.999996154785,2|2,0:0|0:0,0:0:0:0:
250,317,159515,2,0,P|320:304|385:291,1,125.999996154785
476,152,160002,2,0,P|440:141|372:129,1,94.499997116089,2|0,0:0|0:0,0:0:0:0:
349,147,160326,5,6,0:0:0:0:
221,58,170705,6,0,P|267:129|211:194,1,157.500006008148,6|2,0:0|0:0,0:0:0:0:
118,103,171191,1,0,0:0:0:0:
342,77,171353,2,0,P|350:123|340:167,1,78.7500030040742,2|0,0:0|0:0,0:0:0:0:
257,338,171678,2,0,P|253:311|245:249,1,78.7500030040742,2|0,0:0|0:0,0:0:0:0:
106,90,172002,5,2,0:0:0:0:
118,207,172164,1,0,0:0:0:0:
205,133,172326,1,2,0:0:0:0:
76,115,172488,1,0,0:0:0:0:
252,135,172650,2,0,L|340:125,1,78.7500030040742,2|0,0:0|0:0,0:0:0:0:
354,106,172894,1,0,0:0:0:0:
354,106,172975,2,0,L|438:122,1,78.7500030040742,2|0,0:0|0:0,0:0:0:0:
466,129,173218,1,0,0:0:0:0:
466,129,173299,6,0,P|490:197|426:251,1,157.500006008148,2|2,0:0|0:0,0:0:0:0:
330,126,173786,1,0,0:0:0:0:
292,256,173948,2,0,P|299:295|308:356,1,78.7500030040742,2|0,0:0|0:0,0:0:0:0:
205,133,174272,2,0,P|203:94|227:54,1,78.7500030040742,2|0,0:0|0:0,0:0:0:0:
238,36,174515,1,0,0:0:0:0:
238,36,174596,6,0,L|150:21,1,78.7500030040742,2|0,0:0|0:0,0:0:0:0:
356,120,174921,2,0,P|398:109|433:108,1,78.7500030040742,2|0,0:0|0:0,0:0:0:0:
276,244,175245,2,0,L|268:342,1,78.7500030040742,2|0,0:0|0:0,0:0:0:0:
183,134,175569,2,0,P|150:126|103:115,1,78.7500030040742,2|0,0:0|0:0,0:0:0:0:
27,162,175813,1,0,0:0:0:0:
27,162,175894,6,0,B|53:286|53:286|85:253,1,157.500006008148,2|2,0:0|0:0,0:0:0:0:
217,155,176380,1,0,0:0:0:0:
94,29,176542,2,0,P|71:21|-14:7,1,78.7500030040742,2|0,0:0|0:0,0:0:0:0:
204,70,176867,2,0,L|295:57,1,78.7500030040742,2|0,0:0|0:0,0:0:0:0:
476,8,177191,6,0,B|453:48|453:48|464:174,1,157.500006008148,2|2,0:0|0:0,0:0:0:0:
398,292,177678,1,0,0:0:0:0:
262,147,177840,2,0,P|297:128|371:131,1,78.7500030040742,2|0,0:0|0:0,0:0:0:0:
363,143,178083,1,0,0:0:0:0:
363,143,178164,2,0,L|347:241,1,78.7500030040742,2|0,0:0|0:0,0:0:0:0:
256,361,178488,6,0,L|243:283,1,78.7500030040742,2|0,0:0|0:0,0:0:0:0:
216,109,178813,1,2,0:0:0:0:
145,297,178975,2,0,L|14:272,1,118.125004506111
4,288,179299,1,0,0:0:0:0:
221,209,179461,1,2,0:0:0:0:
94,87,179623,1,0,0:0:0:0:
263,212,179786,6,0,P|300:206|350:194,1,84,10|2,0:0|0:0,0:0:0:0:
254,35,180110,1,10,0:0:0:0:
183,204,180272,1,10,0:0:0:0:
350,289,180434,1,10,0:0:0:0:
264,76,180596,1,10,0:0:0:0:
452,191,180759,1,10,0:0:0:0:
148,101,180921,1,10,0:0:0:0:
373,41,181083,6,0,P|363:96|357:146,1,105,6|0,0:0|0:0,0:0:0:0:
180,360,181407,2,0,P|157:255|225:187,1,210,8|2,0:0|0:0,0:0:0:0:
367,292,181894,1,2,0:0:0:0:
84,240,182056,2,0,P|47:241|-24:253,1,105,8|0,0:0|0:0,0:0:0:0:
153,89,182380,6,0,P|242:99|312:109,1,157.5,2|0,0:0|0:0,0:0:0:0:
345,102,182705,2,0,P|351:69|312:7,1,105,8|0,0:0|0:0,0:0:0:0:
240,196,183029,1,2,0:0:0:0:
428,72,183191,1,2,0:0:0:0:
118,72,183353,2,0,L|133:179,1,105,8|0,0:0|0:0,0:0:0:0:
350,356,183678,6,0,L|331:187,1,157.5,2|0,0:0|0:0,0:0:0:0:
438,149,184002,2,0,P|449:206|402:249,1,105,8|0,0:0|0:0,0:0:0:0:
289,104,184326,1,2,0:0:0:0:
498,28,184488,1,2,0:0:0:0:
258,117,184650,2,0,P|216:110|146:93,1,105,8|0,0:0|0:0,0:0:0:0:
6,235,184975,6,0,P|60:186|168:202,1,157.5,2|0,0:0|0:0,0:0:0:0:
170,203,185299,2,0,P|186:261|174:307,1,105,8|0,0:0|0:0,0:0:0:0:
63,76,185623,1,2,0:0:0:0:
253,163,185786,1,2,0:0:0:0:
85,266,185948,1,8,0:0:0:0:
208,46,186110,1,8,0:0:0:0:
208,46,186191,1,8,0:0:0:0:
208,46,186272,6,0,B|319:62|319:62|361:18,1,157.5,6|0,0:0|0:0,0:0:0:0:
454,14,186596,2,0,P|430:68|424:121,1,105,8|0,0:0|0:0,0:0:0:0:
438,332,186921,1,2,0:0:0:0:
496,170,187083,1,2,0:0:0:0:
306,237,187245,2,0,B|228:214|227:272|112:228,1,157.5,8|0,0:0|0:0,0:0:0:0:
89,183,187569,6,0,P|66:238|82:289,1,105,2|0,0:0|0:0,0:0:0:0:
142,83,187894,2,0,P|88:88|8:95,1,105,8|0,0:0|0:0,0:0:0:0:
193,162,188218,1,2,0:0:0:0:
324,18,188380,1,8,0:3:0:0:
367,35,188461,1,8,0:3:0:0:
392,74,188542,1,8,0:3:0:0:
405,119,188623,1,8,0:3:0:0:
382,161,188705,1,8,0:3:0:0:
372,207,188786,1,8,0:3:0:0:
393,248,188867,6,0,P|444:235|502:230,1,105,6|0,0:0|0:0,0:0:0:0:
281,158,189191,2,0,P|271:222|266:291,1,105,8|2,0:0|0:0,0:0:0:0:
184,92,189515,1,8,0:0:0:0:
6,19,189678,1,2,0:0:0:0:
210,68,189840,2,0,P|260:62|314:52,1,105,8|2,0:0|0:0,0:0:0:0:
133,201,190164,5,8,0:0:0:0:
142,9,190326,1,2,0:0:0:0:
293,146,190488,1,8,0:0:0:0:
45,120,190650,1,2,0:0:0:0:
45,120,190732,1,2,0:0:0:0:
45,120,190813,2,0,P|4:175|11:244,1,105,6|2,0:0|0:0,0:0:0:0:
87,306,191056,1,8,0:0:0:0:
87,306,191137,2,0,P|114:294|155:285,1,52.5,8|8,0:0|0:0,0:0:0:0:
382,244,191299,2,8,P|356:236|332:226,1,52.5
200,47,191461,6,0,B|224:97|173:151|223:235,1,157.5,6|0,0:0|0:0,0:0:0:0:
228,212,191786,2,0,P|228:262|225:332,1,105,8|0,0:0|0:0,0:0:0:0:
305,117,192110,1,2,0:0:0:0:
103,195,192272,1,2,0:0:0:0:
332,105,192434,2,0,P|393:115|436:138,1,105,8|0,0:0|0:0,0:0:0:0:
207,202,192759,5,2,0:0:0:0:
88,53,192921,1,2,0:0:0:0:
305,117,193083,2,0,P|296:174|280:259,1,105,8|0,0:0|0:0,0:0:0:0:
267,304,193326,1,0,0:0:0:0:
267,304,193407,1,2,0:0:0:0:
426,167,193569,1,2,0:0:0:0:
226,20,193732,2,0,P|219:67|210:137,1,105,8|0,0:0|0:0,0:0:0:0:
138,349,194056,5,6,0:0:0:0:
321,215,194218,1,2,0:0:0:0:
136,134,194380,1,8,0:0:0:0:
311,188,194542,1,2,0:0:0:0:
80,266,194705,1,8,0:0:0:0:
338,174,194867,1,2,0:0:0:0:
56,92,195029,1,8,0:0:0:0:
350,203,195191,1,2,0:0:0:0:
68,292,195353,5,8,0:0:0:0:
182,53,195515,1,2,0:0:0:0:
312,315,195678,2,0,P|252:280|241:189,1,157.5,12|0,0:0|0:0,0:0:0:0:
241,112,196002,6,8,P|205:128|154:141,2,70
350,203,196326,2,8,P|383:213|414:228,2,70,8|8|8,0:3|0:3|0:3,0:3:0:0:
386,74,196650,5,6,0:0:0:0:
26,187,199245,5,2,0:0:0:0:
26,187,200705,5,2,0:0:0:0:
104,239,200867,1,2,0:0:0:0:
194,210,201029,1,2,0:0:0:0:
230,123,201191,1,2,0:0:0:0:
318,91,201353,1,2,0:0:0:0:
407,122,201515,1,2,0:0:0:0:
439,211,201678,1,2,0:0:0:0:
292,280,201840,6,0,L|309:369,1,73.4999977569581,6|0,0:0|0:0,0:0:0:0:
336,167,202164,2,0,P|367:160|414:149,1,73.4999977569581,2|0,0:0|0:0,0:0:0:0:
198,246,202488,2,0,P|202:287|212:337,1,73.4999977569581,2|0,0:0|0:0,0:0:0:0:
389,74,202813,2,0,P|353:82|317:90,1,73.4999977569581,2|0,0:0|0:0,0:0:0:0:
106,159,203137,6,0,P|79:154|21:139,1,73.4999977569581,2|0,0:0|0:0,0:0:0:0:
214,74,203461,2,0,P|200:169|193:236,1,146.999995513916,2|2,0:0|0:0,0:0:0:0:
133,81,203948,1,0,0:0:0:0:
290,161,204110,2,0,P|293:203|294:254,1,73.4999977569581,2|2,0:0|0:0,0:0:0:0:
314,260,204353,1,2,0:0:0:0:
314,260,204434,6,0,P|354:249|397:232,1,73.4999977569581,2|0,0:0|0:0,0:0:0:0:
506,105,204759,2,0,P|477:96|426:90,1,73.4999977569581,2|0,0:0|0:0,0:0:0:0:
253,12,205083,2,0,P|263:48|272:99,1,73.4999977569581,2|0,0:0|0:0,0:0:0:0:
108,214,205407,2,0,P|115:177|124:142,1,73.4999977569581,2|0,0:0|0:0,0:0:0:0:
211,254,205732,5,2,0:0:0:0:
0,249,205894,1,2,0:0:0:0:
231,270,206056,2,0,P|246:322|247:365,1,73.4999977569581,2|0,0:0|0:0,0:0:0:0:
276,148,206380,5,10,0:0:0:0:
276,148,206461,1,8,0:0:0:0:
276,148,206542,1,8,0:0:0:0:
276,148,206623,1,8,0:0:0:0:
276,148,206705,5,10,0:0:0:0:
325,162,206786,1,8,0:0:0:0:
371,140,206867,1,8,0:0:0:0:
400,98,206948,1,8,0:0:0:0:
394,45,207029,6,6,P|377:127|376:202,1,157.5,6|0,0:0|0:0,0:0:0:0:
349,281,207353,2,0,P|399:269|456:261,1,105,8|2,0:0|0:0,0:0:0:0:
246,222,207678,2,0,P|212:213|130:205,1,105,8|2,0:0|0:0,0:0:0:0:
0,120,208002,2,0,P|11:183|25:237,1,105,8|2,0:0|0:0,0:0:0:0:
110,355,208326,6,0,P|119:303|131:252,1,105,8|2,0:0|0:0,0:0:0:0:
229,47,208650,2,0,P|300:41|352:136,1,157.5,6|0,0:0|0:0,0:0:0:0:
412,175,208975,6,8,P|441:172|475:164,3,52.5
339,234,209299,2,8,P|378:261|411:279,2,70,8|8|8,0:3|0:3|0:3,0:3:0:0:
265,148,209623,6,0,P|257:243|249:306,1,146.999995513916,2|0,0:0|0:0,0:0:0:0:
107,82,210272,2,0,P|163:35|246:55,1,146.999995513916,2|0,0:0|0:0,0:0:0:0:
129,219,210921,6,0,B|21:201|21:201|-6:163,1,146.999995513916,2|0,0:0|0:0,0:0:0:0:
265,124,211569,2,0,B|373:106|373:106|400:68,1,146.999995513916,2|0,0:0|0:0,0:0:0:0:
162,144,212218,6,0,B|183:271|183:271|231:308,1,157.5,6|0,0:0|0:0,0:0:0:0:
274,337,212542,1,10,0:0:0:0:
393,272,212705,1,10,0:0:0:0:
287,167,212867,1,10,0:0:0:0:
382,321,213029,1,10,0:0:0:0:
501,229,213191,1,10,0:0:0:0:
266,205,213353,1,10,0:0:0:0:
482,83,213515,5,10,0:0:0:0:
379,357,213678,1,10,0:0:0:0:
143,153,213840,1,10,0:0:0:0:
461,207,214002,1,10,0:0:0:0:
328,132,214164,6,0,P|302:125|225:114,1,94.499997116089,2|0,0:0|0:0,0:0:0:0:
143,153,214488,6,0,P|186:149|228:142,1,78.75,2|0,0:0|0:0,0:0:0:0:
388,62,214813,6,0,P|317:51|198:30,1,173.250005287171,6|0,0:0|0:0,0:0:0:0:
126,66,215137,2,0,P|72:93|56:159,1,115.50000352478,8|0,0:0|0:0,0:0:0:0:
168,317,215461,2,0,P|165:289|148:200,1,115.50000352478,2|0,0:0|0:0,0:0:0:0:
314,9,215786,2,0,L|292:142,1,115.50000352478,8|0,0:0|0:0,0:0:0:0:
364,346,216110,6,0,P|419:328|397:206,1,173.250005287171,2|0,0:0|0:0,0:0:0:0:
357,185,216434,2,0,L|491:165,1,115.50000352478,8|0,0:0|0:0,0:0:0:0:
252,270,216759,2,0,P|213:263|68:242,1,173.250005287171,2|0,0:0|0:0,0:0:0:0:
12,278,217083,2,0,P|18:349|70:357,1,115.50000352478,8|0,0:0|0:0,0:0:0:0:
164,148,217407,6,0,P|171:70|68:22,1,173.250005287171,2|0,0:0|0:0,0:0:0:0:
12,23,217732,2,0,P|27:84|33:150,1,115.50000352478,8|0,0:0|0:0,0:0:0:0:
121,301,218056,1,2,0:0:0:0:
9,148,218218,1,0,0:0:0:0:
265,60,218380,2,0,P|257:135|244:179,1,115.50000352478,8|0,0:0|0:0,0:0:0:0:
146,327,218705,6,0,B|269:354|269:354|252:305,1,173.250005287171,2|0,0:0|0:0,0:0:0:0:
308,234,219029,1,8,0:0:0:0:
158,99,219191,1,0,0:0:0:0:
58,239,219353,2,0,P|113:227|181:219,1,115.50000352478,2|0,0:0|0:0,0:0:0:0:
421,151,219678,2,0,P|363:143|307:131,1,115.50000352478,8|0,0:0|0:0,0:0:0:0:
477,66,220002,6,0,B|435:143|497:211|435:288,1,231.000007049561,6|8,0:0|0:0,0:0:0:0:
212,333,220488,1,0,0:0:0:0:
278,123,220650,2,0,P|300:176|307:233,1,115.50000352478,2|0,0:0|0:0,0:0:0:0:
181,53,220975,2,0,P|234:42|293:25,1,115.50000352478,8|0,0:0|0:0,0:0:0:0:
159,163,221299,6,0,B|109:163|51:128|51:128|82:207,1,173.250005287171,2|0,0:0|0:0,0:0:0:0:
51,259,221623,1,8,0:0:0:0:
143,68,221786,1,0,0:0:0:0:
284,220,221948,2,0,P|236:232|163:248,1,115.50000352478,2|0,0:0|0:0,0:0:0:0:
415,146,222272,2,0,P|367:133|294:118,1,115.50000352478,8|0,0:0|0:0,0:0:0:0:
480,66,222596,6,0,P|516:145|439:240,1,173.250005287171,6|0,0:0|0:0,0:0:0:0:
390,238,222921,1,8,0:0:0:0:
280,92,223083,1,2,0:0:0:0:
159,279,223245,1,8,0:0:0:0:
285,50,223407,1,2,0:0:0:0:
132,189,223569,2,0,P|94:182|13:166,1,115.50000352478,8|0,0:0|0:0,0:0:0:0:
339,161,223894,6,8,L|431:142,2,77.0000023498536,8|8|8,0:3|0:3|0:3,0:3:0:0:
239,243,224218,2,8,P|233:290|243:357,2,77.0000023498536,8|8|8,0:3|0:3|0:3,0:3:0:0:
262,125,224542,6,8,L|170:116,1,77.0000023498536
97,37,224759,1,8,0:0:0:0:
17,130,224867,2,8,P|37:178|46:224,1,77.0000023498536
0,298,225083,1,8,0:0:0:0:
127,368,225191,6,0,B|287:346|287:346|328:284,1,220.499993270874,6|2,0:0|0:0,0:0:0:0:
262,125,225840,6,0,B|214:87|214:87|239:187|240:256,1,220.499993270874,12|0,0:0|0:0,0:0:0:0:
112,103,226488,5,2,0:0:0:0:
329,189,226650,2,0,P|355:146|298:50,1,146.999995513916,8|2,0:0|0:0,0:0:0:0:
89,148,227137,6,0,B|170:123|170:123|94:96,1,146.999995513916,14|0,0:0|0:0,0:0:0:0:
47,258,227461,2,0,B|-11:278|-11:278|69:303,1,146.999995513916,14|0,0:0|0:0,0:0:0:0:
257,347,227786,6,0,P|253:333|239:216,1,105,6|2,0:0|0:0,0:0:0:0:
346,23,228110,1,8,0:0:0:0:
142,162,228272,1,8,0:3:0:0:
142,162,228353,1,8,0:3:0:0:
142,162,228434,1,2,0:0:0:0:
353,268,228596,1,2,0:0:0:0:
241,47,228759,1,8,0:0:0:0:
45,153,228921,1,2,0:0:0:0:
45,153,229002,1,2,0:0:0:0:
45,153,229083,5,12,0:0:0:0:
245,278,229245,1,8,0:0:0:0:
271,24,229407,1,8,0:0:0:0:
342,286,229569,1,8,0:0:0:0:
90,142,229732,6,8,P|135:131|187:123,1,70,8|8,0:3|0:3,0:3:0:0:
294,153,229948,1,8,0:3:0:0:
498,164,230056,6,8,P|452:174|401:183,1,70,8|8,0:3|0:3,0:3:0:0:
294,153,230272,1,8,0:3:0:0:
420,91,230380,6,0,P|401:203|397:259,1,168,6|0,0:0|0:0,0:0:0:0:
509,161,230867,1,2,0:0:0:0:
276,138,231029,1,8,0:0:0:0:
260,27,231191,1,0,0:0:0:0:
164,156,231353,2,0,P|134:146|71:135,1,84
9,258,231678,5,2,0:0:0:0:
191,374,231840,2,0,P|202:303|229:206,1,168,8|2,0:0|0:0,0:0:0:0:
276,138,232245,1,2,0:0:0:0:
276,138,232326,6,0,P|282:200|292:264,1,115.50000352478,14|2,0:0|0:0,0:0:0:0:
432,332,232569,1,2,0:0:0:0:
432,332,232650,2,0,P|437:288|447:207,1,115.50000352478,14|0,0:0|0:0,0:0:0:0:
361,25,232975,5,6,0:0:0:0:
364,196,233137,1,2,0:0:0:0:
510,61,233299,1,8,0:0:0:0:
254,79,233461,1,8,0:3:0:0:
254,79,233542,1,8,0:3:0:0:
254,79,233623,2,0,P|209:73|137:58,1,105,2|2,0:0|0:0,0:0:0:0:
10,183,233948,1,8,0:0:0:0:
171,296,234110,1,2,0:0:0:0:
171,296,234191,1,2,0:0:0:0:
171,296,234272,5,14,0:0:0:0:
261,99,234434,1,8,0:0:0:0:
31,218,234596,1,8,0:0:0:0:
369,164,234759,1,8,0:0:0:0:
138,194,234921,6,8,L|150:276,2,70
270,118,235245,2,8,L|282:200,2,70
176,45,235569,5,0,0:0:0:0:
256,192,235650,12,0,236786,0:0:0:0:
242,144,236867,6,0,P|165:137|103:69,1,157.5,6|0,0:0|0:0,0:0:0:0:
22,30,237191,2,0,L|41:146,1,105,8|0,0:0|0:0,0:0:0:0:
0,302,237515,2,0,P|80:285|172:261,1,157.5,2|0,0:0|0:0,0:0:0:0:
175,234,237840,1,8,0:0:0:0:
207,57,238002,1,0,0:0:0:0:
281,224,238164,5,2,0:0:0:0:
68,161,238326,1,0,0:0:0:0:
337,108,238488,2,0,P|326:168|322:214,1,105,8|0,0:0|0:0,0:0:0:0:
366,362,238813,1,2,0:0:0:0:
411,151,238975,1,0,0:0:0:0:
243,295,239137,1,8,0:0:0:0:
464,246,239299,1,0,0:0:0:0:
236,120,239461,6,0,P|157:129|113:207,1,157.5,2|0,0:0|0:0,0:0:0:0:
129,268,239786,2,0,P|87:261|4:244,1,105,8|0,0:0|0:0,0:0:0:0:
233,319,240110,2,0,P|311:306|419:292,1,157.5,2|0,0:0|0:0,0:0:0:0:
419,311,240434,1,8,0:0:0:0:
221,224,240596,1,0,0:0:0:0:
435,127,240759,5,2,0:0:0:0:
310,271,240921,1,0,0:0:0:0:
174,126,241083,2,0,L|289:136,1,105,8|0,0:0|0:0,0:0:0:0:
92,49,241407,1,2,0:0:0:0:
147,207,241569,1,0,0:0:0:0:
233,44,241732,1,8,0:0:0:0:
26,172,241894,1,0,0:0:0:0:
120,358,242056,6,0,P|187:299|144:213,1,157.5,2|0,0:0|0:0,0:0:0:0:
147,207,242380,2,0,L|256:196,1,105,8|0,0:0|0:0,0:0:0:0:
459,111,242705,2,0,B|414:125|414:125|276:91,1,157.5,2|0,0:0|0:0,0:0:0:0:
264,35,243029,1,8,0:0:0:0:
369,215,243191,1,0,0:0:0:0:
505,10,243353,5,6,0:0:0:0:
196,247,243678,1,10,0:0:0:0:
320,112,243840,1,10,0:0:0:0:
107,203,244002,1,10,0:0:0:0:
394,178,244164,1,10,0:0:0:0:
0,189,244326,1,10,0:0:0:0:
499,196,244488,1,10,0:0:0:0:
256,194,244650,5,2,0:0:0:0:
