osu file format v14

[General]
AudioFilename: CHiCO with HoneyWorks - Koi-iro ni Sake.mp3
AudioLeadIn: 0
PreviewTime: 65513
Countdown: 0
SampleSet: Normal
StackLeniency: 0.7
Mode: 3
LetterboxInBreaks: 0
SpecialStyle: 0
WidescreenStoryboard: 0

[Editor]
DistanceSpacing: 0.8
BeatDivisor: 4
GridSize: 8
TimelineZoom: 1.6

[Metadata]
Title:Koiiro ni Sake
TitleUnicode:恋色に咲け
Artist:CHiCO with HoneyWorks
ArtistUnicode:CHiCO with HoneyWorks
Creator:[Baim]
Version:Normal
Source:ずっと前から好きでした。~告白実行委員会~
Tags:opening zutto mae kara suki deshita ~kokuhaku jikkō iinkai~
BeatmapID:972284
BeatmapSetID:453032

[Difficulty]
HPDrainRate:7
CircleSize:4
OverallDifficulty:7
ApproachRate:5
SliderMultiplier:1.4
SliderTickRate:1

[Events]
//Background and Video events
0,0,"687474703a2f2f6c696e6b69732e636f6d2f75726c2d696d6167652f687474703a2f2f7777772e686f6e6579776f726b732d6d6f7669652e6a702f6f675f696d6167652e6a7067.jpg",0,0
//Break Periods
//Storyboard Layer 0 (Background)
//Storyboard Layer 1 (Fail)
//Storyboard Layer 2 (Pass)
//Storyboard Layer 3 (Foreground)
//Storyboard Sound Samples

[TimingPoints]
1297,324.324324324324,4,1,0,29,1,0
66161,-100,4,1,0,29,0,1
81729,-100,4,1,0,29,0,0

[HitObjects]
64,192,1297,5,0,0:0:0:45:soft-hitfinish.wav
320,192,1297,1,0,0:0:0:60:soft-hitwhistle.wav
64,192,1621,1,0,0:0:0:60:soft-hitwhistle.wav
192,192,1945,1,0,0:0:0:60:soft-hitwhistle.wav
192,192,2269,1,0,0:0:0:60:soft-hitwhistle.wav
448,192,2594,1,0,0:0:0:60:soft-hitwhistle.wav
64,192,2594,1,0,0:0:0:45:soft-hitfinish.wav
192,192,2756,128,0,2918:0:0:0:45:soft-clap.wav
320,192,2918,1,0,0:0:0:60:soft-hitwhistle.wav
448,192,3080,128,0,3242:0:0:0:45:soft-clap.wav
192,192,3242,1,0,0:0:0:60:soft-hitwhistle.wav
64,192,3405,128,0,3567:0:0:0:45:soft-clap.wav
448,192,3567,1,0,0:0:0:60:soft-hitwhistle.wav
320,192,3729,128,0,3891:0:0:0:45:soft-clap.wav
192,192,3891,1,0,0:0:0:45:soft-hitfinish.wav
64,192,3891,1,0,0:0:0:45:soft-clap.wav
192,192,4215,1,0,0:0:0:60:soft-hitwhistle.wav
448,192,4378,1,0,0:0:0:45:soft-clap.wav
320,192,4378,1,0,0:0:0:0:
320,192,4702,1,0,0:0:0:60:soft-hitwhistle.wav
192,192,4864,1,0,0:0:0:45:soft-clap.wav
64,192,4864,1,0,0:0:0:45:soft-hitfinish.wav
64,192,5188,1,0,0:0:0:60:soft-hitwhistle.wav
448,192,5188,1,0,0:0:0:45:soft-hitfinish.wav
320,192,5351,128,0,5513:0:0:0:45:soft-clap.wav
192,192,5513,1,0,0:0:0:60:soft-hitwhistle.wav
64,192,5675,128,0,5837:0:0:0:45:soft-clap.wav
448,192,5837,1,0,0:0:0:60:soft-hitwhistle.wav
192,192,5999,128,0,6161:0:0:0:45:soft-clap.wav
320,192,6161,1,0,0:0:0:60:soft-hitwhistle.wav
448,192,6324,128,0,6486:0:0:0:45:soft-clap.wav
64,192,6486,1,0,0:0:0:45:soft-hitfinish.wav
320,192,6486,1,0,0:0:0:60:soft-hitwhistle.wav
448,192,6810,1,0,0:0:0:60:soft-hitwhistle.wav
192,192,7134,1,0,0:0:0:60:soft-hitwhistle.wav
448,192,7459,1,0,0:0:0:60:soft-hitwhistle.wav
64,192,7783,1,0,0:0:0:60:soft-hitwhistle.wav
320,192,8107,1,0,0:0:0:60:soft-hitwhistle.wav
192,192,8432,128,0,9080:0:0:0:60:soft-hitwhistle.wav
64,192,9080,1,0,0:0:0:45:soft-hitfinish.wav
448,192,9080,1,0,0:0:0:45:soft-clap.wav
320,192,9405,1,0,0:0:0:45:soft-clap.wav
192,192,9405,1,0,0:0:0:0:
64,192,9729,1,0,0:0:0:45:soft-clap.wav
448,192,9729,1,0,0:0:0:0:
320,192,10053,1,0,0:0:0:45:soft-clap.wav
192,192,10053,1,0,0:0:0:0:
64,192,10378,128,0,11026:0:0:0:60:soft-hitwhistle.wav
448,192,10378,1,0,0:0:0:0:
448,192,11026,128,0,11675:0:0:0:60:soft-hitwhistle.wav
320,192,11675,1,0,0:0:0:60:soft-hitwhistle.wav
192,192,11675,1,0,0:0:0:45:soft-hitfinish.wav
448,192,12161,1,0,0:0:0:60:soft-hitwhistle.wav
192,192,12324,1,0,0:0:0:45:soft-clap.wav
64,192,12324,1,0,0:0:0:0:
320,192,12972,1,0,0:0:0:60:soft-hitwhistle.wav
448,192,13134,1,0,0:0:0:60:soft-clap.wav
192,192,13134,1,0,0:0:0:0:
64,192,13459,1,0,0:0:0:60:soft-hitwhistle.wav
192,192,13621,1,0,0:0:0:45:soft-clap.wav
448,192,13621,1,0,0:0:0:45:soft-hitfinish.wav
320,192,13783,1,0,0:0:0:60:soft-hitwhistle.wav
192,192,13945,1,0,0:0:0:45:soft-clap.wav
64,192,13945,1,0,0:0:0:45:soft-hitfinish.wav
448,192,14269,1,0,0:0:0:60:soft-hitwhistle.wav
192,192,14432,1,0,0:0:0:60:soft-hitwhistle.wav
320,192,14594,1,0,0:0:0:45:soft-clap.wav
64,192,14594,1,0,0:0:0:0:
192,192,14918,1,0,0:0:0:60:soft-hitwhistle.wav
320,192,15080,1,0,0:0:0:60:soft-hitwhistle.wav
448,192,15242,1,0,0:0:0:45:soft-clap.wav
64,192,15242,1,0,0:0:0:0:
320,192,15405,1,0,0:0:0:60:soft-hitwhistle.wav
192,192,15567,1,0,0:0:0:45:soft-clap.wav
64,192,15567,1,0,0:0:0:45:soft-hitfinish.wav
448,192,15891,1,0,0:0:0:60:soft-hitwhistle.wav
64,192,16053,1,0,0:0:0:45:soft-clap.wav
192,192,16215,1,0,0:0:0:60:soft-hitwhistle.wav
448,192,16378,1,0,0:0:0:45:soft-clap.wav
64,192,16540,1,0,0:0:0:60:soft-hitwhistle.wav
320,192,16702,1,0,0:0:0:45:soft-clap.wav
64,192,16864,1,0,0:0:0:45:soft-hitfinish.wav
448,192,16864,1,0,0:0:0:60:soft-hitwhistle.wav
192,192,17188,1,0,0:0:0:60:soft-hitwhistle.wav
320,192,17513,1,0,0:0:0:60:soft-hitwhistle.wav
192,192,17837,1,0,0:0:0:60:soft-hitwhistle.wav
64,192,18161,1,0,0:0:0:60:soft-hitwhistle.wav
320,192,18486,1,0,0:0:0:60:soft-hitwhistle.wav
192,192,18810,1,0,0:0:0:60:soft-hitwhistle.wav
448,192,19134,1,0,0:0:0:60:soft-hitwhistle.wav
320,192,19459,1,0,0:0:0:60:soft-hitwhistle.wav
192,192,19783,1,0,0:0:0:60:soft-hitwhistle.wav
64,192,20107,1,0,0:0:0:60:soft-hitwhistle.wav
192,192,20432,1,0,0:0:0:60:soft-hitwhistle.wav
320,192,20756,1,0,0:0:0:60:soft-hitwhistle.wav
448,192,21080,1,0,0:0:0:60:soft-hitwhistle.wav
192,192,21405,1,0,0:0:0:60:soft-hitwhistle.wav
320,192,21729,1,0,0:0:0:60:soft-hitwhistle.wav
64,192,22053,1,0,0:0:0:60:soft-hitwhistle.wav
192,192,22378,1,0,0:0:0:60:soft-hitwhistle.wav
320,192,22702,1,0,0:0:0:60:soft-hitwhistle.wav
448,192,23026,1,0,0:0:0:60:soft-hitwhistle.wav
192,192,23351,1,0,0:0:0:60:soft-hitwhistle.wav
320,192,23675,1,0,0:0:0:60:soft-hitwhistle.wav
64,192,23999,1,0,0:0:0:60:soft-hitwhistle.wav
448,192,24324,1,0,0:0:0:60:soft-hitwhistle.wav
320,192,24648,1,0,0:0:0:60:soft-hitwhistle.wav
192,192,24972,1,0,0:0:0:60:soft-hitwhistle.wav
64,192,25296,1,0,0:0:0:60:soft-hitwhistle.wav
320,192,25621,1,0,0:0:0:60:soft-hitwhistle.wav
64,192,25945,1,0,0:0:0:45:soft-clap.wav
192,192,26107,1,0,0:0:0:0:
448,192,26269,128,0,26594:0:0:0:45:soft-clap.wav
192,192,26594,1,0,0:0:0:45:soft-clap.wav
320,192,26756,1,0,0:0:0:0:
64,192,26918,1,0,0:0:0:45:soft-clap.wav
192,192,27080,1,0,0:0:0:0:
448,192,27242,1,0,0:0:0:45:soft-hitfinish.wav
320,192,27242,1,0,0:0:0:60:soft-hitwhistle.wav
64,192,27567,1,0,0:0:0:60:soft-hitwhistle.wav
192,192,27891,1,0,0:0:0:60:soft-hitwhistle.wav
320,192,28215,1,0,0:0:0:60:soft-hitwhistle.wav
448,192,28540,1,0,0:0:0:60:soft-hitwhistle.wav
192,192,28864,1,0,0:0:0:60:soft-hitwhistle.wav
320,192,29188,1,0,0:0:0:60:soft-hitwhistle.wav
448,192,29351,1,0,0:0:0:45:soft-clap.wav
64,192,29351,1,0,0:0:0:0:
192,192,29513,1,0,0:0:0:60:soft-hitwhistle.wav
320,192,29675,1,0,0:0:0:45:soft-clap.wav
448,192,29675,1,0,0:0:0:0:
64,192,29837,1,0,0:0:0:60:soft-hitwhistle.wav
192,192,30161,1,0,0:0:0:60:soft-hitwhistle.wav
448,192,30486,1,0,0:0:0:60:soft-hitwhistle.wav
320,192,30810,1,0,0:0:0:60:soft-hitwhistle.wav
192,192,31134,1,0,0:0:0:60:soft-hitwhistle.wav
64,192,31459,1,0,0:0:0:60:soft-hitwhistle.wav
320,192,31783,1,0,0:0:0:60:soft-hitwhistle.wav
192,192,32107,1,0,0:0:0:60:soft-hitwhistle.wav
64,192,32432,1,0,0:0:0:45:soft-clap.wav
448,192,32432,128,0,32756:0:0:0:45:soft-hitfinish.wav
320,192,32756,128,0,33080:0:0:0:60:soft-hitwhistle.wav
64,192,33080,128,0,33729:0:0:0:60:soft-hitwhistle.wav
192,192,33729,1,0,0:0:0:60:soft-hitwhistle.wav
320,192,33729,128,0,34053:0:0:0:60:soft-hitfinish.wav
448,192,34053,128,0,34378:0:0:0:60:soft-hitwhistle.wav
64,192,34378,128,0,35026:0:0:0:60:soft-hitwhistle.wav
448,192,35026,1,0,0:0:0:60:soft-hitwhistle.wav
320,192,35026,1,0,0:0:0:45:soft-hitfinish.wav
192,192,35351,1,0,0:0:0:60:soft-hitwhistle.wav
64,192,35513,1,0,0:0:0:45:soft-clap.wav
448,192,35513,1,0,0:0:0:0:
192,192,35675,1,0,0:0:0:60:soft-hitwhistle.wav
320,192,35837,1,0,0:0:0:45:soft-clap.wav
448,192,35837,1,0,0:0:0:0:
64,192,35999,1,0,0:0:0:60:soft-hitwhistle.wav
192,192,36161,128,0,36324:0:0:0:60:soft-hitwhistle.wav
320,192,36324,1,0,0:0:0:60:soft-hitwhistle.wav
448,192,36324,1,0,0:0:0:45:soft-hitfinish.wav
64,192,36648,1,0,0:0:0:45:soft-clap.wav
448,192,36810,1,0,0:0:0:45:soft-clap.wav
192,192,36972,1,0,0:0:0:60:soft-hitwhistle.wav
64,192,37134,128,0,37296:0:0:0:45:soft-clap.wav
448,192,37296,1,0,0:0:0:60:soft-hitwhistle.wav
320,192,37459,128,0,37621:0:0:0:45:soft-clap.wav
64,192,37621,1,0,0:0:0:60:soft-hitwhistle.wav
192,192,37621,1,0,0:0:0:45:soft-hitfinish.wav
448,192,37945,1,0,0:0:0:45:soft-clap.wav
320,192,37945,1,0,0:0:0:0:
192,192,38269,1,0,0:0:0:60:soft-hitwhistle.wav
448,192,38594,1,0,0:0:0:45:soft-clap.wav
64,192,38594,1,0,0:0:0:0:
192,192,38918,1,0,0:0:0:60:soft-hitwhistle.wav
320,192,39242,1,0,0:0:0:45:soft-clap.wav
448,192,39242,1,0,0:0:0:0:
192,192,39567,1,0,0:0:0:60:soft-hitwhistle.wav
64,192,39891,1,0,0:0:0:45:soft-clap.wav
320,192,39891,1,0,0:0:0:0:
448,192,40215,1,0,0:0:0:60:soft-hitwhistle.wav
320,192,40540,1,0,0:0:0:45:soft-clap.wav
192,192,40540,1,0,0:0:0:0:
64,192,40864,1,0,0:0:0:60:soft-hitwhistle.wav
320,192,41188,1,0,0:0:0:45:soft-clap.wav
448,192,41188,1,0,0:0:0:0:
192,192,41513,1,0,0:0:0:60:soft-hitwhistle.wav
64,192,41837,1,0,0:0:0:45:soft-clap.wav
320,192,41837,1,0,0:0:0:0:
448,192,42161,1,0,0:0:0:60:soft-hitwhistle.wav
192,192,42486,1,0,0:0:0:45:soft-clap.wav
64,192,42486,1,0,0:0:0:0:
320,192,42810,1,0,0:0:0:60:soft-hitwhistle.wav
448,192,42810,1,0,0:0:0:45:soft-hitfinish.wav
320,192,43134,1,0,0:0:0:45:soft-clap.wav
448,192,43134,1,0,0:0:0:0:
320,192,43459,1,0,0:0:0:45:soft-clap.wav
448,192,43459,1,0,0:0:0:0:
320,192,43783,1,0,0:0:0:45:soft-clap.wav
448,192,43783,1,0,0:0:0:0:
64,192,44107,1,0,0:0:0:45:soft-clap.wav
192,192,44107,1,0,0:0:0:0:
192,192,44432,1,0,0:0:0:45:soft-clap.wav
64,192,44432,1,0,0:0:0:0:
64,192,44756,1,0,0:0:0:45:soft-clap.wav
192,192,44756,1,0,0:0:0:0:
64,192,45080,1,0,0:0:0:45:soft-clap.wav
192,192,45080,1,0,0:0:0:0:
320,192,45405,1,0,0:0:0:45:soft-clap.wav
448,192,45405,128,0,45891:0:0:0:45:soft-hitfinish.wav
64,192,45891,128,0,46378:0:0:0:45:soft-hitfinish.wav
192,192,45891,1,0,0:0:0:45:soft-clap.wav
448,192,46378,1,0,0:0:0:45:soft-hitfinish.wav
320,192,46378,1,0,0:0:0:45:soft-clap.wav
192,192,46702,1,0,0:0:0:60:soft-hitwhistle.wav
320,192,46864,1,0,0:0:0:60:soft-hitwhistle.wav
64,192,47026,1,0,0:0:0:45:soft-clap.wav
192,192,47026,1,0,0:0:0:0:
448,192,47351,128,0,47999:0:0:0:45:soft-clap.wav
320,192,47999,1,0,0:0:0:45:soft-hitfinish.wav
64,192,47999,128,0,50594:0:0:0:60:soft-hitwhistle.wav
192,192,50594,128,0,53188:0:0:0:0:
448,192,53188,1,0,0:0:0:60:soft-hitwhistle.wav
320,192,53513,1,0,0:0:0:60:soft-hitwhistle.wav
192,192,53837,1,0,0:0:0:60:soft-hitwhistle.wav
64,192,54161,1,0,0:0:0:60:soft-hitwhistle.wav
448,192,54486,1,0,0:0:0:60:soft-hitwhistle.wav
192,192,54810,1,0,0:0:0:60:soft-hitwhistle.wav
320,192,55134,1,0,0:0:0:60:soft-hitwhistle.wav
64,192,55459,1,0,0:0:0:60:soft-hitwhistle.wav
192,192,55783,1,0,0:0:0:60:soft-hitwhistle.wav
448,192,56107,1,0,0:0:0:60:soft-hitwhistle.wav
320,192,56432,1,0,0:0:0:60:soft-hitwhistle.wav
192,192,56756,1,0,0:0:0:60:soft-hitwhistle.wav
64,192,57080,1,0,0:0:0:60:soft-hitwhistle.wav
192,192,57405,1,0,0:0:0:60:soft-hitwhistle.wav
320,192,57729,1,0,0:0:0:60:soft-hitwhistle.wav
448,192,58053,1,0,0:0:0:60:soft-hitwhistle.wav
64,192,58378,1,0,0:0:0:45:soft-hitfinish.wav
192,192,58378,1,0,0:0:0:60:soft-hitwhistle.wav
320,192,58702,1,0,0:0:0:45:soft-clap.wav
448,192,58702,1,0,0:0:0:0:
192,192,59026,1,0,0:0:0:45:soft-clap.wav
64,192,59026,1,0,0:0:0:0:
448,192,59351,1,0,0:0:0:45:soft-clap.wav
192,192,59351,1,0,0:0:0:0:
320,192,59675,1,0,0:0:0:45:soft-clap.wav
64,192,59675,1,0,0:0:0:0:
192,192,59999,1,0,0:0:0:45:soft-hitfinish.wav
448,192,59999,1,0,0:0:0:45:soft-clap.wav
64,192,60324,128,0,60972:0:0:0:60:soft-hitwhistle.wav
320,192,60972,1,0,0:0:0:45:soft-hitfinish.wav
448,192,60972,128,0,61621:0:0:0:60:soft-hitwhistle.wav
192,192,61296,1,0,0:0:0:0:
320,192,61621,128,0,62269:0:0:0:0:
64,192,61945,1,0,0:0:0:0:
192,192,62269,128,0,62918:0:0:0:0:
448,192,62594,1,0,0:0:0:0:
64,192,62918,128,0,63567:0:0:0:0:
320,192,63242,1,0,0:0:0:0:
448,192,63567,1,0,0:0:0:60:soft-hitwhistle.wav
192,192,63567,1,0,0:0:0:0:
320,192,63891,1,0,0:0:0:60:soft-hitwhistle.wav
64,192,64215,1,0,0:0:0:60:soft-hitwhistle.wav
192,192,64378,1,0,0:0:0:45:soft-clap.wav
448,192,64540,1,0,0:0:0:60:soft-hitwhistle.wav
64,192,64702,1,0,0:0:0:45:soft-clap.wav
192,192,64864,1,0,0:0:0:60:soft-hitwhistle.wav
448,192,65026,1,0,0:0:0:45:soft-clap.wav
64,192,65188,1,0,0:0:0:60:soft-hitwhistle.wav
320,192,65351,1,0,0:0:0:45:soft-clap.wav
64,192,65513,128,0,65837:0:0:0:0:
448,192,65837,128,0,66161:0:0:0:0:
192,192,66161,1,0,0:0:0:60:soft-hitwhistle.wav
64,192,66161,1,0,0:0:0:45:soft-hitfinish.wav
320,192,66486,1,0,0:0:0:45:soft-clap.wav
448,192,66486,1,0,0:0:0:0:
192,192,66810,1,0,0:0:0:60:soft-hitwhistle.wav
64,192,67134,1,0,0:0:0:45:soft-clap.wav
448,192,67134,1,0,0:0:0:0:
192,192,67459,1,0,0:0:0:60:soft-hitwhistle.wav
320,192,67783,1,0,0:0:0:45:soft-clap.wav
64,192,67783,1,0,0:0:0:0:
448,192,68107,1,0,0:0:0:60:soft-hitwhistle.wav
320,192,68432,1,0,0:0:0:45:soft-clap.wav
192,192,68432,1,0,0:0:0:0:
64,192,68756,1,0,0:0:0:60:soft-hitwhistle.wav
192,192,69080,1,0,0:0:0:45:soft-clap.wav
448,192,69080,1,0,0:0:0:0:
320,192,69405,1,0,0:0:0:60:soft-hitwhistle.wav
64,192,69729,1,0,0:0:0:45:soft-clap.wav
448,192,69729,1,0,0:0:0:0:
320,192,70053,1,0,0:0:0:60:soft-hitwhistle.wav
64,192,70378,1,0,0:0:0:45:soft-clap.wav
192,192,70378,1,0,0:0:0:0:
320,192,70702,1,0,0:0:0:60:soft-hitwhistle.wav
448,192,71026,1,0,0:0:0:45:soft-clap.wav
192,192,71026,1,0,0:0:0:0:
64,192,71351,1,0,0:0:0:45:soft-hitfinish.wav
320,192,71351,1,0,0:0:0:60:soft-hitwhistle.wav
192,192,71675,1,0,0:0:0:45:soft-clap.wav
320,192,71675,1,0,0:0:0:0:
448,192,71999,1,0,0:0:0:60:soft-hitwhistle.wav
64,192,72324,1,0,0:0:0:45:soft-clap.wav
320,192,72324,1,0,0:0:0:0:
192,192,72648,1,0,0:0:0:60:soft-hitwhistle.wav
448,192,72972,1,0,0:0:0:45:soft-clap.wav
64,192,72972,1,0,0:0:0:0:
192,192,73296,1,0,0:0:0:60:soft-hitwhistle.wav
320,192,73621,1,0,0:0:0:45:soft-clap.wav
448,192,73621,1,0,0:0:0:0:
192,192,73945,1,0,0:0:0:60:soft-hitwhistle.wav
64,192,73945,1,0,0:0:0:45:soft-hitfinish.wav
320,192,74269,1,0,0:0:0:45:soft-clap.wav
448,192,74269,1,0,0:0:0:0:
320,192,74594,1,0,0:0:0:45:soft-clap.wav
448,192,74594,1,0,0:0:0:0:
320,192,74918,1,0,0:0:0:45:soft-clap.wav
448,192,74918,1,0,0:0:0:0:
64,192,75242,128,0,75891:0:0:0:60:soft-hitwhistle.wav
448,192,75891,128,0,76540:0:0:0:45:soft-clap.wav
64,192,76540,1,0,0:0:0:45:soft-clap.wav
320,192,76540,1,0,0:0:0:45:soft-hitfinish.wav
192,192,77026,1,0,0:0:0:60:soft-hitwhistle.wav
448,192,77188,1,0,0:0:0:45:soft-clap.wav
320,192,77188,1,0,0:0:0:0:
64,192,77513,1,0,0:0:0:0:
448,192,77837,1,0,0:0:0:60:soft-hitwhistle.wav
192,192,77999,1,0,0:0:0:45:soft-clap.wav
320,192,77999,1,0,0:0:0:0:
64,192,78324,1,0,0:0:0:60:soft-hitwhistle.wav
192,192,78486,1,0,0:0:0:45:soft-hitfinish.wav
448,192,78486,1,0,0:0:0:45:soft-clap.wav
320,192,78648,1,0,0:0:0:60:soft-hitwhistle.wav
64,192,78810,1,0,0:0:0:45:soft-clap.wav
448,192,78810,1,0,0:0:0:45:soft-hitfinish.wav
320,192,79134,1,0,0:0:0:45:soft-hitfinish.wav
192,192,79296,1,0,0:0:0:60:soft-hitwhistle.wav
448,192,79459,1,0,0:0:0:45:soft-clap.wav
64,192,79459,1,0,0:0:0:0:
192,192,79783,1,0,0:0:0:60:soft-hitwhistle.wav
320,192,80107,1,0,0:0:0:45:soft-clap.wav
448,192,80432,1,0,0:0:0:45:soft-clap.wav
64,192,80432,1,0,0:0:0:45:soft-hitfinish.wav
320,192,80756,1,0,0:0:0:45:soft-clap.wav
192,192,81080,1,0,0:0:0:45:soft-clap.wav
64,192,81405,1,0,0:0:0:45:soft-clap.wav
320,192,81729,1,0,0:0:0:45:soft-hitfinish.wav
448,192,81729,1,0,0:0:0:60:soft-hitwhistle.wav
192,192,82053,1,0,0:0:0:45:soft-clap.wav
320,192,82378,1,0,0:0:0:60:soft-hitwhistle.wav
448,192,82702,1,0,0:0:0:45:soft-clap.wav
64,192,83026,1,0,0:0:0:60:soft-hitwhistle.wav
192,192,83351,1,0,0:0:0:45:soft-clap.wav
448,192,83675,1,0,0:0:0:60:soft-hitwhistle.wav
320,192,83999,1,0,0:0:0:45:soft-clap.wav
64,192,84324,1,0,0:0:0:60:soft-hitwhistle.wav
448,192,84648,1,0,0:0:0:45:soft-clap.wav
192,192,84972,1,0,0:0:0:60:soft-hitwhistle.wav
320,192,85296,1,0,0:0:0:45:soft-clap.wav
64,192,85621,1,0,0:0:0:60:soft-hitwhistle.wav
192,192,85945,1,0,0:0:0:45:soft-clap.wav
320,192,86269,1,0,0:0:0:60:soft-hitwhistle.wav
448,192,86594,1,0,0:0:0:45:soft-clap.wav
64,192,86918,1,0,0:0:0:60:soft-hitwhistle.wav
192,192,87242,1,0,0:0:0:45:soft-clap.wav
448,192,87567,1,0,0:0:0:60:soft-hitwhistle.wav
320,192,87891,1,0,0:0:0:45:soft-clap.wav
192,192,88215,1,0,0:0:0:45:soft-hitwhistle.wav
448,192,88215,1,0,0:0:0:45:soft-hitfinish.wav
64,192,88540,1,0,0:0:0:60:soft-hitwhistle.wav
448,192,88702,1,0,0:0:0:60:soft-hitwhistle.wav
192,192,88864,1,0,0:0:0:60:soft-hitwhistle.wav
320,192,89026,1,0,0:0:0:60:soft-hitwhistle.wav
64,192,89188,1,0,0:0:0:60:soft-hitwhistle.wav
192,192,89351,1,0,0:0:0:45:soft-clap.wav
448,192,89513,128,0,89837:0:0:0:0:
320,192,89837,128,0,90161:0:0:0:0:
64,192,90161,128,0,90486:0:0:0:0:
448,192,90486,128,0,90648:0:0:0:0:
192,192,90648,128,0,91296:0:0:0:0:
