osu file format v14

[General]
AudioFilename: CHiCO with HoneyWorks - Koi-iro ni Sake.mp3
AudioLeadIn: 0
PreviewTime: 65513
Countdown: 0
SampleSet: Normal
StackLeniency: 0.7
Mode: 3
LetterboxInBreaks: 0
SpecialStyle: 0
WidescreenStoryboard: 0

[Editor]
DistanceSpacing: 0.8
BeatDivisor: 4
GridSize: 8
TimelineZoom: 1.8

[Metadata]
Title:Koiiro ni Sake
TitleUnicode:恋色に咲け
Artist:CHiCO with HoneyWorks
ArtistUnicode:CHiCO with HoneyWorks
Creator:[Baim]
Version:Hard
Source:ずっと前から好きでした。~告白実行委員会~
Tags:opening zutto mae kara suki deshita ~kokuhaku jikkō iinkai~
BeatmapID:971818
BeatmapSetID:453032

[Difficulty]
HPDrainRate:7.5
CircleSize:4
OverallDifficulty:7.5
ApproachRate:5
SliderMultiplier:1.4
SliderTickRate:1

[Events]
//Background and Video events
0,0,"687474703a2f2f6c696e6b69732e636f6d2f75726c2d696d6167652f687474703a2f2f7777772e686f6e6579776f726b732d6d6f7669652e6a702f6f675f696d6167652e6a7067.jpg",0,0
//Break Periods
//Storyboard Layer 0 (Background)
//Storyboard Layer 1 (Fail)
//Storyboard Layer 2 (Pass)
//Storyboard Layer 3 (Foreground)
//Storyboard Sound Samples

[TimingPoints]
1297,324.324324324324,4,1,0,29,1,0
66161,-100,4,1,0,29,0,1
81729,-100,4,1,0,29,0,0

[HitObjects]
192,192,918,128,0,1297:0:0:0:0:
448,192,1297,5,0,0:0:0:45:soft-hitfinish.wav
320,192,1297,1,0,0:0:0:60:soft-hitwhistle.wav
64,192,1297,128,0,2594:0:0:0:0:
192,192,1621,1,0,0:0:0:60:soft-hitwhistle.wav
448,192,1945,1,0,0:0:0:60:soft-hitwhistle.wav
192,192,2269,1,0,0:0:0:60:soft-hitwhistle.wav
448,192,2594,128,0,3891:0:0:0:45:soft-hitfinish.wav
320,192,2594,1,0,0:0:0:60:soft-hitwhistle.wav
64,192,2756,1,0,0:0:0:45:soft-clap.wav
192,192,2837,1,0,0:0:0:45:soft-clap.wav
64,192,2918,1,0,0:0:0:60:soft-hitwhistle.wav
320,192,3080,1,0,0:0:0:45:soft-clap.wav
192,192,3161,1,0,0:0:0:45:soft-clap.wav
320,192,3242,1,0,0:0:0:60:soft-hitwhistle.wav
192,192,3405,1,0,0:0:0:45:soft-clap.wav
64,192,3486,1,0,0:0:0:45:soft-clap.wav
192,192,3567,1,0,0:0:0:60:soft-hitwhistle.wav
320,192,3729,1,0,0:0:0:45:soft-clap.wav
192,192,3810,1,0,0:0:0:45:soft-clap.wav
64,192,3891,128,0,5188:0:0:0:45:soft-hitfinish.wav
320,192,3891,1,0,0:0:0:45:soft-clap.wav
192,192,4215,1,0,0:0:0:60:soft-hitwhistle.wav
320,192,4378,1,0,0:0:0:45:soft-clap.wav
448,192,4378,1,0,0:0:0:0:
448,192,4702,1,0,0:0:0:60:soft-hitwhistle.wav
320,192,4864,1,0,0:0:0:45:soft-clap.wav
192,192,4864,1,0,0:0:0:45:soft-hitfinish.wav
192,192,5188,1,0,0:0:0:60:soft-hitwhistle.wav
448,192,5188,128,0,6486:0:0:0:45:soft-hitfinish.wav
320,192,5351,1,0,0:0:0:45:soft-clap.wav
192,192,5432,1,0,0:0:0:45:soft-clap.wav
64,192,5513,1,0,0:0:0:60:soft-hitwhistle.wav
64,192,5675,1,0,0:0:0:45:soft-clap.wav
192,192,5756,1,0,0:0:0:45:soft-clap.wav
320,192,5837,1,0,0:0:0:60:soft-hitwhistle.wav
320,192,5999,1,0,0:0:0:45:soft-clap.wav
192,192,6080,1,0,0:0:0:45:soft-clap.wav
64,192,6161,1,0,0:0:0:60:soft-hitwhistle.wav
320,192,6324,1,0,0:0:0:45:soft-clap.wav
192,192,6405,1,0,0:0:0:45:soft-clap.wav
64,192,6486,1,0,0:0:0:45:soft-hitfinish.wav
320,192,6486,1,0,0:0:0:60:soft-hitwhistle.wav
64,192,6810,1,0,0:0:0:60:soft-hitwhistle.wav
448,192,6972,1,0,0:0:0:60:soft-hitwhistle.wav
192,192,7134,1,0,0:0:0:60:soft-hitwhistle.wav
320,192,7296,1,0,0:0:0:60:soft-hitwhistle.wav
64,192,7459,1,0,0:0:0:60:soft-hitwhistle.wav
448,192,7621,1,0,0:0:0:60:soft-hitwhistle.wav
192,192,7783,1,0,0:0:0:60:soft-hitwhistle.wav
320,192,7945,1,0,0:0:0:60:soft-hitwhistle.wav
64,192,8107,1,0,0:0:0:60:soft-hitwhistle.wav
448,192,8269,1,0,0:0:0:60:soft-hitwhistle.wav
320,192,8432,1,0,0:0:0:60:soft-hitwhistle.wav
192,192,8540,1,0,0:0:0:45:soft-clap.wav
64,192,8648,1,0,0:0:0:45:soft-clap.wav
448,192,8756,1,0,0:0:0:60:soft-hitwhistle.wav
320,192,8864,1,0,0:0:0:45:soft-clap.wav
192,192,8972,1,0,0:0:0:45:soft-clap.wav
64,192,9080,1,0,0:0:0:45:soft-hitfinish.wav
448,192,9080,1,0,0:0:0:45:soft-clap.wav
64,192,9405,128,0,9567:0:0:0:45:soft-clap.wav
448,192,9405,1,0,0:0:0:0:
320,192,9567,1,0,0:0:0:60:soft-hitwhistle.wav
192,192,9729,128,0,9891:0:0:0:45:soft-clap.wav
448,192,9729,1,0,0:0:0:0:
64,192,9891,1,0,0:0:0:60:soft-hitwhistle.wav
320,192,10053,128,0,10215:0:0:0:45:soft-clap.wav
448,192,10053,1,0,0:0:0:0:
192,192,10215,1,0,0:0:0:0:
448,192,10378,1,0,0:0:0:60:soft-hitwhistle.wav
64,192,10378,1,0,0:0:0:0:
192,192,10486,1,0,0:0:0:45:soft-clap.wav
320,192,10594,1,0,0:0:0:45:soft-clap.wav
64,192,10702,1,0,0:0:0:60:soft-hitwhistle.wav
192,192,10810,1,0,0:0:0:60:soft-hitwhistle.wav
448,192,10918,1,0,0:0:0:45:soft-clap.wav
64,192,11026,1,0,0:0:0:60:soft-hitwhistle.wav
320,192,11134,1,0,0:0:0:60:soft-hitwhistle.wav
192,192,11242,1,0,0:0:0:60:soft-hitwhistle.wav
448,192,11351,1,0,0:0:0:60:soft-hitwhistle.wav
320,192,11459,1,0,0:0:0:60:soft-hitwhistle.wav
192,192,11567,1,0,0:0:0:60:soft-hitwhistle.wav
64,192,11675,1,0,0:0:0:60:soft-hitwhistle.wav
448,192,11675,1,0,0:0:0:45:soft-hitfinish.wav
64,192,11999,1,0,0:0:0:0:
192,192,12161,1,0,0:0:0:60:soft-hitwhistle.wav
320,192,12324,1,0,0:0:0:45:soft-clap.wav
448,192,12324,1,0,0:0:0:0:
192,192,12648,1,0,0:0:0:0:
64,192,12972,1,0,0:0:0:60:soft-hitwhistle.wav
192,192,13134,1,0,0:0:0:60:soft-clap.wav
448,192,13134,1,0,0:0:0:0:
320,192,13459,1,0,0:0:0:60:soft-hitwhistle.wav
192,192,13540,1,0,0:0:0:60:soft-hitwhistle.wav
64,192,13621,1,0,0:0:0:45:soft-clap.wav
448,192,13621,1,0,0:0:0:45:soft-hitfinish.wav
192,192,13783,1,0,0:0:0:60:soft-hitwhistle.wav
320,192,13864,1,0,0:0:0:60:soft-hitwhistle.wav
448,192,13945,1,0,0:0:0:45:soft-clap.wav
64,192,13945,1,0,0:0:0:45:soft-hitfinish.wav
320,192,14269,1,0,0:0:0:60:soft-hitwhistle.wav
192,192,14432,1,0,0:0:0:60:soft-hitwhistle.wav
448,192,14594,1,0,0:0:0:45:soft-clap.wav
320,192,14594,1,0,0:0:0:0:
64,192,14756,1,0,0:0:0:60:soft-hitwhistle.wav
192,192,14837,1,0,0:0:0:60:soft-hitwhistle.wav
320,192,14918,1,0,0:0:0:60:soft-hitwhistle.wav
448,192,15080,1,0,0:0:0:60:soft-hitwhistle.wav
192,192,15242,1,0,0:0:0:45:soft-clap.wav
320,192,15242,1,0,0:0:0:0:
64,192,15405,1,0,0:0:0:60:soft-hitwhistle.wav
192,192,15486,1,0,0:0:0:60:soft-hitwhistle.wav
320,192,15567,1,0,0:0:0:45:soft-clap.wav
448,192,15567,1,0,0:0:0:45:soft-hitfinish.wav
64,192,15891,1,0,0:0:0:60:soft-hitwhistle.wav
192,192,16053,1,0,0:0:0:45:soft-clap.wav
448,192,16215,1,0,0:0:0:60:soft-hitwhistle.wav
320,192,16378,1,0,0:0:0:45:soft-clap.wav
64,192,16540,1,0,0:0:0:60:soft-hitwhistle.wav
192,192,16702,1,0,0:0:0:45:soft-clap.wav
320,192,16864,1,0,0:0:0:60:soft-hitwhistle.wav
448,192,16864,128,0,17188:0:0:0:45:soft-hitfinish.wav
64,192,17188,128,0,17513:0:0:0:60:soft-hitwhistle.wav
320,192,17513,128,0,17837:0:0:0:60:soft-hitwhistle.wav
192,192,17837,128,0,17999:0:0:0:60:soft-hitwhistle.wav
448,192,17999,128,0,18161:0:0:0:0:
64,192,18161,128,0,18324:0:0:0:60:soft-hitwhistle.wav
192,192,18324,128,0,18486:0:0:0:0:
320,192,18486,128,0,18810:0:0:0:60:soft-hitwhistle.wav
448,192,18810,128,0,18972:0:0:0:60:soft-hitwhistle.wav
64,192,18972,128,0,19134:0:0:0:0:
320,192,19134,128,0,19296:0:0:0:60:soft-hitwhistle.wav
192,192,19296,128,0,19459:0:0:0:0:
448,192,19459,128,0,19783:0:0:0:60:soft-hitwhistle.wav
320,192,19783,128,0,20107:0:0:0:60:soft-hitwhistle.wav
64,192,20107,128,0,20432:0:0:0:60:soft-hitwhistle.wav
448,192,20432,128,0,20594:0:0:0:60:soft-hitwhistle.wav
320,192,20594,128,0,20756:0:0:0:0:
64,192,20756,128,0,20918:0:0:0:60:soft-hitwhistle.wav
192,192,20918,128,0,21080:0:0:0:0:
448,192,21080,128,0,21405:0:0:0:60:soft-hitwhistle.wav
192,192,21405,128,0,21567:0:0:0:60:soft-hitwhistle.wav
320,192,21567,128,0,21729:0:0:0:0:
64,192,21729,128,0,21891:0:0:0:60:soft-hitwhistle.wav
448,192,21891,128,0,22053:0:0:0:0:
192,192,22053,128,0,22378:0:0:0:60:soft-hitwhistle.wav
320,192,22378,128,0,22702:0:0:0:60:soft-hitwhistle.wav
448,192,22702,128,0,23026:0:0:0:60:soft-hitwhistle.wav
64,192,23026,128,0,23188:0:0:0:60:soft-hitwhistle.wav
192,192,23188,128,0,23351:0:0:0:0:
448,192,23351,128,0,23513:0:0:0:60:soft-hitwhistle.wav
320,192,23513,128,0,23675:0:0:0:0:
64,192,23675,128,0,23999:0:0:0:60:soft-hitwhistle.wav
320,192,23999,128,0,24161:0:0:0:60:soft-hitwhistle.wav
192,192,24161,128,0,24324:0:0:0:0:
448,192,24324,128,0,24486:0:0:0:60:soft-hitwhistle.wav
64,192,24486,128,0,24648:0:0:0:0:
320,192,24648,128,0,24972:0:0:0:60:soft-hitwhistle.wav
192,192,24972,128,0,25296:0:0:0:60:soft-hitwhistle.wav
448,192,25296,128,0,25621:0:0:0:60:soft-hitwhistle.wav
64,192,25621,128,0,25783:0:0:0:60:soft-hitwhistle.wav
192,192,25783,128,0,25945:0:0:0:0:
448,192,25945,1,0,0:0:0:45:soft-clap.wav
320,192,26053,1,0,0:0:0:45:soft-clap.wav
64,192,26161,1,0,0:0:0:45:soft-clap.wav
192,192,26269,1,0,0:0:0:45:soft-clap.wav
448,192,26378,1,0,0:0:0:45:soft-clap.wav
320,192,26486,1,0,0:0:0:45:soft-clap.wav
64,192,26594,1,0,0:0:0:45:soft-clap.wav
192,192,26702,1,0,0:0:0:45:soft-clap.wav
448,192,26810,1,0,0:0:0:45:soft-clap.wav
320,192,26918,1,0,0:0:0:45:soft-clap.wav
64,192,27026,1,0,0:0:0:45:soft-clap.wav
192,192,27134,1,0,0:0:0:45:soft-clap.wav
320,192,27242,1,0,0:0:0:60:soft-hitwhistle.wav
448,192,27242,128,0,28540:0:0:0:45:soft-hitfinish.wav
64,192,27405,1,0,0:0:0:0:
192,192,27567,1,0,0:0:0:60:soft-hitwhistle.wav
64,192,27891,1,0,0:0:0:60:soft-hitwhistle.wav
320,192,28053,1,0,0:0:0:0:
192,192,28215,1,0,0:0:0:60:soft-hitwhistle.wav
64,192,28540,1,0,0:0:0:60:soft-hitwhistle.wav
320,192,28540,128,0,29837:0:0:0:0:
192,192,28702,1,0,0:0:0:0:
64,192,28864,1,0,0:0:0:60:soft-hitwhistle.wav
192,192,29188,1,0,0:0:0:60:soft-hitwhistle.wav
448,192,29351,1,0,0:0:0:45:soft-clap.wav
64,192,29351,1,0,0:0:0:0:
192,192,29513,1,0,0:0:0:60:soft-hitwhistle.wav
64,192,29675,1,0,0:0:0:45:soft-clap.wav
448,192,29675,1,0,0:0:0:0:
448,192,29837,1,0,0:0:0:60:soft-hitwhistle.wav
192,192,29837,128,0,31134:0:0:0:0:
64,192,29999,1,0,0:0:0:0:
320,192,30161,1,0,0:0:0:60:soft-hitwhistle.wav
448,192,30486,1,0,0:0:0:60:soft-hitwhistle.wav
64,192,30648,1,0,0:0:0:0:
320,192,30810,1,0,0:0:0:60:soft-hitwhistle.wav
448,192,31134,1,0,0:0:0:60:soft-hitwhistle.wav
64,192,31134,128,0,32432:0:0:0:0:
320,192,31296,1,0,0:0:0:0:
448,192,31459,1,0,0:0:0:60:soft-hitwhistle.wav
192,192,31783,1,0,0:0:0:60:soft-hitwhistle.wav
320,192,31945,1,0,0:0:0:0:
448,192,32107,1,0,0:0:0:60:soft-hitwhistle.wav
192,192,32432,1,0,0:0:0:45:soft-clap.wav
448,192,32432,128,0,33729:0:0:0:45:soft-hitfinish.wav
320,192,32756,1,0,0:0:0:60:soft-hitwhistle.wav
64,192,32918,1,0,0:0:0:60:soft-hitwhistle.wav
320,192,33080,1,0,0:0:0:60:soft-hitwhistle.wav
64,192,33242,1,0,0:0:0:60:soft-hitwhistle.wav
320,192,33405,1,0,0:0:0:60:soft-hitwhistle.wav
64,192,33567,1,0,0:0:0:45:soft-clap.wav
192,192,33648,1,0,0:0:0:45:soft-clap.wav
320,192,33729,128,0,35026:0:0:0:45:soft-hitfinish.wav
64,192,33729,1,0,0:0:0:60:soft-hitwhistle.wav
192,192,34053,1,0,0:0:0:60:soft-hitwhistle.wav
448,192,34215,1,0,0:0:0:60:soft-hitwhistle.wav
64,192,34378,1,0,0:0:0:60:soft-hitwhistle.wav
192,192,34540,1,0,0:0:0:60:soft-hitwhistle.wav
64,192,34702,1,0,0:0:0:60:soft-hitwhistle.wav
448,192,34864,1,0,0:0:0:60:soft-hitwhistle.wav
192,192,34945,1,0,0:0:0:60:soft-hitwhistle.wav
64,192,35026,128,0,36324:0:0:0:45:soft-hitfinish.wav
448,192,35026,1,0,0:0:0:60:soft-hitwhistle.wav
192,192,35351,1,0,0:0:0:60:soft-hitwhistle.wav
320,192,35513,1,0,0:0:0:45:soft-clap.wav
448,192,35513,1,0,0:0:0:0:
192,192,35675,1,0,0:0:0:60:soft-hitwhistle.wav
320,192,35837,1,0,0:0:0:45:soft-clap.wav
448,192,35837,1,0,0:0:0:0:
192,192,35999,1,0,0:0:0:60:soft-hitwhistle.wav
448,192,36161,1,0,0:0:0:60:soft-hitwhistle.wav
320,192,36242,1,0,0:0:0:60:soft-hitwhistle.wav
192,192,36324,1,0,0:0:0:60:soft-hitwhistle.wav
448,192,36324,1,0,0:0:0:45:soft-hitfinish.wav
320,192,36648,1,0,0:0:0:45:soft-clap.wav
192,192,36810,1,0,0:0:0:45:soft-clap.wav
448,192,36972,1,0,0:0:0:60:soft-hitwhistle.wav
320,192,37134,1,0,0:0:0:45:soft-clap.wav
192,192,37215,1,0,0:0:0:45:soft-clap.wav
64,192,37296,1,0,0:0:0:60:soft-hitwhistle.wav
448,192,37459,1,0,0:0:0:45:soft-clap.wav
320,192,37540,1,0,0:0:0:45:soft-clap.wav
192,192,37621,1,0,0:0:0:60:soft-hitwhistle.wav
64,192,37621,1,0,0:0:0:45:soft-hitfinish.wav
448,192,37783,1,0,0:0:0:0:
320,192,37945,1,0,0:0:0:45:soft-clap.wav
192,192,37945,1,0,0:0:0:0:
64,192,38107,1,0,0:0:0:0:
192,192,38188,1,0,0:0:0:0:
320,192,38269,1,0,0:0:0:60:soft-hitwhistle.wav
448,192,38432,1,0,0:0:0:0:
320,192,38594,1,0,0:0:0:45:soft-clap.wav
64,192,38594,1,0,0:0:0:0:
192,192,38756,1,0,0:0:0:0:
448,192,38918,1,0,0:0:0:60:soft-hitwhistle.wav
192,192,39080,1,0,0:0:0:0:
64,192,39242,1,0,0:0:0:45:soft-clap.wav
320,192,39242,1,0,0:0:0:0:
448,192,39405,1,0,0:0:0:0:
320,192,39486,1,0,0:0:0:0:
192,192,39567,1,0,0:0:0:60:soft-hitwhistle.wav
64,192,39729,1,0,0:0:0:0:
320,192,39891,1,0,0:0:0:45:soft-clap.wav
448,192,39891,1,0,0:0:0:0:
192,192,40053,1,0,0:0:0:0:
64,192,40215,1,0,0:0:0:60:soft-hitwhistle.wav
448,192,40378,1,0,0:0:0:0:
320,192,40459,1,0,0:0:0:0:
192,192,40540,1,0,0:0:0:45:soft-clap.wav
64,192,40540,1,0,0:0:0:0:
320,192,40702,1,0,0:0:0:0:
448,192,40864,1,0,0:0:0:60:soft-hitwhistle.wav
192,192,41026,1,0,0:0:0:0:
320,192,41188,1,0,0:0:0:45:soft-clap.wav
448,192,41188,1,0,0:0:0:0:
64,192,41351,1,0,0:0:0:0:
192,192,41432,1,0,0:0:0:0:
320,192,41513,1,0,0:0:0:60:soft-hitwhistle.wav
448,192,41675,1,0,0:0:0:0:
320,192,41837,1,0,0:0:0:45:soft-clap.wav
192,192,41837,1,0,0:0:0:0:
64,192,41999,1,0,0:0:0:0:
192,192,42161,1,0,0:0:0:60:soft-hitwhistle.wav
320,192,42324,1,0,0:0:0:0:
448,192,42486,1,0,0:0:0:45:soft-clap.wav
64,192,42486,1,0,0:0:0:0:
320,192,42810,1,0,0:0:0:60:soft-hitwhistle.wav
448,192,42810,1,0,0:0:0:45:soft-hitfinish.wav
64,192,43134,1,0,0:0:0:45:soft-clap.wav
192,192,43134,1,0,0:0:0:0:
320,192,43296,1,0,0:0:0:60:soft-hitwhistle.wav
448,192,43459,1,0,0:0:0:45:soft-clap.wav
64,192,43459,1,0,0:0:0:0:
192,192,43621,1,0,0:0:0:60:soft-hitwhistle.wav
320,192,43783,1,0,0:0:0:45:soft-clap.wav
448,192,43783,1,0,0:0:0:0:
192,192,43945,1,0,0:0:0:60:soft-hitwhistle.wav
64,192,44107,1,0,0:0:0:45:soft-clap.wav
320,192,44107,1,0,0:0:0:0:
448,192,44432,1,0,0:0:0:45:soft-clap.wav
192,192,44432,1,0,0:0:0:0:
320,192,44594,1,0,0:0:0:60:soft-hitwhistle.wav
192,192,44756,1,0,0:0:0:45:soft-clap.wav
64,192,44756,1,0,0:0:0:0:
320,192,44918,1,0,0:0:0:60:soft-hitwhistle.wav
64,192,45080,1,0,0:0:0:45:soft-clap.wav
448,192,45080,1,0,0:0:0:0:
192,192,45242,1,0,0:0:0:60:soft-hitwhistle.wav
320,192,45405,1,0,0:0:0:45:soft-hitfinish.wav
64,192,45405,1,0,0:0:0:45:soft-clap.wav
448,192,45567,1,0,0:0:0:60:soft-hitwhistle.wav
320,192,45729,1,0,0:0:0:60:soft-hitwhistle.wav
192,192,45891,1,0,0:0:0:45:soft-clap.wav
64,192,45891,1,0,0:0:0:45:soft-hitfinish.wav
448,192,46053,1,0,0:0:0:60:soft-hitwhistle.wav
320,192,46215,1,0,0:0:0:60:soft-hitwhistle.wav
192,192,46378,1,0,0:0:0:45:soft-hitfinish.wav
448,192,46378,1,0,0:0:0:45:soft-clap.wav
64,192,46702,1,0,0:0:0:60:soft-hitwhistle.wav
192,192,46864,1,0,0:0:0:60:soft-hitwhistle.wav
320,192,47026,1,0,0:0:0:45:soft-clap.wav
448,192,47026,1,0,0:0:0:0:
448,192,47351,1,0,0:0:0:60:soft-hitwhistle.wav
320,192,47459,1,0,0:0:0:45:soft-clap.wav
192,192,47567,1,0,0:0:0:45:soft-clap.wav
64,192,47675,1,0,0:0:0:45:soft-clap.wav
448,192,47783,1,0,0:0:0:45:soft-clap.wav
192,192,47891,1,0,0:0:0:45:soft-clap.wav
320,192,47999,1,0,0:0:0:60:soft-hitwhistle.wav
448,192,47999,128,0,50594:0:0:0:45:soft-hitfinish.wav
64,192,48161,1,0,0:0:0:0:
320,192,48324,1,0,0:0:0:0:
64,192,48486,1,0,0:0:0:0:
320,192,48648,1,0,0:0:0:0:
64,192,48810,1,0,0:0:0:0:
320,192,48972,1,0,0:0:0:0:
64,192,49134,1,0,0:0:0:0:
320,192,49296,1,0,0:0:0:0:
64,192,49459,1,0,0:0:0:0:
320,192,49621,1,0,0:0:0:0:
64,192,49783,1,0,0:0:0:0:
320,192,49945,1,0,0:0:0:0:
64,192,50107,1,0,0:0:0:0:
320,192,50269,1,0,0:0:0:0:
64,192,50432,1,0,0:0:0:0:
192,192,50513,1,0,0:0:0:0:
320,192,50594,128,0,53188:0:0:0:0:
64,192,50756,1,0,0:0:0:0:
448,192,50918,1,0,0:0:0:0:
64,192,51080,1,0,0:0:0:0:
448,192,51242,1,0,0:0:0:0:
64,192,51405,1,0,0:0:0:0:
448,192,51567,1,0,0:0:0:0:
64,192,51729,1,0,0:0:0:0:
448,192,51891,1,0,0:0:0:0:
64,192,52053,1,0,0:0:0:0:
448,192,52215,1,0,0:0:0:0:
64,192,52378,1,0,0:0:0:0:
448,192,52540,1,0,0:0:0:0:
64,192,52702,1,0,0:0:0:0:
448,192,52864,1,0,0:0:0:0:
64,192,53026,1,0,0:0:0:0:
192,192,53107,1,0,0:0:0:0:
448,192,53188,1,0,0:0:0:60:soft-hitwhistle.wav
64,192,53351,1,0,0:0:0:60:soft-hitwhistle.wav
192,192,53432,1,0,0:0:0:60:soft-hitwhistle.wav
320,192,53513,1,0,0:0:0:60:soft-hitwhistle.wav
448,192,53675,1,0,0:0:0:60:soft-hitwhistle.wav
320,192,53756,1,0,0:0:0:60:soft-hitwhistle.wav
192,192,53837,1,0,0:0:0:60:soft-hitwhistle.wav
448,192,53999,1,0,0:0:0:60:soft-hitwhistle.wav
64,192,54080,1,0,0:0:0:60:soft-hitwhistle.wav
320,192,54161,1,0,0:0:0:60:soft-hitwhistle.wav
192,192,54324,1,0,0:0:0:60:soft-hitwhistle.wav
448,192,54405,1,0,0:0:0:60:soft-hitwhistle.wav
64,192,54486,1,0,0:0:0:60:soft-hitwhistle.wav
320,192,54648,1,0,0:0:0:60:soft-hitwhistle.wav
192,192,54729,1,0,0:0:0:60:soft-hitwhistle.wav
320,192,54810,1,0,0:0:0:60:soft-hitwhistle.wav
192,192,54972,1,0,0:0:0:60:soft-hitwhistle.wav
320,192,55053,1,0,0:0:0:60:soft-hitwhistle.wav
192,192,55134,1,0,0:0:0:60:soft-hitwhistle.wav
320,192,55296,1,0,0:0:0:60:soft-hitwhistle.wav
192,192,55378,1,0,0:0:0:60:soft-hitwhistle.wav
64,192,55459,1,0,0:0:0:60:soft-hitwhistle.wav
192,192,55621,1,0,0:0:0:60:soft-hitwhistle.wav
320,192,55702,1,0,0:0:0:60:soft-hitwhistle.wav
448,192,55783,1,0,0:0:0:60:soft-hitwhistle.wav
64,192,55945,1,0,0:0:0:60:soft-hitwhistle.wav
192,192,56026,1,0,0:0:0:60:soft-hitwhistle.wav
64,192,56107,1,0,0:0:0:60:soft-hitwhistle.wav
448,192,56269,1,0,0:0:0:60:soft-hitwhistle.wav
320,192,56351,1,0,0:0:0:60:soft-hitwhistle.wav
448,192,56432,1,0,0:0:0:60:soft-hitwhistle.wav
192,192,56594,1,0,0:0:0:60:soft-hitwhistle.wav
320,192,56675,1,0,0:0:0:60:soft-hitwhistle.wav
192,192,56756,1,0,0:0:0:60:soft-hitwhistle.wav
64,192,56918,1,0,0:0:0:60:soft-hitwhistle.wav
320,192,56999,1,0,0:0:0:60:soft-hitwhistle.wav
448,192,57080,1,0,0:0:0:60:soft-hitwhistle.wav
192,192,57242,1,0,0:0:0:45:soft-clap.wav
320,192,57405,1,0,0:0:0:60:soft-hitwhistle.wav
448,192,57567,1,0,0:0:0:45:soft-clap.wav
64,192,57729,1,0,0:0:0:60:soft-hitwhistle.wav
192,192,57891,1,0,0:0:0:45:soft-clap.wav
320,192,58053,1,0,0:0:0:60:soft-hitwhistle.wav
64,192,58215,1,0,0:0:0:45:soft-clap.wav
320,192,58378,1,0,0:0:0:45:soft-hitfinish.wav
448,192,58378,1,0,0:0:0:60:soft-hitwhistle.wav
192,192,58540,1,0,0:0:0:0:
64,192,58702,1,0,0:0:0:45:soft-clap.wav
448,192,58702,1,0,0:0:0:0:
192,192,58864,1,0,0:0:0:60:soft-hitwhistle.wav
64,192,59026,1,0,0:0:0:45:soft-clap.wav
320,192,59026,1,0,0:0:0:0:
448,192,59188,1,0,0:0:0:60:soft-hitwhistle.wav
192,192,59351,1,0,0:0:0:45:soft-clap.wav
320,192,59351,1,0,0:0:0:0:
64,192,59513,1,0,0:0:0:60:soft-hitwhistle.wav
320,192,59675,1,0,0:0:0:45:soft-clap.wav
448,192,59675,1,0,0:0:0:0:
192,192,59837,1,0,0:0:0:60:soft-hitwhistle.wav
64,192,59999,1,0,0:0:0:45:soft-hitfinish.wav
448,192,59999,1,0,0:0:0:45:soft-clap.wav
192,192,60324,1,0,0:0:0:60:soft-hitwhistle.wav
320,192,60432,1,0,0:0:0:60:soft-hitwhistle.wav
448,192,60540,1,0,0:0:0:60:soft-hitwhistle.wav
64,192,60648,1,0,0:0:0:60:soft-hitwhistle.wav
192,192,60756,1,0,0:0:0:60:soft-hitwhistle.wav
320,192,60864,1,0,0:0:0:60:soft-hitwhistle.wav
448,192,60972,1,0,0:0:0:60:soft-hitwhistle.wav
64,192,60972,128,0,61621:0:0:0:45:soft-hitfinish.wav
320,192,61296,1,0,0:0:0:0:
192,192,61621,128,0,62269:0:0:0:0:
448,192,61945,1,0,0:0:0:0:
320,192,62269,128,0,62918:0:0:0:0:
64,192,62594,1,0,0:0:0:0:
448,192,62918,128,0,63567:0:0:0:0:
192,192,63242,1,0,0:0:0:0:
320,192,63567,1,0,0:0:0:60:soft-hitwhistle.wav
64,192,63567,1,0,0:0:0:0:
192,192,63891,1,0,0:0:0:60:soft-hitwhistle.wav
320,192,64053,1,0,0:0:0:0:
448,192,64215,1,0,0:0:0:60:soft-hitwhistle.wav
64,192,64215,1,0,0:0:0:0:
192,192,64378,1,0,0:0:0:45:soft-clap.wav
320,192,64378,1,0,0:0:0:0:
64,192,64540,1,0,0:0:0:60:soft-hitwhistle.wav
448,192,64540,1,0,0:0:0:0:
192,192,64702,1,0,0:0:0:45:soft-clap.wav
320,192,64702,1,0,0:0:0:0:
448,192,64864,1,0,0:0:0:60:soft-hitwhistle.wav
320,192,64864,1,0,0:0:0:0:
192,192,65026,1,0,0:0:0:45:soft-clap.wav
64,192,65026,1,0,0:0:0:0:
320,192,65188,1,0,0:0:0:60:soft-hitwhistle.wav
448,192,65188,1,0,0:0:0:0:
192,192,65351,1,0,0:0:0:45:soft-clap.wav
64,192,65351,1,0,0:0:0:0:
448,192,65513,128,0,65837:0:0:0:0:
192,192,65837,128,0,66161:0:0:0:0:
448,192,66161,1,0,0:0:0:60:soft-hitwhistle.wav
320,192,66161,1,0,0:0:0:45:soft-hitfinish.wav
64,192,66161,1,0,0:0:0:0:
192,192,66324,1,0,0:0:0:0:
64,192,66486,1,0,0:0:0:45:soft-clap.wav
448,192,66486,1,0,0:0:0:0:
320,192,66648,1,0,0:0:0:0:
192,192,66810,1,0,0:0:0:60:soft-hitwhistle.wav
64,192,66810,1,0,0:0:0:0:
320,192,66972,1,0,0:0:0:0:
448,192,67134,1,0,0:0:0:45:soft-clap.wav
64,192,67134,1,0,0:0:0:0:
192,192,67296,1,0,0:0:0:0:
320,192,67459,1,0,0:0:0:60:soft-hitwhistle.wav
64,192,67459,1,0,0:0:0:0:
448,192,67621,1,0,0:0:0:0:
320,192,67783,1,0,0:0:0:45:soft-clap.wav
192,192,67783,1,0,0:0:0:0:
64,192,67945,1,0,0:0:0:0:
192,192,68107,1,0,0:0:0:60:soft-hitwhistle.wav
448,192,68107,1,0,0:0:0:0:
320,192,68269,1,0,0:0:0:0:
64,192,68432,1,0,0:0:0:45:soft-clap.wav
448,192,68432,1,0,0:0:0:0:
192,192,68594,1,0,0:0:0:0:
320,192,68756,1,0,0:0:0:60:soft-hitwhistle.wav
448,192,68756,1,0,0:0:0:0:
192,192,68918,1,0,0:0:0:0:
64,192,69080,1,0,0:0:0:45:soft-clap.wav
448,192,69080,1,0,0:0:0:0:
192,192,69242,1,0,0:0:0:0:
320,192,69405,1,0,0:0:0:60:soft-hitwhistle.wav
448,192,69405,1,0,0:0:0:0:
192,192,69567,1,0,0:0:0:0:
64,192,69729,1,0,0:0:0:45:soft-clap.wav
320,192,69729,1,0,0:0:0:0:
192,192,69891,1,0,0:0:0:0:
448,192,70053,1,0,0:0:0:60:soft-hitwhistle.wav
320,192,70053,1,0,0:0:0:0:
64,192,70215,1,0,0:0:0:0:
192,192,70378,1,0,0:0:0:45:soft-clap.wav
320,192,70378,1,0,0:0:0:0:
448,192,70540,1,0,0:0:0:0:
64,192,70702,1,0,0:0:0:60:soft-hitwhistle.wav
320,192,70702,1,0,0:0:0:0:
448,192,70864,1,0,0:0:0:0:
192,192,71026,1,0,0:0:0:45:soft-clap.wav
64,192,71026,1,0,0:0:0:0:
320,192,71188,1,0,0:0:0:0:
192,192,71351,1,0,0:0:0:45:soft-hitfinish.wav
64,192,71351,1,0,0:0:0:60:soft-hitwhistle.wav
448,192,71351,1,0,0:0:0:0:
320,192,71513,1,0,0:0:0:0:
192,192,71675,1,0,0:0:0:45:soft-clap.wav
64,192,71675,1,0,0:0:0:0:
448,192,71837,1,0,0:0:0:0:
320,192,71999,1,0,0:0:0:60:soft-hitwhistle.wav
192,192,71999,1,0,0:0:0:0:
64,192,72161,1,0,0:0:0:0:
192,192,72324,1,0,0:0:0:45:soft-clap.wav
448,192,72324,1,0,0:0:0:0:
320,192,72486,1,0,0:0:0:0:
64,192,72648,1,0,0:0:0:60:soft-hitwhistle.wav
448,192,72648,1,0,0:0:0:0:
192,192,72810,1,0,0:0:0:0:
320,192,72972,1,0,0:0:0:45:soft-clap.wav
448,192,72972,1,0,0:0:0:0:
64,192,73134,1,0,0:0:0:0:
192,192,73296,1,0,0:0:0:60:soft-hitwhistle.wav
320,192,73296,1,0,0:0:0:0:
448,192,73459,1,0,0:0:0:0:
320,192,73621,1,0,0:0:0:45:soft-clap.wav
64,192,73621,1,0,0:0:0:0:
192,192,73783,1,0,0:0:0:0:
320,192,73945,1,0,0:0:0:60:soft-hitwhistle.wav
448,192,73945,1,0,0:0:0:45:soft-hitfinish.wav
64,192,73945,1,0,0:0:0:0:
448,192,74269,1,0,0:0:0:45:soft-clap.wav
192,192,74269,1,0,0:0:0:0:
320,192,74432,1,0,0:0:0:60:soft-hitwhistle.wav
448,192,74594,1,0,0:0:0:45:soft-clap.wav
64,192,74594,1,0,0:0:0:0:
192,192,74756,1,0,0:0:0:60:soft-hitwhistle.wav
64,192,74918,1,0,0:0:0:45:soft-clap.wav
320,192,74918,1,0,0:0:0:0:
448,192,75080,1,0,0:0:0:0:
64,192,75242,1,0,0:0:0:60:soft-hitwhistle.wav
192,192,75351,1,0,0:0:0:45:soft-clap.wav
448,192,75459,1,0,0:0:0:45:soft-clap.wav
320,192,75567,1,0,0:0:0:45:soft-clap.wav
64,192,75675,1,0,0:0:0:45:soft-clap.wav
192,192,75783,1,0,0:0:0:45:soft-clap.wav
448,192,75891,1,0,0:0:0:45:soft-clap.wav
320,192,75999,1,0,0:0:0:45:soft-clap.wav
192,192,76107,1,0,0:0:0:45:soft-clap.wav
64,192,76215,1,0,0:0:0:45:soft-clap.wav
448,192,76324,1,0,0:0:0:45:soft-clap.wav
320,192,76432,1,0,0:0:0:45:soft-clap.wav
192,192,76540,1,0,0:0:0:45:soft-hitfinish.wav
448,192,76540,1,0,0:0:0:60:soft-hitwhistle.wav
64,192,76540,1,0,0:0:0:0:
320,192,77026,1,0,0:0:0:60:soft-hitwhistle.wav
64,192,77188,1,0,0:0:0:45:soft-clap.wav
448,192,77188,1,0,0:0:0:0:
192,192,77513,1,0,0:0:0:0:
448,192,77837,1,0,0:0:0:60:soft-hitwhistle.wav
192,192,77999,1,0,0:0:0:45:soft-clap.wav
64,192,77999,1,0,0:0:0:0:
320,192,78161,1,0,0:0:0:0:
64,192,78324,1,0,0:0:0:60:soft-hitwhistle.wav
192,192,78486,1,0,0:0:0:45:soft-hitfinish.wav
320,192,78486,1,0,0:0:0:45:soft-clap.wav
448,192,78486,1,0,0:0:0:0:
64,192,78648,1,0,0:0:0:60:soft-hitwhistle.wav
320,192,78810,1,0,0:0:0:45:soft-clap.wav
448,192,78810,1,0,0:0:0:45:soft-hitfinish.wav
64,192,79134,1,0,0:0:0:45:soft-hitfinish.wav
192,192,79134,1,0,0:0:0:60:soft-hitwhistle.wav
320,192,79296,1,0,0:0:0:60:soft-hitwhistle.wav
192,192,79459,1,0,0:0:0:45:soft-clap.wav
448,192,79459,1,0,0:0:0:0:
64,192,79621,1,0,0:0:0:60:soft-hitwhistle.wav
192,192,79702,1,0,0:0:0:60:soft-hitwhistle.wav
320,192,79783,1,0,0:0:0:60:soft-hitwhistle.wav
64,192,79945,1,0,0:0:0:60:soft-hitwhistle.wav
448,192,80107,1,0,0:0:0:45:soft-clap.wav
192,192,80269,1,0,0:0:0:60:soft-hitwhistle.wav
320,192,80351,1,0,0:0:0:60:soft-hitwhistle.wav
64,192,80432,1,0,0:0:0:45:soft-clap.wav
448,192,80432,1,0,0:0:0:45:soft-hitfinish.wav
320,192,80594,1,0,0:0:0:45:soft-clap.wav
192,192,80756,1,0,0:0:0:45:soft-clap.wav
448,192,80918,1,0,0:0:0:45:soft-clap.wav
64,192,81080,1,0,0:0:0:45:soft-clap.wav
320,192,81242,1,0,0:0:0:45:soft-clap.wav
192,192,81405,1,0,0:0:0:45:soft-clap.wav
448,192,81567,1,0,0:0:0:45:soft-clap.wav
192,192,81729,128,0,82053:0:0:0:45:soft-hitfinish.wav
64,192,81729,1,0,0:0:0:60:soft-hitwhistle.wav
448,192,82053,1,0,0:0:0:45:soft-clap.wav
320,192,82053,128,0,82378:0:0:0:0:
448,192,82378,128,0,82702:0:0:0:60:soft-hitwhistle.wav
320,192,82702,1,0,0:0:0:45:soft-clap.wav
64,192,82702,128,0,82864:0:0:0:0:
192,192,82864,128,0,83026:0:0:0:0:
448,192,83026,128,0,83188:0:0:0:60:soft-hitwhistle.wav
320,192,83188,128,0,83351:0:0:0:0:
192,192,83351,1,0,0:0:0:45:soft-clap.wav
64,192,83351,128,0,83675:0:0:0:0:
192,192,83675,128,0,83837:0:0:0:60:soft-hitwhistle.wav
448,192,83837,128,0,83999:0:0:0:0:
64,192,83999,1,0,0:0:0:45:soft-clap.wav
320,192,83999,128,0,84161:0:0:0:0:
192,192,84161,128,0,84324:0:0:0:0:
320,192,84324,128,0,84648:0:0:0:60:soft-hitwhistle.wav
448,192,84648,1,0,0:0:0:45:soft-clap.wav
192,192,84648,128,0,84972:0:0:0:0:
64,192,84972,128,0,85296:0:0:0:60:soft-hitwhistle.wav
192,192,85296,1,0,0:0:0:45:soft-clap.wav
448,192,85296,128,0,85459:0:0:0:0:
320,192,85459,128,0,85621:0:0:0:0:
64,192,85621,128,0,85783:0:0:0:60:soft-hitwhistle.wav
192,192,85783,128,0,85945:0:0:0:0:
448,192,85945,1,0,0:0:0:45:soft-clap.wav
320,192,85945,128,0,86269:0:0:0:0:
448,192,86269,128,0,86432:0:0:0:60:soft-hitwhistle.wav
64,192,86432,128,0,86594:0:0:0:0:
448,192,86594,1,0,0:0:0:45:soft-clap.wav
192,192,86594,128,0,86756:0:0:0:0:
320,192,86756,128,0,86918:0:0:0:0:
448,192,86918,128,0,87242:0:0:0:60:soft-hitwhistle.wav
320,192,87242,1,0,0:0:0:45:soft-clap.wav
192,192,87242,128,0,87567:0:0:0:0:
64,192,87567,128,0,87891:0:0:0:60:soft-hitwhistle.wav
192,192,87891,1,0,0:0:0:45:soft-clap.wav
320,192,87891,128,0,88053:0:0:0:0:
448,192,88053,128,0,88215:0:0:0:0:
192,192,88215,128,0,88378:0:0:0:45:soft-hitfinish.wav
320,192,88215,1,0,0:0:0:60:soft-hitwhistle.wav
64,192,88378,128,0,88540:0:0:0:0:
448,192,88540,1,0,0:0:0:60:soft-hitwhistle.wav
320,192,88540,128,0,88864:0:0:0:0:
64,192,88702,1,0,0:0:0:60:soft-hitwhistle.wav
192,192,88864,1,0,0:0:0:60:soft-hitwhistle.wav
448,192,88864,128,0,89026:0:0:0:0:
320,192,89026,1,0,0:0:0:60:soft-hitwhistle.wav
64,192,89026,128,0,89188:0:0:0:0:
448,192,89188,1,0,0:0:0:60:soft-hitwhistle.wav
192,192,89188,128,0,89351:0:0:0:0:
64,192,89351,1,0,0:0:0:45:soft-clap.wav
320,192,89351,128,0,89513:0:0:0:0:
448,192,89513,128,0,89837:0:0:0:0:
64,192,89837,128,0,90161:0:0:0:0:
192,192,90161,128,0,90486:0:0:0:0:
320,192,90486,128,0,90648:0:0:0:0:
64,192,90648,128,0,91296:0:0:0:0:
