osu file format v14

[General]
AudioFilename: audio.mp3
AudioLeadIn: 0
PreviewTime: -1
Countdown: 0
SampleSet: Soft
StackLeniency: 0.7
Mode: 0
LetterboxInBreaks: 0
WidescreenStoryboard: 0

[Editor]
DistanceSpacing: 1.5
BeatDivisor: 4
GridSize: 4
TimelineZoom: 1.2

[Metadata]
Title:Koi-iro ni Sake
TitleUnicode:恋色に咲け
Artist:CHiCO with HoneyWorks
ArtistUnicode:CHiCO with HoneyWorks
Creator:Tomori-
Version:Sakura
Source:告白実行委員会
Tags:CHiCO with HoneyWorks Koiro ni sake 告白実行委員会 恋色に咲け
BeatmapID:944375
BeatmapSetID:438745

[Difficulty]
HPDrainRate:6
CircleSize:4
OverallDifficulty:8.5
ApproachRate:9.5
SliderMultiplier:1.6
SliderTickRate:2

[Events]
//Background and Video events
0,0,"f90dd9350d7e9d256a56efd7ec081c83.jpg",0,0
//Break Periods
//Storyboard Layer 0 (Background)
//Storyboard Layer 1 (Fail)
//Storyboard Layer 2 (Pass)
//Storyboard Layer 3 (Foreground)
//Storyboard Sound Samples

[TimingPoints]
4540,324.324324324324,4,2,0,50,1,0
20107,-83.3333333333333,4,2,0,50,0,0
30486,-100,4,2,0,50,0,0
32675,-100,4,2,0,5,0,0
32756,-100,4,2,0,50,0,0
32999,-100,4,2,0,5,0,0
33080,-100,4,2,0,50,0,0
34783,-100,4,2,0,50,0,0
38837,-100,4,2,0,5,0,0
38918,-100,4,2,0,50,0,0
39161,-100,4,2,0,5,0,0
39242,-100,4,2,0,50,0,0
51161,-133.333333333333,4,2,0,50,0,0
56432,-100,4,2,0,50,0,0
61621,-100,4,2,0,50,0,0
64134,-133.333333333333,4,2,0,50,0,0
66810,-111.111111111111,4,2,0,50,0,0
69405,-100,4,2,0,50,0,1
79783,-133.333333333333,4,2,0,50,0,1
84972,-100,4,2,0,50,0,1
95351,-133.333333333333,4,2,0,50,0,0
105729,-100,4,2,0,50,0,0
116107,-133.333333333333,4,2,0,50,0,0
126486,-100,4,2,0,50,0,0
129080,-133.333333333333,4,2,0,50,0,0
134270,-100,4,2,0,50,0,1
144648,-133.333333333333,4,2,0,50,0,1
149837,-142.857142857143,4,2,0,50,0,0
170594,-133.333333333333,4,2,0,50,0,0
180972,-100,4,2,0,50,0,0
196540,-133.333333333333,4,2,0,50,0,0
201729,-111.111111111111,4,2,0,50,0,0
206918,-83.3333333333333,4,2,0,50,0,0
209513,-133.333333333333,4,2,0,50,0,0
214702,-100,4,2,0,50,0,1
225080,-133.333333333333,4,2,0,50,0,1
236756,-100,4,2,0,50,0,1
245837,-100,4,2,0,50,0,0

[Colours]
Combo1 : 255,255,255
Combo2 : 0,128,192
Combo3 : 255,128,255

[HitObjects]
304,288,4539,6,0,P|344:248|352:200,1,80
204,216,4864,1,0,0:0:0:0:
340,80,5026,1,0,0:0:0:0:
184,84,5188,2,0,P|104:132|76:192,2,160
304,104,5999,5,0,0:0:0:0:
340,128,6080,1,0,0:0:0:0:
360,164,6161,1,0,0:0:0:0:
356,208,6242,1,0,0:0:0:0:
332,248,6323,1,0,0:0:0:0:
292,272,6404,1,0,0:0:0:0:
248,284,6485,1,0,0:0:0:0:
204,284,6567,6,0,L|160:276,3,40
124,268,6891,2,0,L|80:236,2,40
48,200,7134,1,0,0:0:0:0:
208,184,7296,1,0,0:0:0:0:
200,80,7458,6,0,P|144:100|120:136,2,80
216,204,7945,1,0,0:0:0:0:
364,192,8107,2,0,P|372:240|356:288,2,80
304,88,8594,5,0,0:0:0:0:
260,80,8675,1,0,0:0:0:0:
220,72,8756,1,0,0:0:0:0:
204,148,8918,5,0,0:0:0:0:
247,156,8999,1,0,0:0:0:0:
287,164,9080,1,0,0:0:0:0:
276,244,9242,5,0,0:0:0:0:
232,236,9323,1,0,0:0:0:0:
192,228,9404,1,0,0:0:0:0:
176,304,9567,5,0,0:0:0:0:
219,312,9648,1,0,0:0:0:0:
259,320,9729,1,0,0:0:0:0:
384,324,10053,5,0,0:0:0:0:
272,204,10215,1,0,0:0:0:0:
152,264,10377,5,0,0:0:0:0:
272,136,10539,1,0,0:0:0:0:
272,256,10702,5,0,0:0:0:0:
136,112,10864,1,0,0:0:0:0:
364,184,11026,5,0,0:0:0:0:
128,192,11188,1,0,0:0:0:0:
292,80,11350,1,0,0:0:0:0:
176,292,11512,1,0,0:0:0:0:
176,84,11675,1,0,0:0:0:0:
312,312,11837,1,0,0:0:0:0:
260,236,11999,5,0,0:0:0:0:
244,192,12080,1,0,0:0:0:0:
212,156,12161,1,0,0:0:0:0:
176,128,12242,1,0,0:0:0:0:
132,120,12323,1,0,0:0:0:0:
128,240,12648,6,0,L|76:316,1,80
288,148,12972,2,0,L|360:96,1,80
144,144,13296,2,0,L|72:88,1,80
204,232,13621,5,0,0:0:0:0:
248,212,13702,1,0,0:0:0:0:
284,176,13783,1,0,0:0:0:0:
256,80,13945,5,0,0:0:0:0:
212,88,14026,1,0,0:0:0:0:
164,104,14107,1,0,0:0:0:0:
80,208,14269,6,0,L|124:272,2,40
196,316,14594,2,0,L|288:320,2,80
112,208,15404,6,0,P|92:168|100:120,1,80
208,92,15729,2,0,P|252:136|264:176,1,80
240,280,16215,2,0,P|328:256|376:192,1,160
240,80,16864,5,0,0:0:0:0:
100,256,17026,1,0,0:0:0:0:
104,80,17188,5,0,0:0:0:0:
252,256,17350,1,0,0:0:0:0:
360,132,17512,6,0,P|384:176|392:232,1,80
328,312,17837,1,0,0:0:0:0:
224,208,17999,1,0,0:0:0:0:
204,188,18080,1,0,0:0:0:0:
184,168,18161,1,0,0:0:0:0:
84,72,18323,1,0,0:0:0:0:
80,200,18485,6,0,P|92:252|120:280,1,80
120,280,18729,1,0,0:0:0:0:
136,288,18810,1,0,0:0:0:0:
252,296,18972,5,0,0:0:0:0:
352,84,19134,1,0,0:0:0:0:
116,192,19296,1,0,0:0:0:0:
364,208,19458,1,0,0:0:0:0:
168,76,19621,1,0,0:0:0:0:
252,296,19783,1,0,0:0:0:0:
352,84,19945,1,0,0:0:0:0:
116,192,20107,1,0,0:0:0:0:
344,252,20431,5,0,0:0:0:0:
240,80,20594,1,0,0:0:0:0:
168,256,20756,2,0,P|112:232|92:188,1,95.9999970703126
140,64,21080,1,0,0:0:0:0:
248,192,21242,1,0,0:0:0:0:
352,280,21404,2,0,L|436:344,2,95.9999970703126
268,228,21891,5,0,0:0:0:0:
68,156,22053,1,0,0:0:0:0:
268,228,22215,1,0,0:0:0:0:
204,48,22377,1,0,0:0:0:0:
268,228,22539,1,0,0:0:0:0:
68,156,22702,6,0,P|72:232|104:272,1,95.9999970703126
92,260,22945,1,0,0:0:0:0:
104,268,23026,1,0,0:0:0:0:
280,324,23188,1,0,0:0:0:0:
292,200,23350,2,0,P|248:104|180:56,1,191.999994140625
172,180,23837,1,0,0:0:0:0:
144,268,23999,2,0,L|72:336,2,95.9999970703126
232,232,24485,1,0,0:0:0:0:
432,196,24648,5,0,0:0:0:0:
216,92,24810,1,0,0:0:0:0:
384,52,24972,1,0,0:0:0:0:
260,252,25134,1,0,0:0:0:0:
432,196,25296,6,0,P|398:295|321:331,1,191.999994140625
333,226,25783,1,0,0:0:0:0:
159,321,25945,1,0,0:0:0:0:
194,172,26107,1,0,0:0:0:0:
336,104,26269,2,0,L|419:46,2,95.9999970703126
146,106,26756,2,0,L|93:59,2,47.9999985351563
245,188,27080,1,0,0:0:0:0:
363,297,27242,5,0,0:0:0:0:
245,188,27404,1,0,0:0:0:0:
125,293,27567,1,0,0:0:0:0:
245,188,27729,1,0,0:0:0:0:
363,297,27891,1,0,0:0:0:0:
245,188,28053,1,0,0:0:0:0:
340,111,28215,6,0,P|245:69|159:82,1,191.999994140625
77,193,28702,1,0,0:0:0:0:
259,284,28864,5,0,0:0:0:0:
402,193,29026,1,0,0:0:0:0:
186,135,29188,1,0,0:0:0:0:
326,53,29350,1,0,0:0:0:0:
259,284,29512,1,0,0:0:0:0:
259,284,29837,5,0,0:0:0:0:
326,53,29999,1,0,0:0:0:0:
186,135,30161,1,0,0:0:0:0:
400,192,30323,1,0,0:0:0:0:
290,169,30485,5,0,0:0:0:0:
290,169,30648,1,0,0:0:0:0:
192,85,30810,2,0,P|114:126|90:195,1,160
187,190,31296,2,0,P|165:244|173:284,1,80
294,324,31621,1,0,0:0:0:0:
414,174,31783,1,0,0:0:0:0:
283,51,31945,1,0,0:0:0:0:
186,188,32107,2,0,P|99:199|69:269,1,160
329,290,32594,6,8,L|378:305,1,40
298,93,32918,2,8,L|340:80,1,40
418,71,33080,5,0,0:0:0:0:
143,81,33242,1,0,0:0:0:0:
378,217,33404,1,0,0:0:0:0:
299,93,33567,1,0,0:0:0:0:
181,263,33729,1,0,0:0:0:0:
50,117,33891,1,0,0:0:0:0:
233,175,34053,1,0,0:0:0:0:
85,317,34215,1,0,0:0:0:0:
290,329,34377,2,0,P|372:300|413:235,1,160
301,125,35188,6,0,P|257:118|219:131,2,80
404,216,35675,1,0,0:0:0:0:
260,272,35999,6,0,P|196:280|164:268,1,80
132,184,36323,6,0,P|140:120|156:96,1,80
276,80,36648,5,0,0:0:0:0:
316,100,36729,1,0,0:0:0:0:
352,140,36810,1,0,0:0:0:0:
368,192,36891,1,0,0:0:0:0:
364,244,36972,1,0,0:0:0:0:
260,304,37134,2,0,P|216:312|168:296,1,80
120,204,37458,5,0,0:0:0:0:
112,160,37539,1,0,0:0:0:0:
108,108,37621,1,0,0:0:0:0:
208,96,37783,5,0,0:0:0:0:
216,144,37864,1,0,0:0:0:0:
224,196,37945,1,0,0:0:0:0:
324,184,38107,5,0,0:0:0:0:
316,136,38188,1,0,0:0:0:0:
308,88,38269,1,0,0:0:0:0:
416,76,38431,6,0,P|432:124|432:184,1,80
328,268,38756,6,4,L|340:312,1,40
140,104,39080,6,4,L|100:128,1,40
104,256,39404,6,0,P|156:288|204:304,1,80
348,280,39891,1,0,0:0:0:0:
224,144,40053,1,0,0:0:0:0:
432,120,40215,1,0,0:0:0:0:
136,108,40377,6,0,L|104:84,2,40
224,284,40702,6,0,L|220:328,2,40
224,144,41026,5,0,0:0:0:0:
356,100,41188,2,0,P|388:144|396:188,1,80
352,288,41512,2,0,P|264:296|192:280,1,160
100,212,41999,1,0,0:0:0:0:
184,120,42161,2,0,P|224:104|264:100,1,80
360,180,42485,2,0,P|272:184|212:232,2,160
416,320,43458,5,0,0:0:0:0:
304,144,43621,1,0,0:0:0:0:
216,332,43783,1,0,0:0:0:0:
372,224,43945,1,0,0:0:0:0:
216,92,44107,1,0,0:0:0:0:
156,272,44269,1,0,0:0:0:0:
304,144,44431,1,0,0:0:0:0:
124,80,44594,1,0,0:0:0:0:
80,248,44756,2,0,P|140:316|228:328,2,160
100,148,45567,5,0,0:0:0:0:
204,100,45729,1,0,0:0:0:0:
312,112,45891,1,0,0:0:0:0:
388,200,46053,2,0,P|388:244|364:280,1,80
208,232,46377,6,0,L|176:312,1,80
320,128,46702,6,0,L|396:76,1,80
140,116,47026,6,0,L|60:64,1,80
324,244,47350,6,0,L|392:304,1,80
116,220,47675,5,0,0:0:0:0:
116,220,47837,1,0,0:0:0:0:
344,88,47999,5,0,0:0:0:0:
344,88,48161,1,0,0:0:0:0:
360,320,48323,5,0,0:0:0:0:
360,320,48485,1,0,0:0:0:0:
120,168,48648,6,0,P|164:124|192:116,1,80
292,264,48972,1,0,0:0:0:0:
360,108,49134,6,0,P|388:140|396:184,1,80
164,224,49458,1,0,0:0:0:0:
416,280,49621,6,0,P|392:320|360:340,1,80
252,156,49945,1,0,0:0:0:0:
112,88,50107,1,0,0:0:0:0:
124,248,50269,1,0,0:0:0:0:
252,156,50431,1,0,0:0:0:0:
384,128,50594,2,0,L|448:100,2,40
328,264,50918,2,0,L|368:296,2,40
236,128,51242,6,0,P|172:156|136:220,1,120.000004577637
216,292,51729,2,0,P|272:312|336:304,1,120.000004577637
288,200,52377,5,0,0:0:0:0:
132,164,52539,2,0,P|184:104|224:88,1,120.000004577637
368,124,53026,2,0,P|392:216|380:260,1,120.000004577637
236,124,53837,6,0,P|172:148|152:208,1,120.000004577637
232,272,54323,2,0,P|252:228|312:188,1,120.000004577637
404,288,54972,5,0,0:0:0:0:
352,120,55134,1,0,0:0:0:0:
196,124,55296,2,0,P|144:144|124:168,2,60.0000022888184
272,108,55783,2,0,P|344:120|392:176,1,150.000005722046
336,300,56431,5,0,0:0:0:0:
156,288,56594,2,0,L|120:304,2,40
280,172,56918,1,0,0:0:0:0:
144,96,57080,1,0,0:0:0:0:
360,84,57242,6,0,L|404:68,2,40
176,208,57567,1,0,0:0:0:0:
332,300,57729,1,0,0:0:0:0:
120,312,57891,2,0,L|80:328,2,40
256,192,58215,5,0,0:0:0:0:
256,192,58296,1,0,0:0:0:0:
256,192,58377,1,0,0:0:0:0:
156,120,58539,6,0,L|124:88,2,40
256,192,58864,1,0,0:0:0:0:
256,192,58945,1,0,0:0:0:0:
256,192,59026,1,0,0:0:0:0:
376,120,59188,6,0,L|408:88,2,40
256,192,59512,5,0,0:0:0:0:
256,192,59594,1,0,0:0:0:0:
256,192,59675,1,0,0:0:0:0:
96,272,59999,1,0,0:0:0:0:
360,124,60161,1,0,0:0:0:0:
132,104,60323,1,0,0:0:0:0:
384,264,60485,1,0,0:0:0:0:
216,336,60648,1,0,0:0:0:0:
256,72,60810,1,0,0:0:0:0:
232,208,61134,1,0,0:0:0:0:
128,136,61621,6,8,L|188:68,1,80
332,132,61945,6,8,L|372:216,1,80
224,280,62269,6,8,L|140:312,1,80
228,104,62594,6,8,L|316:72,1,80
336,240,62918,6,8,L|284:316,1,80
132,256,63242,6,8,L|76:192,1,80
216,116,63567,6,0,L|280:84,2,40
328,268,63891,2,0,L|288:296,2,40
344,136,64215,6,0,P|224:96|136:164,1,240.000009155274
248,188,65188,1,0,0:0:0:0:
152,248,65512,6,0,P|272:288|359:220,1,240.000009155274
248,188,66485,1,0,0:0:0:0:
172,304,66810,5,0,0:0:0:0:
344,144,66972,1,0,0:0:0:0:
120,104,67134,1,0,0:0:0:0:
288,280,67296,1,0,0:0:0:0:
280,76,67458,1,0,0:0:0:0:
148,300,67621,1,0,0:0:0:0:
408,128,67783,1,0,0:0:0:0:
396,340,67945,1,0,0:0:0:0:
208,52,68107,1,0,0:0:0:0:
60,248,68269,1,0,0:0:0:0:
404,212,68431,5,0,0:0:0:0:
120,56,68594,1,0,0:0:0:0:
