osu file format v14

[General]
AudioFilename: audio.mp3
AudioLeadIn: 0
PreviewTime: 54072
Countdown: 0
SampleSet: Soft
StackLeniency: 0.4
Mode: 0
LetterboxInBreaks: 0
WidescreenStoryboard: 0

[Editor]
Bookmarks: 285,20284,34830,54223,70586,85132,104525,119070,133615,148161,162706
DistanceSpacing: 0.7
BeatDivisor: 4
GridSize: 16
TimelineZoom: 1.9

[Metadata]
Title:Kimi ga Sora Koso Kanashikere
TitleUnicode:君ガ空コソカナシケレ
Artist:CHiCO with HoneyWorks
ArtistUnicode:CHiCO with HoneyWorks
Creator:Serizawa Haruki
Version:Xenon's Extra
Source:
Tags:ハニーワークス ハニワ 世界はiに満ちている Sekai wa Ai ni Michiteiru 兎眠りおん Tone Rion 初音ミク Hatsune Miku ボーカロイド Vocaloid ゴム Gom フェルナンドP Fernando-P シト shito チョリスP Chorisu-P オジ Oji 海賊王 Kaizoku Ou Japanese Rock J-rock Jrock Jack J_a_c_k Cris- Kowari Akitoshi -Laura- Corinn Seolv [_L_u_k_a_s] Lukas William K William_K Taeyang Xen Xehn Xenon- Agatsu Elcheer
BeatmapID:2113440
BeatmapSetID:940746

[Difficulty]
HPDrainRate:6
CircleSize:4.2
OverallDifficulty:9
ApproachRate:9.3
SliderMultiplier:1
SliderTickRate:1

[Events]
//Background and Video events
0,0,"bg.jpg",0,0
//Break Periods
2,148361,154880
//Storyboard Layer 0 (Background)
//Storyboard Layer 1 (Fail)
//Storyboard Layer 2 (Pass)
//Storyboard Layer 3 (Foreground)
//Storyboard Layer 4 (Overlay)
//Storyboard Sound Samples

[TimingPoints]
285,303.030303030303,3,2,1,40,1,0
285,-142.857142857143,4,2,1,40,0,0
2103,-111.111111111111,4,2,1,40,0,0
3315,-111.111111111111,4,2,1,60,0,0
3921,-55.5555555555556,4,2,1,70,0,0
4754,-55.5555555555556,4,2,1,5,0,0
4830,-55.5555555555556,4,2,1,70,0,0
7784,-55.5555555555556,4,2,1,5,0,0
7860,-55.5555555555556,4,2,1,70,0,0
10285,-38.4615384615385,4,2,1,70,0,0
10512,-38.4615384615385,4,2,1,5,0,0
10588,-55.5555555555556,4,2,1,70,0,0
12027,-55.5555555555556,4,2,1,5,0,0
12103,-55.5555555555556,4,2,1,70,0,0
18466,-55.5555555555556,4,2,1,60,0,0
20284,-76.9230769230769,4,2,1,50,0,0
20512,-76.9230769230769,4,2,1,5,0,0
20588,-76.9230769230769,4,2,1,50,0,0
23769,-66.6666666666667,4,2,1,50,0,0
23921,-76.9230769230769,4,2,1,50,0,0
24148,-76.9230769230769,4,2,1,5,0,0
24224,-76.9230769230769,4,2,1,50,0,0
26648,-62.5,4,2,1,60,0,0
30209,-62.5,4,2,1,5,0,0
30285,-62.5,4,2,1,60,0,0
34148,-62.5,4,2,1,5,0,0
34224,-62.5,4,2,1,60,0,0
34830,303.030303030303,4,2,1,60,1,0
34830,-62.5,4,2,1,60,0,0
35663,-62.5,4,2,1,5,0,0
35739,-62.5,4,2,1,60,0,0
36875,-62.5,4,2,1,5,0,0
36951,-62.5,4,2,1,60,0,0
41420,-62.5,4,2,1,5,0,0
41496,-62.5,4,2,1,60,0,0
42936,-62.5,4,2,1,5,0,0
43012,-62.5,4,2,1,60,0,0
44754,-62.5,4,2,1,5,0,0
44830,-62.5,4,2,1,60,0,0
46572,-62.5,4,2,1,5,0,0
46648,-62.5,4,2,1,60,0,0
49602,-62.5,4,2,1,5,0,0
49678,-62.5,4,2,1,60,0,0
51723,-62.5,4,2,1,5,0,0
51799,-62.5,4,2,1,60,0,0
53011,-35.7142857142857,4,2,1,70,0,0
53087,-35.7142857142857,4,2,1,5,0,0
53163,-35.7142857142857,4,2,1,70,0,0
53239,-35.7142857142857,4,2,1,5,0,0
53314,-35.7142857142857,4,2,1,70,0,0
53390,-35.7142857142857,4,2,1,5,0,0
53466,-35.7142857142857,4,2,1,70,0,0
53542,-35.7142857142857,4,2,1,5,0,0
53617,-35.7142857142857,4,2,1,70,0,0
54223,303.030303030303,3,2,1,80,1,1
54223,-50,4,2,1,80,0,1
54753,-50,4,2,1,5,0,1
54829,-50,4,2,1,80,0,1
55965,-50,4,2,1,5,0,1
56041,-50,4,2,1,80,0,1
56571,-50,4,2,1,5,0,1
56647,-50,4,2,1,80,0,1
58086,-50,4,2,1,5,0,1
58162,-50,4,2,1,80,0,1
62026,-50,4,2,1,5,0,1
62102,-50,4,2,1,80,0,1
65359,-50,4,2,1,5,0,1
65435,-50,4,2,1,80,0,1
65965,-50,4,2,1,5,0,1
66041,-50,4,2,1,80,0,1
66950,-31.25,4,2,1,80,0,1
67026,-31.25,4,2,1,5,0,1
67101,-34.4827586206897,4,2,1,80,0,1
67177,-34.4827586206897,4,2,1,5,0,1
67253,-29.4117647058824,4,2,1,80,0,1
67329,-29.4117647058824,4,2,1,5,0,1
67404,-32.258064516129,4,2,1,80,0,1
67480,-32.258064516129,4,2,1,5,0,1
67556,-55.5555555555556,4,2,1,80,0,1
67783,-55.5555555555556,4,2,1,5,0,1
67859,-76.9230769230769,4,2,1,80,0,1
68768,-100,4,2,1,60,0,0
69677,-76.9230769230769,4,2,1,60,0,0
70586,-76.9230769230769,4,2,1,50,0,0
71116,-76.9230769230769,4,2,1,5,0,0
71192,-76.9230769230769,4,2,1,50,0,0
74753,-76.9230769230769,4,2,1,5,0,0
74829,-76.9230769230769,4,2,1,50,0,0
76950,-62.5,4,2,1,60,0,0
85132,303.030303030303,4,2,1,60,1,0
85132,-62.5,4,2,1,60,0,0
86268,-62.5,4,2,1,5,0,0
86344,-62.5,4,2,1,60,0,0
88389,-62.5,4,2,1,5,0,0
88465,-62.5,4,2,1,60,0,0
91116,-62.5,4,2,1,5,0,0
91192,-62.5,4,2,1,60,0,0
93238,-62.5,4,2,1,5,0,0
93314,-62.5,4,2,1,60,0,0
95056,-62.5,4,2,1,5,0,0
95132,-62.5,4,2,1,60,0,0
98086,-62.5,4,2,1,5,0,0
98162,-62.5,4,2,1,60,0,0
99904,-62.5,4,2,1,5,0,0
99980,-62.5,4,2,1,60,0,0
103313,-62.5,4,2,1,70,0,0
104525,303.030303030303,3,2,1,80,1,1
104525,-50,4,2,1,80,0,1
106873,-50,4,2,1,5,0,1
106949,-50,4,2,1,80,0,1
108388,-50,4,2,1,5,0,1
108464,-50,4,2,1,80,0,1
112328,-50,4,2,1,5,0,1
112404,-50,4,2,1,80,0,1
115661,-50,4,2,1,5,0,1
115737,-50,4,2,1,80,0,1
116267,-50,4,2,1,5,0,1
116343,-50,4,2,1,80,0,1
117479,-50,4,2,1,5,0,1
117555,-50,4,2,1,80,0,1
119070,-76.9230769230769,4,2,1,50,0,0
126570,-76.9230769230769,4,2,1,5,0,0
126646,-76.9230769230769,4,2,1,50,0,0
127479,-76.9230769230769,4,2,1,5,0,0
127555,-76.9230769230769,4,2,1,50,0,0
129979,-62.5,4,2,1,60,0,0
130206,-62.5,4,2,1,5,0,0
130282,-62.5,4,2,1,60,0,0
133615,-55.5555555555556,4,2,1,70,0,0
134449,-55.5555555555556,4,2,1,5,0,0
134525,-55.5555555555556,4,2,1,70,0,0
141418,-55.5555555555556,4,2,1,5,0,0
141494,-55.5555555555556,4,2,1,70,0,0
144449,-55.5555555555556,4,2,1,5,0,0
144525,-55.5555555555556,4,2,1,70,0,0
146570,-55.5555555555556,4,2,1,5,0,0
146646,-55.5555555555556,4,2,1,70,0,0
155434,-100,4,2,2,50,0,0
155964,-100,4,2,2,5,0,0
156040,-100,4,2,2,50,0,0
157782,-100,4,2,2,5,0,0
157858,-100,4,2,2,50,0,0
159600,-100,4,2,2,5,0,0
159676,-100,4,2,2,50,0,0
160888,-76.9230769230769,4,2,2,60,0,0
162100,-45.4545454545455,4,2,2,60,0,0
162706,-43.4782608695652,4,2,1,80,0,1
163843,-43.4782608695652,4,2,1,5,0,1
163918,-43.4782608695652,4,2,1,80,0,1
164752,-43.4782608695652,4,2,1,5,0,1
164827,-43.4782608695652,4,2,1,80,0,1
166570,-43.4782608695652,4,2,1,5,0,1
166645,-43.4782608695652,4,2,1,80,0,1
167479,-43.4782608695652,4,2,1,5,0,1
167554,-43.4782608695652,4,2,1,80,0,1
168843,-43.4782608695652,4,2,1,5,0,1
168918,-43.4782608695652,4,2,1,80,0,1
169297,-43.4782608695652,4,2,1,5,0,1
169372,-43.4782608695652,4,2,1,80,0,1
173540,-43.4782608695652,4,2,1,5,0,1
173615,-43.4782608695652,4,2,1,80,0,1
175434,-43.4782608695652,4,2,2,30,0,0
178161,-43.4782608695652,4,2,1,70,0,0
178994,-43.4782608695652,4,2,1,5,0,0
179069,-43.4782608695652,4,2,1,70,0,0
185131,-55.5555555555556,4,2,1,70,0,0
185434,-55.5555555555556,4,2,2,30,0,0

[Colours]
Combo1 : 185,132,251
Combo2 : 255,181,43
Combo3 : 64,159,255
Combo4 : 252,109,24

[HitObjects]
125,162,285,6,0,L|116:90,2,69.9999978637695,2|8|8,0:0|3:2|3:2,0:0:0:0:
208,21,1194,2,0,L|199:90,2,69.9999978637695,2|8|8,0:0|3:2|3:2,0:0:0:0:
340,127,2103,6,0,B|296:117|296:117|263:147,2,89.999997253418,2|8|8,0:0|3:2|3:2,0:0:0:0:
342,280,3012,5,8,0:0:0:0:
321,203,3163,1,2,0:0:0:0:
423,119,3315,5,8,3:2:0:0:
397,221,3466,1,2,3:2:0:0:
499,247,3618,1,8,3:2:0:0:
493,235,3921,6,0,P|488:285|485:339,1,89.999997253418,12|0,0:0|0:0,0:0:0:0:
321,203,4224,2,0,P|318:158|314:113,1,89.999997253418,8|2,0:0|0:0,0:0:0:0:
408,282,4527,2,0,P|344:283|327:346,1,134.999995880127,8|0,0:0|0:0,0:0:0:0:
331,357,4830,6,0,B|293:332|293:332|250:345,1,89.999997253418,12|2,0:0|0:0,0:0:0:0:
198,166,5133,1,8,0:0:0:0:
206,180,5209,1,0,0:0:0:0:
205,195,5284,1,2,0:0:0:0:
150,255,5436,1,8,0:0:0:0:
142,245,5739,5,12,0:0:0:0:
260,261,5891,1,2,0:0:0:0:
340,270,6042,2,0,P|385:273|430:277,1,89.999997253418,8|2,0:0|0:0,0:0:0:0:
512,186,6345,2,0,B|469:173|469:173|431:198,1,89.999997253418,8|2,0:0|0:0,0:0:0:0:
341,351,6648,5,12,0:0:0:0:
352,192,6800,1,2,0:0:0:0:
193,181,6951,1,12,0:0:0:0:
182,340,7103,1,2,0:0:0:0:
259,236,7254,5,12,0:0:0:0:
205,174,7406,1,2,0:0:0:0:
102,362,7557,6,0,P|97:294|91:227,1,134.999995880127,12|0,0:0|0:0,0:0:0:0:
83,218,7860,1,8,0:0:0:0:
18,267,8012,1,2,0:0:0:0:
55,140,8163,2,0,B|98:127|98:127|136:152,1,89.999997253418,8|2,0:0|0:0,0:0:0:0:
268,80,8466,6,0,B|225:67|225:67|187:92,1,89.999997253418,12|2,0:0|0:0,0:0:0:0:
289,242,8769,1,8,0:0:0:0:
297,228,8845,1,0,0:0:0:0:
296,213,8921,1,2,0:0:0:0:
241,153,9072,1,8,0:0:0:0:
231,161,9375,5,12,0:0:0:0:
208,82,9527,1,2,0:0:0:0:
377,13,9678,5,8,0:0:0:0:
354,92,9830,1,2,0:0:0:0:
220,171,9981,5,8,0:0:0:0:
249,273,10133,1,2,0:0:0:0:
422,348,10285,6,0,P|324:354|226:363,1,194.999991073609,12|0,0:0|0:0,0:0:0:0:
215,355,10588,1,2,3:2:0:0:
132,271,10739,1,0,3:0:0:0:
282,215,10891,1,0,3:0:0:0:
109,128,11042,1,0,3:0:0:0:
349,75,11194,5,12,0:0:0:0:
382,148,11345,1,0,0:0:0:0:
268,117,11497,2,0,P|270:74|275:27,1,89.999997253418,8|2,0:0|0:0,0:0:0:0:
373,155,11800,2,0,P|379:222|383:289,1,134.999995880127,8|0,0:0|0:0,0:0:0:0:
378,302,12103,5,12,0:0:0:0:
306,265,12254,1,2,0:0:0:0:
206,354,12406,1,8,0:0:0:0:
220,362,12481,1,0,0:0:0:0:
235,361,12557,1,2,0:0:0:0:
225,280,12709,2,0,B|182:267|182:267|144:292,1,89.999997253418,8|2,0:0|0:0,0:0:0:0:
22,174,13012,5,12,0:0:0:0:
146,197,13163,1,2,0:0:0:0:
30,182,13315,2,0,P|27:139|23:92,1,89.999997253418,8|2,0:0|0:0,0:0:0:0:
137,287,13618,2,0,P|132:331|130:376,1,89.999997253418,8|2,0:0|0:0,0:0:0:0:
208,356,13921,5,12,0:0:0:0:
353,336,14072,1,2,0:0:0:0:
486,249,14224,5,12,0:0:0:0:
316,228,14375,1,12,0:0:0:0:
146,207,14527,1,12,0:0:0:0:
137,287,14678,1,2,0:0:0:0:
212,160,14830,5,12,0:0:0:0:
203,80,14981,1,2,0:0:0:0:
129,0,15133,2,0,P|124:44|122:89,1,89.999997253418,8|2,0:0|0:0,0:0:0:0:
30,226,15436,2,0,P|37:158|40:91,1,134.999995880127,8|2,0:0|0:0,0:0:0:0:
33,80,15739,5,12,0:0:0:0:
115,167,15891,1,2,0:0:0:0:
202,85,16042,1,8,0:0:0:0:
216,77,16118,1,0,0:0:0:0:
231,78,16194,1,2,0:0:0:0:
305,108,16345,2,0,B|318:65|318:65|293:27,1,89.999997253418,8|2,0:0|0:0,0:0:0:0:
247,164,16648,5,12,0:0:0:0:
268,242,16800,1,2,0:0:0:0:
120,335,16951,5,8,0:0:0:0:
141,257,17103,1,2,0:0:0:0:
326,182,17254,5,8,0:0:0:0:
353,283,17406,1,2,0:0:0:0:
478,69,17557,5,12,0:0:0:0:
317,107,17709,1,2,0:0:0:0:
201,57,17860,5,12,0:0:0:0:
390,135,18012,1,2,0:0:0:0:
326,182,18163,2,0,P|331:226|333:271,1,89.999997253418,12|0,0:0|0:0,0:0:0:0:
256,252,18466,5,2,3:2:0:0:
249,262,18769,1,8,3:2:0:0:
171,278,18921,1,2,3:2:0:0:
93,294,19072,1,8,3:2:0:0:
29,157,19375,5,2,3:2:0:0:
36,167,19678,1,8,3:2:0:0:
114,183,19830,1,2,3:2:0:0:
192,199,19981,1,8,3:2:0:0:
122,173,20133,1,2,3:2:0:0:
259,72,20284,6,0,P|261:121|266:169,1,97.4999955368043,6|0,3:2|0:0,0:0:0:0:
273,181,20588,2,0,L|344:189,1,64.9999970245362,2|2,0:0|0:3,0:0:0:0:
180,86,20891,2,0,L|108:94,1,64.9999970245362,2|0,0:0|0:0,0:0:0:0:
0,211,21194,6,0,B|78:220|39:166|118:176,2,129.999994049072,2|2|2,3:2|0:0|0:0,0:0:0:0:
253,310,22103,6,0,B|223:324|223:324|192:317,1,64.9999970245362,2|2,3:2|0:3,0:0:0:0:
178,237,22406,2,0,B|207:222|207:222|238:229,1,64.9999970245362,2|2,0:0|0:3,0:0:0:0:
316,255,22709,1,2,0:0:0:0:
322,267,23012,6,0,P|324:220|329:169,1,97.4999955368043,2|2,3:2|0:3,0:0:0:0:
338,161,23315,1,2,0:0:0:0:
263,90,23466,1,2,0:3:0:0:
271,104,23542,1,2,0:3:0:0:
270,119,23618,1,2,0:0:0:0:
195,141,23769,2,0,P|186:120|189:87,1,37.5000014305115,2|2,0:3|0:3,0:0:0:0:
102,189,23921,6,0,P|146:203|160:248,1,97.4999955368043,2|0,3:2|0:0,0:0:0:0:
168,259,24224,2,0,L|160:330,1,64.9999970245362,2|2,0:0|0:3,0:0:0:0:
22,209,24527,2,0,L|29:144,1,64.9999970245362,2|2,0:0|0:3,0:0:0:0:
187,46,24830,6,0,P|125:51|106:109,2,129.999994049072,2|2|2,3:2|0:0|0:0,0:0:0:0:
254,279,25739,6,0,P|274:254|278:222,1,64.9999970245362,2|0,3:2|0:0,0:0:0:0:
134,229,26042,2,0,P|144:259|170:278,1,64.9999970245362,2|2,0:0|0:3,0:0:0:0:
237,151,26345,2,0,P|205:145|175:157,1,64.9999970245362,2|2,0:0|0:3,0:0:0:0:
254,279,26648,6,0,P|293:280|333:285,1,79.9999999999999,2|8,3:2|3:2,0:0:0:0:
352,279,26875,1,8,3:2:0:0:
352,279,26951,1,2,3:2:0:0:
333,201,27103,1,8,3:2:0:0:
461,179,27254,1,2,3:2:0:0:
480,257,27406,1,8,3:2:0:0:
416,374,27557,6,0,B|379:355|379:355|340:363,1,79.9999999999999,6|8,0:0|0:0,0:0:0:0:
329,357,27784,1,8,0:0:0:0:
329,357,27860,2,0,P|327:317|322:277,1,79.9999999999999,0|2,3:0|3:2,0:0:0:0:
208,189,28163,1,0,3:0:0:0:
243,261,28315,1,0,3:0:0:0:
199,179,28466,5,6,0:0:0:0:
164,107,28618,1,8,0:0:0:0:
163,92,28694,1,8,0:0:0:0:
171,78,28769,2,0,P|131:82|91:84,1,79.9999999999999,2|2,3:2|3:2,0:0:0:0:
264,134,29072,2,0,P|303:138|343:140,1,79.9999999999999,0|0,3:0|3:0,0:0:0:0:
249,52,29375,5,6,0:0:0:0:
187,158,29527,1,8,0:0:0:0:
186,173,29603,1,8,0:0:0:0:
194,187,29678,2,0,B|175:224|175:224|183:263,1,79.9999999999999,0|2,3:0|3:2,0:0:0:0:
102,347,29981,2,0,P|162:340|225:337,1,120,2|0,3:2|0:0,0:0:0:0:
230,347,30284,5,6,0:0:0:0:
282,286,30436,1,8,0:0:0:0:
274,272,30512,1,8,0:0:0:0:
275,257,30588,1,0,3:0:0:0:
309,115,30739,1,0,3:0:0:0:
423,115,30891,5,2,3:2:0:0:
251,178,31042,1,2,3:2:0:0:
177,209,31194,5,6,0:0:0:0:
210,76,31345,1,0,0:0:0:0:
218,62,31421,1,8,0:0:0:0:
217,47,31497,2,0,P|178:48|138:53,1,79.9999999999999,2|2,3:2|3:2,0:0:0:0:
80,181,31800,2,0,B|61:144|61:144|68:106,1,79.9999999999999,0|0,3:0|3:0,0:0:0:0:
149,134,32103,5,6,0:0:0:0:
205,189,32254,1,8,0:0:0:0:
197,203,32330,1,8,0:0:0:0:
198,218,32406,1,2,3:2:0:0:
210,74,32557,1,2,3:2:0:0:
350,23,32709,1,0,3:0:0:0:
338,167,32860,1,0,3:0:0:0:
286,105,33012,5,6,0:0:0:0:
415,139,33163,1,8,0:0:0:0:
423,153,33239,1,8,0:0:0:0:
422,168,33315,1,0,3:0:0:0:
388,239,33466,1,2,3:2:0:0:
461,367,33618,2,0,P|460:328|455:288,1,79.9999999999999,0|2,3:0|3:2,0:0:0:0:
294,177,33921,6,0,P|351:179|377:229,1,120,2|0,3:2|0:0,0:0:0:0:
387,239,34224,1,2,3:2:0:0:
314,271,34375,1,0,3:0:0:0:
346,344,34527,1,0,3:0:0:0:
419,312,34678,1,0,3:0:0:0:
304,263,34830,6,0,B|206:244|255:317|158:299,1,160,6|8,0:0|0:0,0:0:0:0:
86,214,35284,1,2,0:0:0:0:
94,228,35360,1,8,0:0:0:0:
92,243,35436,2,0,P|94:183|101:122,1,120,2|0,0:0|0:0,0:0:0:0:
114,118,35739,2,0,P|74:123|34:124,1,79.9999999999999,8|0,0:0|0:0,0:0:0:0:
287,172,36042,5,2,0:0:0:0:
333,107,36193,1,2,0:0:0:0:
397,8,36345,1,8,0:0:0:0:
389,17,36648,2,0,P|445:29|462:83,1,120,2|0,0:0|0:0,0:0:0:0:
453,95,36951,2,0,P|458:134|459:174,1,79.9999999999999,8|0,0:0|0:0,0:0:0:0:
319,220,37254,6,0,B|356:239|356:239|394:232,1,79.9999999999999,2|2,0:0|0:0,0:0:0:0:
316,206,37557,1,8,0:0:0:0:
349,347,37708,1,2,0:0:0:0:
350,332,37784,1,8,0:0:0:0:
342,318,37860,2,0,P|263:320|182:330,1,160,2|8,0:0|0:0,0:0:0:0:
127,272,38314,1,2,0:3:0:0:
59,155,38466,5,2,0:0:0:0:
152,100,38617,1,2,0:0:0:0:
51,233,38769,1,8,0:0:0:0:
182,330,38920,1,2,0:3:0:0:
191,343,38996,1,2,0:3:0:0:
192,359,39072,5,2,0:0:0:0:
224,222,39223,1,2,0:0:0:0:
243,144,39375,1,12,0:0:0:0:
237,134,39678,6,0,P|158:136|77:146,1,160,6|8,0:0|0:0,0:0:0:0:
146,249,40133,1,2,0:0:0:0:
155,236,40208,1,8,0:0:0:0:
156,220,40284,2,0,P|233:233|246:322,1,160,2|8,0:0|0:0,0:0:0:0:
176,326,40739,1,0,0:0:0:0:
336,302,40890,5,2,0:0:0:0:
299,373,41042,1,2,0:0:0:0:
419,291,41193,2,0,P|411:231|410:171,1,120,8|0,0:0|0:0,0:0:0:0:
418,162,41496,2,0,B|455:154|455:154|492:173,1,79.9999999999999,2|2,0:0|0:3,0:0:0:0:
330,245,41799,2,0,B|292:237|292:237|255:256,1,79.9999999999999,8|0,0:0|0:0,0:0:0:0:
108,241,42102,5,2,0:0:0:0:
87,318,42254,1,2,0:0:0:0:
227,343,42405,1,8,0:0:0:0:
248,266,42557,1,2,0:0:0:0:
189,211,42708,2,0,P|196:151|197:91,1,120,2|0,0:0|0:0,0:0:0:0:
190,82,43011,2,0,B|152:74|152:74|115:93,1,79.9999999999999,12|2,0:0|0:3,0:0:0:0:
275,181,43314,5,2,3:2:0:0:
114,174,43466,1,8,3:2:0:0:
280,193,43617,1,8,3:2:0:0:
446,212,43769,1,8,3:2:0:0:
509,254,43920,2,0,P|435:251|416:323,1,160,2|0,3:2|3:0,0:0:0:0:
167,50,44526,6,0,P|220:47|243:127,1,120,6|0,0:0|0:0,0:0:0:0:
261,110,44830,1,8,0:0:0:0:
196,200,44981,1,2,0:0:0:0:
197,184,45057,1,8,0:0:0:0:
206,171,45133,2,0,P|166:172|126:177,1,79.9999999999999,2|2,0:0|0:3,0:0:0:0:
246,269,45436,2,0,P|285:270|326:275,1,79.9999999999999,8|0,0:0|0:0,0:0:0:0:
293,348,45739,5,2,0:0:0:0:
284,192,45890,1,2,0:0:0:0:
356,157,46042,1,8,0:0:0:0:
238,260,46193,1,2,0:0:0:0:
167,219,46345,2,0,B|111:202|111:202|73:248,1,120,2|0,0:0|0:0,0:0:0:0:
70,259,46648,1,8,0:0:0:0:
369,369,46951,5,2,0:0:0:0:
275,333,47102,1,2,0:0:0:0:
361,381,47254,2,0,P|365:341|366:301,1,79.9999999999999,8|2,0:0|0:0,0:0:0:0:
498,258,47557,2,0,B|400:269|449:201|350:214,1,160,2|8,0:0|0:0,0:0:0:0:
290,164,48011,1,2,0:3:0:0:
212,322,48163,6,0,B|249:314|249:314|286:333,1,79.9999999999999,2|2,0:0|0:0,0:0:0:0:
212,183,48466,2,0,B|174:175|174:175|137:194,1,79.9999999999999,8|2,0:0|0:3,0:0:0:0:
36,112,48769,1,2,0:0:0:0:
56,189,48920,1,2,0:0:0:0:
25,102,49072,1,12,0:0:0:0:
45,25,49223,1,2,0:3:0:0:
238,65,49375,6,0,P|178:66|117:74,1,120,6|0,0:0|0:0,0:0:0:0:
111,82,49678,1,8,0:0:0:0:
190,177,49830,1,2,0:0:0:0:
199,164,49905,1,8,0:0:0:0:
200,148,49981,2,0,B|296:135|248:203|345:191,1,160,2|8,0:0|0:0,0:0:0:0:
399,133,50436,1,0,0:0:0:0:
389,264,50587,5,2,0:0:0:0:
468,272,50739,1,2,0:0:0:0:
366,343,50890,1,8,0:0:0:0:
287,351,51042,1,2,0:0:0:0:
173,267,51193,2,0,B|210:259|210:259|247:278,1,79.9999999999999,2|2,0:0|0:3,0:0:0:0:
96,338,51496,2,0,P|94:278|87:217,1,120,12|0,0:0|0:0,0:0:0:0:
78,210,51799,5,2,0:0:0:0:
173,172,51951,1,2,0:0:0:0:
277,250,52102,1,8,0:0:0:0:
385,165,52254,1,2,0:0:0:0:
449,213,52405,1,2,0:0:0:0:
458,204,52708,5,12,0:0:0:0:
506,140,52860,1,0,0:0:0:0:
400,271,53011,6,0,B|366:266|366:266|364:268|364:268|331:263,1,69.9999978637695,2|0,3:2|0:0,0:0:0:0:
225,251,53163,6,0,B|191:246|191:246|189:248|189:248|156:243,1,69.9999978637695,8|0,3:2|0:0,0:0:0:0:
6,97,53314,6,0,B|39:92|39:92|41:94|41:94|74:89,1,69.9999978637695,8|0,3:2|0:0,0:0:0:0:
181,77,53466,6,0,B|214:72|214:72|216:74|216:74|249:69,1,69.9999978637695,8|0,3:2|0:0,0:0:0:0:
261,78,53617,5,8,3:2:0:0:
282,153,53769,1,2,3:2:0:0:
303,228,53920,1,0,3:0:0:0:
295,237,54223,5,12,0:0:0:0:
470,274,54374,1,0,0:0:0:0:
433,344,54526,2,0,P|424:270|421:195,1,150,8|0,0:0|0:0,0:0:0:0:
428,185,54829,1,8,0:0:0:0:
339,83,54980,1,2,0:0:0:0:
401,33,55132,5,12,0:0:0:0:
332,71,55283,1,0,0:0:0:0:
242,120,55435,2,0,P|247:70|249:20,1,99.9999999999999,8|2,0:0|0:0,0:0:0:0:
39,137,55738,2,0,B|129:126|84:189|175:177,1,150,8|0,0:0|0:0,0:0:0:0:
189,187,56041,6,0,B|197:236|197:236|167:276,1,99.9999999999999,12|0,0:0|0:0,0:0:0:0:
45,349,56344,2,0,P|119:351|194:360,1,150,8|0,0:0|0:0,0:0:0:0:
205,353,56647,1,8,0:0:0:0:
329,262,56798,1,2,0:0:0:0:
337,279,56874,1,2,0:0:0:0:
335,297,56950,5,12,0:0:0:0:
186,270,57101,1,2,0:0:0:0:
131,142,57253,5,12,0:0:0:0:
18,165,57404,1,2,0:0:0:0:
188,28,57556,5,12,0:0:0:0:
265,44,57707,1,2,0:0:0:0:
401,75,57859,6,0,P|327:77|252:86,1,150,12|0,0:0|0:0,0:0:0:0:
244,98,58162,1,8,0:0:0:0:
277,228,58313,1,2,0:0:0:0:
295,154,58465,1,8,0:0:0:0:
219,174,58616,1,2,0:0:0:0:
94,246,58768,6,0,P|181:248|210:350,1,200,12|8,0:0|0:0,0:0:0:0:
133,351,59223,1,2,0:0:0:0:
96,234,59374,2,0,B|47:226|47:226|7:256,1,99.9999999999999,8|2,0:0|0:0,0:0:0:0:
174,31,59677,5,12,0:0:0:0:
187,109,59829,1,2,0:0:0:0:
314,168,59980,5,8,0:0:0:0:
330,66,60132,1,2,0:0:0:0:
252,55,60283,5,8,0:0:0:0:
391,201,60435,1,2,0:0:0:0:
393,219,60510,1,2,0:0:0:0:
385,236,60586,6,0,B|434:228|434:228|474:258,1,99.9999999999999,12|2,0:0|0:0,0:0:0:0:
253,349,60889,1,12,0:0:0:0:
221,238,61041,1,12,0:0:0:0:
179,93,61192,1,12,0:0:0:0:
174,172,61344,1,2,0:0:0:0:
389,242,61495,6,0,B|340:234|340:234|300:264,1,99.9999999999999,12|2,0:0|0:0,0:0:0:0:
476,310,61798,2,0,P|474:236|465:161,1,150,8|0,0:0|0:0,0:0:0:0:
455,151,62101,1,8,0:0:0:0:
336,42,62253,1,2,0:0:0:0:
300,112,62404,6,0,B|340:82|340:82|389:90,1,99.9999999999999,12|2,0:0|0:0,0:0:0:0:
224,169,62707,2,0,P|219:119|217:69,1,99.9999999999999,8|2,0:0|0:0,0:0:0:0:
472,38,63010,2,0,P|469:87|465:137,1,99.9999999999999,8|2,0:0|0:0,0:0:0:0:
509,280,63313,5,12,0:0:0:0:
369,245,63465,1,2,0:0:0:0:
294,333,63616,5,8,0:0:0:0:
154,368,63768,1,2,0:0:0:0:
281,140,63919,6,0,P|283:191|288:239,1,99.9999999999999,8|2,0:0|0:0,0:0:0:0:
282,253,64147,1,2,0:0:0:0:
282,253,64223,5,12,0:0:0:0:
326,74,64374,1,2,0:0:0:0:
175,0,64526,5,12,0:0:0:0:
201,129,64677,1,2,0:0:0:0:
369,221,64829,5,12,0:0:0:0:
350,309,64980,1,2,0:0:0:0:
114,380,65132,6,0,B|204:391|159:328|250:340,1,150,12|0,0:0|0:0,0:0:0:0:
264,330,65435,2,0,B|272:281|272:281|242:241,1,99.9999999999999,8|2,0:0|0:0,0:0:0:0:
403,108,65738,2,0,P|359:103|317:199,1,150,8|0,0:0|0:0,0:0:0:0:
322,193,66041,5,12,0:0:0:0:
177,337,66192,1,8,0:0:0:0:
175,319,66268,1,8,0:0:0:0:
183,302,66344,5,10,0:0:0:0:
377,331,66495,1,8,0:0:0:0:
96,200,66647,5,10,0:0:0:0:
290,171,66798,1,8,0:0:0:0:
81,357,66950,6,0,L|69:261,1,79.9999999999999,10|0,0:0|0:0,0:0:0:0:
9,226,67101,2,0,L|17:154,1,72.5000022125244,8|0,0:0|0:0,0:0:0:0:
176,27,67253,6,0,P|219:25|257:53,1,85.0000016212463,10|0,0:0|0:0,0:0:0:0:
331,24,67404,2,0,P|355:54|356:93,1,77.500000591278,8|0,0:0|0:0,0:0:0:0:
350,104,67556,6,0,B|431:94|390:150|472:140,1,134.999995880127,6|0,0:0|0:0,0:0:0:0:
483,130,67859,6,0,P|497:96|484:56,1,64.9999970245362,12|0,0:0|0:0,0:0:0:0:
305,176,68162,2,0,P|327:205|368:213,1,64.9999970245362,2|0,0:0|0:0,0:0:0:0:
355,0,68465,2,0,P|318:4|290:36,1,64.9999970245362,2|0,0:0|0:0,0:0:0:0:
483,130,68768,5,2,3:2:0:0:
474,120,69071,2,0,L|481:183,1,50,2|0,3:2|0:0,0:0:0:0:
394,133,69374,2,0,L|401:196,1,50,2|0,3:2|3:0,0:0:0:0:
292,234,69677,6,0,P|338:241|361:282,1,97.4999955368043,2|2,3:2|0:3,0:0:0:0:
371,292,69980,1,2,3:2:0:0:
219,191,70132,5,8,3:2:0:0:
249,96,70283,1,8,3:2:0:0:
154,66,70435,1,8,3:2:0:0:
41,143,70586,5,6,0:0:0:0:
49,155,70889,2,0,P|99:149|146:148,1,97.4999955368043,2|0,0:0|0:0,0:0:0:0:
155,158,71192,2,0,L|147:230,1,64.9999970245362,2|2,0:0|0:3,0:0:0:0:
239,363,71495,6,0,P|231:296|229:233,1,129.999994049072,2|2,0:0|0:0,0:0:0:0:
307,254,71950,1,2,0:3:0:0:
391,153,72101,1,2,0:0:0:0:
312,168,72253,1,2,0:3:0:0:
190,97,72404,6,0,L|182:161,1,64.9999970245362,2|2,0:0|0:3,0:0:0:0:
108,85,72707,2,0,L|100:149,1,64.9999970245362,2|2,0:0|0:3,0:0:0:0:
26,73,73010,2,0,L|18:137,1,64.9999970245362,2|2,0:0|0:3,0:0:0:0:
161,18,73313,6,0,P|225:16|290:8,2,129.999994049072,2|2|2,0:0|0:0|0:0,0:0:0:0:
475,231,74223,5,2,0:0:0:0:
482,245,74526,2,0,P|434:260|421:317,1,97.4999955368043,2|0,0:0|0:0,0:0:0:0:
424,313,74829,2,0,L|359:305,1,64.9999970245362,2|2,0:0|0:3,0:0:0:0:
289,117,75132,6,0,P|296:183|298:246,1,129.999994049072,2|2,0:0|0:0,0:0:0:0:
221,226,75586,1,2,0:3:0:0:
171,352,75738,2,0,L|163:287,1,64.9999970245362,2|2,0:0|0:3,0:0:0:0:
33,222,76041,6,0,L|97:229,1,64.9999970245362,2|0,0:0|0:0,0:0:0:0:
41,139,76344,2,0,L|105:146,1,64.9999970245362,2|2,0:0|0:3,0:0:0:0:
49,57,76647,2,0,L|113:64,1,64.9999970245362,6|0,0:0|0:0,0:0:0:0:
270,17,76950,6,0,P|231:16|191:11,1,79.9999999999999,2|8,0:0|0:0,0:0:0:0:
181,22,77177,1,8,0:0:0:0:
181,22,77253,1,2,0:0:0:0:
194,100,77404,1,0,3:0:0:0:
284,174,77556,1,2,3:2:0:0:
271,252,77707,1,2,3:2:0:0:
457,225,77859,6,0,B|420:206|420:206|381:214,1,79.9999999999999,6|8,0:0|0:0,0:0:0:0:
370,208,78086,1,8,0:0:0:0:
370,208,78162,2,0,P|368:168|363:128,1,79.9999999999999,0|2,3:0|3:2,0:0:0:0:
267,21,78465,1,0,3:0:0:0:
289,97,78616,1,2,3:2:0:0:
179,174,78768,5,6,0:0:0:0:
201,69,78919,1,2,0:0:0:0:
209,86,78995,1,2,0:0:0:0:
207,104,79071,1,2,3:2:0:0:
94,165,79223,1,2,3:2:0:0:
19,137,79374,2,0,P|14:176|12:216,1,79.9999999999999,0|0,3:0|3:0,0:0:0:0:
139,358,79677,5,6,0:0:0:0:
75,275,79829,1,2,0:0:0:0:
93,273,79904,1,2,0:0:0:0:
110,281,79980,2,0,B|147:262|147:262|186:270,1,79.9999999999999,0|2,3:0|3:2,0:0:0:0:
248,140,80283,2,0,P|253:179|255:219,1,79.9999999999999,0|2,3:0|3:2,0:0:0:0:
402,281,80586,6,0,B|365:262|365:262|326:270,1,79.9999999999999,6|8,0:0|0:0,0:0:0:0:
319,285,80813,1,8,0:0:0:0:
319,285,80889,5,0,3:0:0:0:
338,151,81041,1,2,3:2:0:0:
458,222,81192,5,0,3:0:0:0:
474,327,81344,1,2,3:2:0:0:
400,358,81495,6,0,B|362:350|362:350|325:369,1,79.9999999999999,6|0,0:0|0:0,0:0:0:0:
311,364,81723,1,8,0:0:0:0:
311,364,81798,2,0,P|309:324|304:284,1,79.9999999999999,0|2,3:0|3:2,0:0:0:0:
145,194,82101,1,0,3:0:0:0:
181,122,82253,1,2,3:2:0:0:
220,294,82404,6,0,B|183:275|183:275|144:283,1,79.9999999999999,6|8,0:0|0:0,0:0:0:0:
137,298,82632,1,8,0:0:0:0:
137,298,82707,1,0,3:0:0:0:
273,368,82859,1,2,3:2:0:0:
343,232,83010,1,0,3:0:0:0:
207,162,83162,1,2,3:2:0:0:
134,194,83313,5,6,0:0:0:0:
289,166,83465,1,8,0:0:0:0:
291,148,83541,1,8,0:0:0:0:
283,131,83616,1,8,0:0:0:0:
218,83,83768,1,8,0:0:0:0:
200,245,83919,1,0,3:0:0:0:
191,235,84223,6,0,P|241:244|261:319,1,120,12|2,0:0|0:3,0:0:0:0:
255,316,84526,2,0,P|294:311|334:309,1,79.9999999999999,2|2,0:0|0:3,0:0:0:0:
183,225,84829,2,0,P|143:220|103:218,1,79.9999999999999,6|0,0:0|0:0,0:0:0:0:
147,73,85132,6,0,P|76:76|62:175,1,160,6|8,0:0|0:0,0:0:0:0:
211,122,85586,1,2,0:0:0:0:
220,135,85662,1,8,0:0:0:0:
221,151,85738,2,0,P|260:152|301:157,1,79.9999999999999,2|2,0:0|0:3,0:0:0:0:
458,61,86041,2,0,P|410:64|387:150,1,120,8|0,0:0|0:0,0:0:0:0:
386,135,86344,5,2,0:0:0:0:
453,176,86495,1,2,0:0:0:0:
399,263,86647,1,8,0:0:0:0:
406,274,86950,2,0,P|445:269|485:268,1,79.9999999999999,2|2,0:0|0:3,0:0:0:0:
376,384,87253,1,8,0:0:0:0:
338,313,87404,1,0,0:0:0:0:
215,374,87556,5,2,0:0:0:0:
131,328,87707,1,2,0:0:0:0:
258,301,87859,2,0,P|259:261|263:221,1,79.9999999999999,8|2,0:0|0:0,0:0:0:0:
428,137,88162,2,0,B|372:114|372:114|326:152,1,120,2|0,0:0|0:0,0:0:0:0:
322,167,88465,2,0,P|320:127|316:87,1,79.9999999999999,8|2,0:0|0:3,0:0:0:0:
164,33,88768,5,2,0:0:0:0:
77,76,88919,1,2,0:0:0:0:
174,44,89071,1,8,0:0:0:0:
247,161,89222,1,2,0:3:0:0:
246,145,89298,1,2,0:3:0:0:
237,132,89374,5,2,0:0:0:0:
205,269,89525,1,2,0:0:0:0:
186,347,89677,1,12,0:0:0:0:
177,338,89980,6,0,B|80:349|128:282|31:295,1,160,6|8,0:0|0:0,0:0:0:0:
123,227,90435,1,2,0:0:0:0:
110,218,90510,1,0,0:0:0:0:
94,217,90586,2,0,P|93:177|88:137,1,79.9999999999999,2|2,0:0|0:3,0:0:0:0:
218,6,90889,2,0,P|170:9|147:95,1,120,8|0,0:0|0:0,0:0:0:0:
146,80,91192,5,2,0:0:0:0:
194,141,91344,1,2,0:0:0:0:
293,268,91495,2,0,P|235:274|199:229,1,120,8|8,0:0|0:0,0:0:0:0:
191,218,91798,2,0,P|186:257|185:297,1,79.9999999999999,2|2,0:0|0:3,0:0:0:0:
303,380,92101,1,12,0:0:0:0:
265,309,92253,1,0,0:0:0:0:
348,150,92404,5,2,0:0:0:0:
334,261,92556,1,2,0:0:0:0:
205,134,92707,1,8,0:0:0:0:
278,102,92859,1,2,0:0:0:0:
441,47,93010,2,0,B|394:9|394:9|339:31,1,120,2|0,0:0|0:0,0:0:0:0:
336,44,93313,1,8,0:0:0:0:
448,158,93465,1,8,0:0:0:0:
447,142,93541,1,8,0:0:0:0:
438,129,93616,5,2,3:2:0:0:
273,90,93768,1,8,3:2:0:0:
234,255,93919,1,8,3:2:0:0:
399,294,94071,1,8,3:2:0:0:
467,253,94222,2,0,L|462:213,3,40,8|0|2|0,3:2|0:0|3:2|0:0,0:0:0:0:
469,202,94525,2,0,B|431:194|431:194|394:213,1,79.9999999999999,0|0,3:0|0:0,0:0:0:0:
210,151,94828,6,0,P|269:158|329:159,1,120,6|0,0:0|0:0,0:0:0:0:
337,152,95132,1,8,0:0:0:0:
241,50,95283,1,2,0:0:0:0:
232,63,95358,1,8,0:0:0:0:
231,79,95434,1,2,0:0:0:0:
135,170,95586,1,2,0:3:0:0:
79,228,95738,2,0,B|37:222|37:222|5:242,1,79.9999999999999,8|0,0:0|0:0,0:0:0:0:
238,220,96041,6,0,P|191:225|156:343,1,160,2|8,0:0|0:0,0:0:0:0:
326,276,96495,1,2,0:0:0:0:
325,260,96571,1,8,0:0:0:0:
316,246,96647,2,0,P|317:166|327:86,1,160,2|8,0:0|0:0,0:0:0:0:
399,120,97101,1,0,0:0:0:0:
262,38,97253,5,2,0:0:0:0:
152,86,97404,1,2,0:0:0:0:
235,195,97556,2,0,P|234:155|229:115,1,79.9999999999999,8|2,0:0|0:0,0:0:0:0:
365,237,97859,2,0,P|310:240|296:316,1,120,2|0,0:0|0:0,0:0:0:0:
294,304,98162,1,8,0:0:0:0:
356,353,98313,1,2,0:3:0:0:
434,191,98465,6,0,B|471:183|471:183|508:202,1,79.9999999999999,2|2,0:0|0:0,0:0:0:0:
373,128,98768,2,0,B|335:120|335:120|298:139,1,79.9999999999999,8|2,0:0|0:3,0:0:0:0:
220,241,99071,1,2,0:0:0:0:
242,317,99222,1,2,0:0:0:0:
101,353,99374,1,12,0:0:0:0:
123,277,99525,1,2,0:3:0:0:
223,161,99677,6,0,P|221:101|214:41,1,120,6|0,0:0|0:0,0:0:0:0:
207,32,99980,2,0,B|169:24|169:24|132:43,1,79.9999999999999,8|2,0:0|0:0,0:0:0:0:
304,96,100283,1,2,0:0:0:0:
298,106,100586,2,0,B|335:98|335:98|372:117,1,79.9999999999999,8|0,0:0|0:0,0:0:0:0:
489,238,100889,5,2,0:0:0:0:
482,157,101041,1,2,0:0:0:0:
499,246,101192,1,8,0:0:0:0:
342,320,101344,1,2,0:0:0:0:
358,319,101419,1,8,0:0:0:0:
372,310,101495,2,0,P|411:310|451:315,1,79.9999999999999,2|2,0:0|0:3,0:0:0:0:
336,234,101798,1,12,0:0:0:0:
329,244,102101,5,2,0:0:0:0:
252,175,102253,1,2,0:0:0:0:
117,219,102404,1,8,0:0:0:0:
149,343,102556,1,2,0:0:0:0:
176,163,102707,1,2,0:0:0:0:
170,152,103010,5,12,0:0:0:0:
147,75,103162,1,0,0:0:0:0:
351,26,103313,5,8,0:0:0:0:
307,16,103389,1,0,3:0:0:0:
265,30,103465,1,2,0:0:0:0:
237,65,103541,1,2,0:0:0:0:
231,108,103616,5,8,0:0:0:0:
210,146,103692,1,0,3:0:0:0:
172,169,103768,1,2,0:0:0:0:
127,168,103844,1,2,0:0:0:0:
90,144,103919,6,0,P|99:223|100:303,1,160,12|2,0:0|0:3,0:0:0:0:
391,237,104525,5,12,0:0:0:0:
480,91,104676,1,0,0:0:0:0:
443,21,104828,2,0,P|434:95|431:170,1,150,8|2,0:0|0:0,0:0:0:0:
438,180,105131,1,8,0:0:0:0:
474,250,105282,1,2,0:0:0:0:
308,323,105434,5,8,0:0:0:0:
323,193,105585,1,2,0:0:0:0:
322,332,105737,2,0,P|272:334|222:338,1,99.9999999999999,8|2,0:0|0:0,0:0:0:0:
35,313,106040,2,0,B|125:324|80:261|171:273,1,150,8|2,0:0|0:0,0:0:0:0:
185,263,106343,6,0,B|193:214|193:214|163:174,1,99.9999999999999,12|2,0:0|0:0,0:0:0:0:
88,11,106646,2,0,P|86:85|77:160,1,150,8|0,0:0|0:0,0:0:0:0:
84,171,106949,1,8,0:0:0:0:
172,64,107100,1,2,0:0:0:0:
170,46,107176,1,2,0:0:0:0:
178,29,107252,5,12,0:0:0:0:
288,144,107403,1,2,0:0:0:0:
463,107,107555,5,12,0:0:0:0:
440,220,107706,1,2,0:0:0:0:
317,280,107858,5,12,0:0:0:0:
333,357,108009,1,2,0:0:0:0:
296,202,108161,6,0,P|222:204|147:213,1,150,12|0,0:0|0:0,0:0:0:0:
139,225,108464,1,8,0:0:0:0:
169,298,108615,1,2,0:0:0:0:
248,118,108767,1,8,0:0:0:0:
218,45,108918,1,2,0:0:0:0:
118,138,109070,6,0,P|31:140|2:242,1,200,12|8,0:0|0:0,0:0:0:0:
79,243,109525,1,2,0:0:0:0:
178,347,109676,2,0,B|218:317|218:317|267:325,1,99.9999999999999,8|2,0:0|0:0,0:0:0:0:
445,265,109979,5,12,0:0:0:0:
432,187,110131,1,2,0:0:0:0:
330,384,110282,5,8,0:0:0:0:
240,239,110434,1,2,0:0:0:0:
150,94,110585,5,8,0:0:0:0:
100,242,110737,1,2,0:0:0:0:
102,260,110812,1,2,0:0:0:0:
94,277,110888,6,0,B|143:269|143:269|183:299,1,99.9999999999999,12|2,0:0|0:0,0:0:0:0:
367,203,111191,1,12,0:0:0:0:
236,234,111343,1,2,0:0:0:0:
267,365,111494,1,12,0:0:0:0:
296,290,111646,1,2,0:0:0:0:
206,152,111797,6,0,B|255:144|255:144|295:174,1,99.9999999999999,12|2,0:0|0:0,0:0:0:0:
457,254,112100,2,0,P|397:236|387:145,1,150,8|0,0:0|0:0,0:0:0:0:
390,150,112403,1,8,0:0:0:0:
232,0,112555,1,2,0:0:0:0:
240,17,112631,1,2,0:0:0:0:
238,35,112706,6,0,B|278:5|278:5|327:13,1,99.9999999999999,12|2,0:0|0:0,0:0:0:0:
472,98,113009,2,0,B|432:68|432:68|383:76,1,99.9999999999999,8|2,0:0|0:0,0:0:0:0:
318,232,113312,2,0,P|320:182|324:132,1,99.9999999999999,8|2,0:0|0:0,0:0:0:0:
435,323,113615,5,12,0:0:0:0:
236,252,113767,1,2,0:0:0:0:
177,361,113918,5,8,0:0:0:0:
351,309,114070,1,2,0:0:0:0:
238,171,114221,6,0,P|235:121|231:71,1,99.9999999999999,8|2,0:0|0:0,0:0:0:0:
236,59,114449,1,2,0:0:0:0:
236,59,114525,5,8,0:0:0:0:
269,37,114600,1,0,3:0:0:0:
308,32,114676,1,2,0:0:0:0:
345,46,114752,1,2,0:0:0:0:
373,75,114828,5,8,0:0:0:0:
389,94,114903,1,0,3:0:0:0:
410,106,114979,1,2,0:0:0:0:
435,109,115055,1,2,0:0:0:0:
459,104,115131,6,0,P|455:153|452:203,1,99.9999999999999,12|2,0:0|0:0,0:0:0:0:
336,326,115434,6,0,B|246:337|291:274|200:286,1,150,12|0,0:0|0:0,0:0:0:0:
186,276,115737,2,0,B|178:227|178:227|208:187,1,99.9999999999999,8|2,0:0|0:0,0:0:0:0:
47,54,116040,2,0,P|91:49|133:145,1,150,8|0,0:0|0:0,0:0:0:0:
128,139,116343,5,12,0:0:0:0:
203,35,116494,1,2,0:0:0:0:
205,17,116570,1,2,0:0:0:0:
197,0,116646,5,8,0:0:0:0:
286,156,116797,1,2,0:0:0:0:
357,120,116949,5,8,0:0:0:0:
318,286,117100,1,2,0:0:0:0:
390,320,117252,6,0,B|299:308|344:371|254:360,1,150,12|0,0:0|0:0,0:0:0:0:
242,351,117555,1,8,0:0:0:0:
118,284,117706,1,8,0:0:0:0:
116,266,117782,1,8,0:0:0:0:
124,249,117858,5,2,0:0:0:0:
196,282,118009,1,0,3:0:0:0:
303,171,118161,5,2,0:0:0:0:
381,154,118312,1,0,3:0:0:0:
285,49,118464,5,2,3:2:0:0:
207,32,118615,1,0,3:0:0:0:
156,94,118767,5,2,3:2:0:0:
234,111,118918,1,0,3:0:0:0:
358,233,119070,6,0,B|437:222|398:277|477:268,2,129.999994049072,6|8|8,0:0|3:2|3:2,0:0:0:0:
223,364,119979,2,0,P|241:305|302:296,2,129.999994049072,2|8|8,0:0|3:2|3:2,0:0:0:0:
177,186,120888,2,0,B|136:209|136:209|146:291,2,129.999994049072,2|8|8,0:0|3:2|3:2,0:0:0:0:
330,164,121797,5,2,0:0:0:0:
253,147,122100,1,2,0:3:0:0:
307,89,122403,1,8,3:2:0:0:
392,260,122706,6,0,B|313:269|352:214|273:225,1,129.999994049072,2|8,0:0|3:2,0:0:0:0:
212,276,123161,1,2,0:3:0:0:
212,276,123312,1,8,3:2:0:0:
68,151,123615,6,0,P|128:160|146:219,1,129.999994049072,2|8,0:0|3:2,0:0:0:0:
87,269,124221,1,8,3:2:0:0:
205,118,124525,6,0,B|246:95|246:95|236:13,2,129.999994049072,2|8|8,0:0|3:2|3:2,0:0:0:0:
380,136,125434,6,0,L|300:145,1,64.9999970245362,2|0,0:0|3:0,0:0:0:0:
304,156,125661,1,0,3:0:0:0:
304,156,125737,5,2,3:2:0:0:
291,174,125812,1,0,3:0:0:0:
304,198,125888,1,0,3:0:0:0:
290,219,125964,1,0,3:0:0:0:
295,233,126040,5,2,3:2:0:0:
259,219,126115,1,0,3:0:0:0:
223,228,126191,1,0,3:0:0:0:
198,255,126267,1,0,3:0:0:0:
192,291,126343,6,0,P|189:241|185:191,1,97.4999955368043,6|0,0:0|0:0,0:0:0:0:
174,185,126646,1,8,3:2:0:0:
114,313,126949,1,8,3:2:0:0:
26,209,127252,6,0,P|29:159|33:109,1,97.4999955368043,2|0,0:0|0:0,0:0:0:0:
44,103,127555,1,8,3:2:0:0:
104,231,127858,1,8,3:2:0:0:
208,80,128161,6,0,B|287:69|248:124|327:115,1,129.999994049072,2|2,0:0|0:3,0:0:0:0:
433,51,128615,1,0,3:0:0:0:
402,121,128767,1,8,0:0:0:0:
274,195,129070,6,0,P|332:213|342:274,1,129.999994049072,0|2,3:0|0:3,0:0:0:0:
401,384,129525,1,2,3:2:0:0:
415,307,129676,1,0,3:0:0:0:
236,267,129979,6,0,P|176:270|116:275,1,120,6|0,0:0|0:0,0:0:0:0:
108,284,130282,1,10,0:0:0:0:
144,176,130434,1,8,0:0:0:0:
50,86,130585,5,10,0:0:0:0:
14,194,130737,1,8,0:0:0:0:
221,355,130888,5,10,0:0:0:0:
185,247,131040,1,8,0:0:0:0:
293,211,131191,1,10,0:0:0:0:
329,319,131343,1,8,0:0:0:0:
436,164,131494,5,10,0:0:0:0:
448,87,131646,1,8,0:0:0:0:
512,138,131797,5,10,0:0:0:0:
376,116,131949,1,8,0:0:0:0:
248,288,132100,5,10,0:0:0:0:
384,266,132252,1,8,0:0:0:0:
290,138,132403,5,10,0:0:0:0:
154,116,132555,1,8,0:0:0:0:
502,146,132706,5,10,0:0:0:0:
123,114,133615,6,0,P|127:159|130:204,1,89.999997253418,12|0,0:0|0:0,0:0:0:0:
202,91,133918,2,0,P|204:46|209:1,1,89.999997253418,8|2,0:0|0:0,0:0:0:0:
269,143,134221,2,0,P|333:144|350:207,1,134.999995880127,8|0,0:0|0:0,0:0:0:0:
346,218,134525,6,0,B|384:193|384:193|427:206,1,89.999997253418,12|2,0:0|0:0,0:0:0:0:
486,298,134828,1,8,0:0:0:0:
487,283,134903,1,0,0:0:0:0:
479,269,134979,1,2,0:0:0:0:
315,291,135131,1,8,0:0:0:0:
306,301,135434,5,12,0:0:0:0:
276,170,135585,1,2,0:0:0:0:
323,105,135737,2,0,P|367:102|412:98,1,89.999997253418,8|2,0:0|0:0,0:0:0:0:
279,36,136040,2,0,B|236:23|236:23|198:48,1,89.999997253418,8|2,0:0|0:0,0:0:0:0:
99,155,136343,5,12,0:0:0:0:
114,259,136494,1,2,0:0:0:0:
54,312,136646,5,12,0:0:0:0:
181,164,136797,1,12,0:0:0:0:
329,291,136949,2,0,P|264:291|233:347,1,134.999995880127,12|2,0:0|0:0,0:0:0:0:
243,357,137252,5,12,0:0:0:0:
250,211,137403,1,2,0:0:0:0:
305,152,137555,2,0,P|302:107|298:62,1,89.999997253418,8|2,0:0|0:0,0:0:0:0:
210,54,137858,1,8,0:0:0:0:
217,66,138161,6,0,P|219:110|223:155,1,89.999997253418,12|2,0:0|0:0,0:0:0:0:
338,251,138464,1,8,0:0:0:0:
337,236,138540,1,0,0:0:0:0:
345,222,138615,1,2,0:0:0:0:
128,278,138767,2,0,B|209:287|169:230|250:242,1,134.999995880127,8|2,0:0|0:0,0:0:0:0:
259,250,139070,5,12,0:0:0:0:
275,328,139221,1,2,0:0:0:0:
447,312,139373,5,8,0:0:0:0:
431,234,139525,1,2,0:0:0:0:
308,174,139676,5,8,0:0:0:0:
329,69,139828,1,2,0:0:0:0:
266,18,139979,5,8,0:0:0:0:
240,8,140055,1,0,3:0:0:0:
213,9,140131,1,2,0:0:0:0:
189,19,140206,1,2,0:0:0:0:
176,19,140282,5,8,0:0:0:0:
156,37,140358,1,0,3:0:0:0:
131,47,140434,1,2,0:0:0:0:
104,48,140509,1,2,0:0:0:0:
95,57,140585,5,12,0:0:0:0:
81,94,140661,1,0,3:0:0:0:
108,126,140737,1,2,0:0:0:0:
95,172,140812,1,2,0:0:0:0:
95,172,140888,6,0,B|57:147|57:147|14:160,1,89.999997253418,12|2,0:0|0:0,0:0:0:0:
153,303,141191,2,0,P|153:238|214:215,1,134.999995880127,8|0,0:0|0:0,0:0:0:0:
222,206,141494,1,8,0:0:0:0:
361,317,141646,1,2,0:0:0:0:
308,377,141797,5,12,0:0:0:0:
357,240,141949,1,2,0:0:0:0:
278,147,142100,1,8,0:0:0:0:
277,226,142252,1,2,0:0:0:0:
344,102,142403,5,8,0:0:0:0:
329,84,142479,1,2,0:0:0:0:
345,69,142555,1,2,0:0:0:0:
331,49,142631,1,2,0:0:0:0:
331,49,142706,6,0,B|369:24|369:24|412:37,1,89.999997253418,12|2,0:0|0:0,0:0:0:0:
251,181,143009,1,8,0:0:0:0:
258,101,143161,1,2,0:0:0:0:
358,217,143312,1,8,0:0:0:0:
242,317,143464,1,2,0:0:0:0:
187,259,143615,5,0,3:0:0:0:
320,315,143767,1,2,0:0:0:0:
277,247,143918,1,8,0:0:0:0:
278,231,143994,1,0,3:0:0:0:
280,215,144070,1,2,0:0:0:0:
282,200,144146,1,2,0:0:0:0:
284,184,144221,2,0,P|216:189|149:192,1,134.999995880127,12|0,0:0|0:0,0:0:0:0:
138,183,144525,5,12,0:0:0:0:
184,118,144676,1,2,0:0:0:0:
303,257,144828,1,8,0:0:0:0:
408,200,144979,1,2,0:0:0:0:
479,162,145131,1,8,0:0:0:0:
488,173,145434,6,0,P|490:128|494:83,1,89.999997253418,12|2,0:0|0:0,0:0:0:0:
420,4,145737,1,8,0:0:0:0:
428,18,145812,1,0,0:0:0:0:
427,33,145888,1,2,0:0:0:0:
280,71,146040,2,0,B|323:58|323:58|361:83,1,89.999997253418,8|2,0:0|0:0,0:0:0:0:
205,258,146343,6,0,P|209:190|215:123,1,134.999995880127,12|0,0:0|0:0,0:0:0:0:
207,114,146646,1,10,0:0:0:0:
43,50,146797,1,8,0:0:0:0:
118,21,146949,1,10,0:0:0:0:
278,70,147100,5,8,0:0:0:0:
125,125,147252,1,10,0:0:0:0:
149,200,147403,1,8,0:0:0:0:
271,318,147555,5,10,0:0:0:0:
283,239,147706,1,8,0:0:0:0:
380,175,147858,1,10,0:0:0:0:
304,59,148009,1,8,0:0:0:0:
308,139,148161,5,6,0:0:0:0:
92,102,155434,6,0,B|196:114|144:41|250:55,1,175,8|0,3:2|0:0,0:0:0:0:
261,65,156040,1,8,3:2:0:0:
313,213,156343,2,0,L|326:101,2,99.9999999999999,0|0|0,3:0|0:0|0:0,0:0:0:0:
476,231,157252,6,0,P|411:232|377:333,1,175,8|0,3:2|0:0,0:0:0:0:
368,336,157858,1,8,3:2:0:0:
201,370,158161,2,0,L|312:383,2,99.9999999999999,0|0|0,3:0|0:0|0:0,0:0:0:0:
8,334,159070,6,0,B|112:346|60:273|166:287,1,175,8|0,3:2|0:0,0:0:0:0:
177,297,159676,1,8,3:2:0:0:
359,152,159979,2,0,P|280:149|246:250,1,200,0|0,3:0|0:0,0:0:0:0:
438,196,160888,6,0,L|447:116,1,64.9999970245362,8|0,3:2|0:0,0:0:0:0:
392,72,161191,2,0,P|399:40|387:11,1,64.9999970245362,8|0,3:2|0:0,0:0:0:0:
306,15,161494,2,0,P|298:46|310:75,1,64.9999970245362,8|0,3:2|0:0,0:0:0:0:
271,147,161797,5,8,3:2:0:0:
271,156,161873,1,0,3:0:0:0:
272,164,161949,1,0,3:0:0:0:
273,172,162025,1,0,3:0:0:0:
273,180,162100,6,0,L|263:259,1,55.0000016784668,8|0,3:2|3:0,0:0:0:0:
192,169,162252,2,0,L|182:248,1,55.0000016784668,0|0,3:0|3:0,0:0:0:0:
323,296,162403,6,0,L|332:375,1,55.0000016784668,8|0,3:2|3:0,0:0:0:0:
404,285,162555,2,0,L|413:364,1,55.0000016784668,0|0,3:0|3:0,0:0:0:0:
509,130,162706,5,12,0:0:0:0:
486,271,162858,1,0,0:0:0:0:
441,80,163009,2,0,P|382:81|325:86,1,115.000002193451,8|2,0:0|0:0,0:0:0:0:
320,98,163237,1,2,0:0:0:0:
320,98,163312,1,8,0:0:0:0:
364,165,163464,1,2,0:0:0:0:
186,365,163615,6,0,P|202:285|282:270,1,172.500003290176,12|0,0:0|0:0,0:0:0:0:
289,282,163918,2,0,P|283:224|282:167,1,115.000002193451,8|2,0:0|0:0,0:0:0:0:
126,44,164221,1,8,0:0:0:0:
161,116,164373,1,2,0:0:0:0:
368,98,164525,6,0,B|264:110|316:38|212:52,1,172.500003290176,12|0,0:0|0:0,0:0:0:0:
201,44,164828,1,8,0:0:0:0:
83,114,164979,1,2,0:0:0:0:
75,131,165055,1,0,0:0:0:0:
77,149,165131,1,8,0:0:0:0:
127,211,165282,1,2,0:0:0:0:
225,357,165434,5,12,0:0:0:0:
76,276,165585,1,2,0:0:0:0:
282,290,165737,5,12,0:0:0:0:
431,209,165888,1,2,0:0:0:0:
429,191,165964,1,2,0:0:0:0:
437,174,166040,2,0,B|382:155|382:155|340:193,1,115.000002193451,12|2,0:0|0:0,0:0:0:0:
98,133,166343,6,0,P|178:148|199:227,1,172.500003290176,12|0,0:0|0:0,0:0:0:0:
187,236,166646,2,0,B|241:217|241:217|283:255,1,115.000002193451,8|2,0:0|0:0,0:0:0:0:
222,307,166949,1,8,0:0:0:0:
360,229,167100,1,2,0:0:0:0:
362,211,167176,1,2,0:0:0:0:
354,194,167252,6,0,P|350:106|343:18,1,172.500003290176,12|0,0:0|0:0,0:0:0:0:
331,13,167555,1,8,0:0:0:0:
438,193,167706,1,2,0:0:0:0:
375,376,167858,1,8,0:0:0:0:
268,196,168009,1,2,0:0:0:0:
345,173,168161,6,0,B|205:191|275:94|135:111,1,230.000004386902,12|0,0:0|0:0,0:0:0:0:
3,256,168615,2,0,P|64:273|109:181,1,172.500003290176,12|0,0:0|0:0,0:0:0:0:
105,182,168918,1,2,0:0:0:0:
28,19,169070,6,0,P|114:22|200:29,1,172.500003290176,12|0,0:0|0:0,0:0:0:0:
211,22,169373,1,8,0:0:0:0:
279,65,169525,1,2,0:0:0:0:
236,133,169676,1,8,0:0:0:0:
297,225,169828,1,2,0:0:0:0:
299,207,169903,1,2,0:0:0:0:
291,190,169979,6,0,P|348:185|405:183,1,115.000002193451,12|2,0:0|0:0,0:0:0:0:
477,369,170282,1,8,0:0:0:0:
509,295,170434,1,2,0:0:0:0:
357,262,170585,1,8,0:0:0:0:
278,346,170737,1,2,0:0:0:0:
261,338,170812,1,2,0:0:0:0:
243,340,170888,5,12,0:0:0:0:
224,262,171040,1,2,0:0:0:0:
102,204,171191,1,8,0:0:0:0:
121,126,171343,1,2,0:0:0:0:
0,53,171494,2,0,P|57:48|114:46,1,115.000002193451,8|2,0:0|0:0,0:0:0:0:
129,39,171721,1,2,0:0:0:0:
129,39,171797,5,8,0:0:0:0:
170,27,171873,1,8,0:0:0:0:
211,36,171949,1,2,0:0:0:0:
243,65,172025,1,2,0:0:0:0:
253,77,172100,5,0,3:0:0:0:
246,102,172176,1,0,3:0:0:0:
260,129,172252,1,2,0:0:0:0:
252,148,172328,1,2,0:0:0:0:
252,148,172403,6,0,L|242:227,3,57.5000010967254,0|0|2|2,3:0|3:0|0:0|0:0,0:0:0:0:
337,300,172706,5,8,0:0:0:0:
311,259,172782,1,0,3:0:0:0:
270,236,172858,1,2,0:0:0:0:
224,235,172934,1,2,0:0:0:0:
182,258,173009,5,8,0:0:0:0:
145,287,173085,1,0,3:0:0:0:
100,294,173161,1,2,0:0:0:0:
55,279,173237,1,2,0:0:0:0:
25,245,173312,6,0,P|110:252|197:255,1,172.500003290176,12|0,0:0|0:0,0:0:0:0:
208,264,173615,2,0,B|250:225|250:225|304:244,1,115.000002193451,12|0,0:0|0:0,0:0:0:0:
351,308,173918,5,10,0:0:0:0:
316,162,174070,1,8,0:0:0:0:
504,83,174221,5,10,0:0:0:0:
469,229,174373,1,8,0:0:0:0:
337,83,174525,5,10,0:0:0:0:
512,161,174676,1,8,0:0:0:0:
222,267,174828,5,10,0:0:0:0:
397,168,174979,1,8,0:0:0:0:
428,384,175131,5,10,0:0:0:0:
159,324,175282,1,8,0:0:0:0:
79,308,175434,5,2,0:0:0:0:
113,310,178161,5,12,0:0:0:0:
178,185,178312,1,0,0:0:0:0:
131,118,178464,2,0,P|136:175|138:232,1,115.000002193451,8|2,0:0|0:0,0:0:0:0:
194,63,178767,2,0,P|288:64|307:165,1,172.500003290176,8|0,0:0|0:0,0:0:0:0:
327,135,179070,5,12,0:0:0:0:
307,212,179221,1,2,0:0:0:0:
455,257,179373,1,8,0:0:0:0:
456,242,179449,1,0,0:0:0:0:
448,228,179525,1,2,0:0:0:0:
281,289,179676,2,0,P|223:290|166:296,1,115.000002193451,8|2,0:0|0:0,0:0:0:0:
156,311,179903,1,2,0:0:0:0:
156,311,179979,5,12,0:0:0:0:
67,201,180131,1,2,0:0:0:0:
15,139,180282,1,8,0:0:0:0:
82,93,180434,1,2,0:0:0:0:
150,212,180585,2,0,P|157:126|160:39,1,172.500003290176,8|2,0:0|0:0,0:0:0:0:
170,35,180888,5,12,0:0:0:0:
333,16,181040,1,2,0:0:0:0:
408,155,181191,1,12,0:0:0:0:
245,174,181343,1,2,0:0:0:0:
288,106,181494,2,0,P|290:192|298:278,1,172.500003290176,12|2,0:0|0:0,0:0:0:0:
309,288,181797,5,12,0:0:0:0:
155,247,181949,1,2,0:0:0:0:
89,292,182100,2,0,B|143:273|143:273|185:312,1,115.000002193451,8|2,0:0|0:0,0:0:0:0:
207,95,182403,2,0,P|132:86|101:192,1,172.500003290176,8|2,0:0|0:0,0:0:0:0:
98,173,182706,5,12,0:0:0:0:
175,197,182858,1,2,0:0:0:0:
264,314,183009,1,8,0:0:0:0:
272,300,183085,1,0,0:0:0:0:
271,285,183161,1,2,0:0:0:0:
347,179,183312,2,0,P|348:236|354:293,1,115.000002193451,8|2,0:0|0:0,0:0:0:0:
369,304,183540,1,2,0:0:0:0:
369,304,183615,5,12,0:0:0:0:
348,382,183767,1,2,0:0:0:0:
432,186,183918,5,8,0:0:0:0:
411,108,184070,1,2,0:0:0:0:
203,110,184221,5,8,0:0:0:0:
230,8,184373,1,2,0:0:0:0:
300,196,184525,5,8,0:0:0:0:
259,182,184600,1,0,3:0:0:0:
217,191,184676,1,2,0:0:0:0:
185,219,184752,1,2,0:0:0:0:
171,259,184828,5,8,0:0:0:0:
150,286,184903,1,0,3:0:0:0:
120,303,184979,1,2,0:0:0:0:
86,307,185055,1,2,0:0:0:0:
54,297,185131,6,0,P|61:206|65:115,1,179.999994506836,12|2,0:0|0:0,0:0:0:0:
